#TITLE:In the Blackest Den;
#SUBTITLE:;
#ARTIST:Bulluvegola;
#TITLETRANSLIT:;
#SUBTITLETRANSLIT:;
#ARTISTTRANSLIT:;
#GENRE:;
#CREDIT:;
#MUSIC:In the Blackest Den.ogg;
#BANNER:In the Blackest Den.png;
#BACKGROUND:In the Blackest Den-bg.png;
#CDTITLE:;
#SAMPLESTART:26.914;
#SAMPLELENGTH:21.674;
#SELECTABLE:YES;
#OFFSET:-0.134;
#BPMS:0.000=177.000;
#STOPS:;
#BGCHANGES:;
#FGCHANGES:;

//--------------- dance-single - Pandemonium X ----------------
#NOTES:
     dance-single:
     Pandemonium X:
     Beginner:
     5:
     0,0,0,0,0:
0000
0000
0000
0000
,
0000
0000
0000
0000
,
0000
0000
0000
0000
,
0000
0000
0000
0000
,
0001
0000
0000
0000
,
0000
0000
0000
1000
,
0000
0000
0000
0000
,
0000
0010
0010
1001
,
0000
0000
0000
0000
,
0000
0000
0000
1000
,
0000
0000
0000
0001
,
0000
0000
0000
0100
,
0000
0000
0000
0010
,
0000
0000
0000
1000
,
0000
0000
0000
0100
,
0000
0000
0000
0010
,
0000
0001
0000
1000
,
0000
0000
0010
0000
0000
0000
0000
1001
,
0000
0000
0000
0000
0000
0001
0000
0001
,
0000
1000
0000
0010
,
0000
1000
0000
0100
,
0000
0010
0000
0001
,
0000
0010
0000
0001
,
0000
1000
1000
0001
,
0000
0100
0100
0100
,
0000
0000
0000
0010
,
0000
0100
0000
0001
,
1000
0020
0000
0130
,
0000
0010
0000
1000
,
0000
0001
0000
1000
,
1000
1000
0000
0001
,
0000
0000
0000
0000
0000
0000
0000
0010
,
0000
0001
0000
0000
0000
0000
1000
0000
,
0000
0001
0000
0000
0100
0000
0000
0001
,
0000
1000
0001
0020
,
0000
0000
0030
0100
,
2000
0000
3000
0000
,
0020
0000
0030
0200
,
0000
0000
0300
0000
,
0002
0000
0003
0000
,
1000
0000
0001
0000
,
1000
0000
0001
0000
,
0010
0000
0100
0000
,
0010
0000
0100
0000
,
0000
1000
0000
0100
,
0000
1000
0000
0010
,
0000
1000
0000
0100
,
0000
1000
0000
0001
,
0000
0100
0000
0001
,
0000
0010
0010
0010
,
0000
0001
0000
1000
,
1000
0000
0000
1001
,
0000
0001
0000
1000
,
0100
0010
0001
1000
,
0000
0001
0000
1000
,
0001
0010
0100
1000
,
0000
0100
0000
0000
0000
0000
1000
0000
,
0010
0100
0001
0010
,
0000
0000
0000
0000
,
0000
0000
0000
1001
,
0000
0000
0000
1000
,
0000
0100
0000
0020
,
0000
0000
0000
0000
,
0000
0031
0000
0010
,
0000
0100
0000
1000
,
0000
0020
0000
0000
,
0000
0000
0000
0000
,
0130
0000
0010
0000
,
1000
0000
0001
0000
,
0020
0000
0000
0000
,
0000
0000
0130
0000
,
0010
0000
0001
0000
,
1000
0000
0002
0000
,
0000
0000
0000
0000
,
1003
1001
0000
0000
,
0000
0000
0000
0000
,
0000
0001
0000
0100
,
0000
0010
0000
1000
,
0000
0000
0001
0001
,
0000
1000
0000
0001
0000
0000
0110
0000
;

//--------------- dance-single - Pandemonium X ----------------
#NOTES:
     dance-single:
     Pandemonium X:
     Easy:
     9:
     0,0,0,0,0:
0000
0000
0000
0000
,
0000
0000
0000
0000
,
0000
0000
0000
0000
,
0000
0000
0000
0000
,
0001
0000
1000
0000
0010
0000
1000
0100
,
0000
0100
0000
0100
0000
0100
0010
0000
,
0001
0000
0100
0000
0010
0100
0000
0100
,
0000
0100
0010
0000
1000
0000
1001
0000
,
0000
0000
0000
0000
,
0000
0000
0000
0001
,
0000
1000
0100
2000
,
0000
0000
0000
0000
0000
3001
0100
0000
,
0000
0010
0000
0000
0000
0000
0100
0000
,
0001
1000
0000
0000
0000
0000
0100
0000
,
0010
0001
0000
0000
0000
0000
0010
0000
,
0001
0100
0000
0100
0001
0000
1000
0000
,
0001
0010
0100
1000
,
0100
0000
0010
0000
0001
0000
0000
1000
,
0001
1000
0001
0000
0000
1001
0000
0110
,
0000
0100
1001
0000
0000
0000
0001
0000
,
0100
0010
1000
0001
,
0010
0100
1000
0100
,
0100
0010
0010
0001
,
0001
0010
0100
1100
,
0100
1000
0010
0100
,
0000
0000
0010
0010
0010
0000
0100
0000
,
0001
1000
0100
0010
,
0100
0020
0000
0031
,
0010
1000
0010
0001
,
0100
1000
0100
0001
,
0001
0100
0100
0010
,
1000
0000
0100
0000
0011
0000
0001
1000
,
0000
0010
0000
0000
0000
0000
1000
0000
,
0000
0100
0000
0000
0010
0000
0000
0001
,
0000
0010
0001
0100
,
0001
0020
0000
0130
,
1000
0000
0010
1000
0010
0000
1000
0000
,
0001
0000
0010
0001
0010
0000
0001
0100
,
0001
0100
0010
1000
,
0100
0010
0100
0000
0010
0000
0001
0000
,
0011
0010
0110
0100
,
1100
1000
1010
0100
,
1001
0010
1001
0001
,
1010
1000
0011
1100
,
0000
0100
1000
1010
,
0000
0010
0100
0101
,
0000
0001
0010
0110
,
0000
0100
1000
1100
,
1000
0100
0000
0100
0000
1000
0000
0000
,
0001
0100
0001
0010
,
0100
0010
0000
0010
0000
0001
0000
0000
,
1000
0000
0000
1001
,
0000
0001
1000
0010
,
0001
0010
1000
0100
,
0000
1000
0100
0001
,
0101
1100
1010
1001
,
0000
0001
0001
0000
0000
0000
1010
0000
,
0110
0101
0011
1001
,
0001
0000
1000
0000
,
0010
0000
0100
1001
,
0001
0100
0010
2000
,
3010
0200
0301
0020
,
0001
0001
0001
0001
,
0031
0100
0010
1000
,
0100
0020
0130
0020
,
0031
2000
0010
0010
,
0010
0010
0010
3010
,
0100
0010
1000
0001
,
0010
0100
1000
0010
,
0200
0010
0010
0010
,
0010
0310
0100
0010
,
1000
0100
0020
0031
,
0020
0130
2000
0100
,
0100
0100
0100
0100
,
3100
1001
0000
0000
,
0000
0000
0000
0000
,
0000
0001
0010
0001
,
0100
0010
1000
0100
,
0010
0000
0000
0001
1000
0001
1000
0000
,
0000
1001
0000
0110
0000
0100
2002
0000
,
0000
0000
3003
0000
;

//--------------- dance-single - Pandemonium X ----------------
#NOTES:
     dance-single:
     Pandemonium X:
     Medium:
     13:
     0,0,0,0,0:
0000
0000
0000
0000
,
0000
0000
0000
0000
,
0000
0000
0000
0000
,
0000
0000
0000
0000
,
0001
0000
1000
0000
0100
0000
0001
0100
,
0000
1000
0000
0010
0000
0100
0010
0000
,
1000
0000
0001
0000
0010
1000
0000
0010
,
0000
0001
0010
0100
1000
0010
1001
0000
,
0000
0000
0000
0000
,
0000
0000
0000
0000
0000
0000
0001
0100
,
0000
0001
0100
0010
1000
0000
0001
0100
,
0000
0001
0100
0010
1000
0001
1001
0000
,
0000
1100
0000
0000
0000
0000
0011
0000
,
0100
1100
0000
0000
0000
0000
1010
0000
,
0001
0101
0000
0000
0000
0000
0001
0010
,
0100
1000
0000
0001
1001
0000
0001
0100
,
0010
0000
1000
0010
0100
0000
0001
0010
,
0100
0010
0001
1000
0010
0100
0000
0101
,
1010
0101
1010
0000
0000
1001
0000
0110
,
0000
1001
1001
0000
0000
0000
1010
0000
,
0000
0000
0000
0000
0010
0100
0000
0100
0010
0000
1000
0000
0000
0001
0010
0000
,
0100
0010
0001
0100
0010
1000
0001
0010
,
0001
1000
0010
1000
0001
0010
0100
1000
,
0100
0010
0001
0010
0100
1000
1001
0000
,
0001
0100
0000
0000
0010
1000
0000
1000
0100
0000
0010
0000
0011
0000
0000
0000
,
0000
0000
0000
0000
0001
0000
1000
0000
0001
0000
1000
0000
0001
0100
0000
0100
,
0010
0100
0001
1000
0100
0010
0100
1000
,
0001
0000
0100
0000
2000
0000
0000
0000
0000
0000
0000
0000
3100
0010
0000
0100
,
0001
0000
1000
0000
0100
0010
0000
0100
1000
0000
0001
0000
0100
0001
0000
0010
,
0100
0000
0010
0000
0001
1000
0000
0010
0100
0000
0001
0000
1000
0000
1000
0000
,
0001
0001
0100
0100
0010
0010
0000
0000
,
0200
0000
0301
0000
1010
0000
0001
0101
,
0000
1100
0000
0000
0000
0000
1001
0000
,
0000
0011
0000
0000
1100
0000
0000
0101
,
0000
0000
0000
1010
0000
0000
1001
0000
0000
1000
0000
0100
,
0000
0010
0000
0002
0000
0000
0000
0000
0000
0103
0000
0000
,
1000
0100
0001
1000
0100
0000
0000
0000
,
0001
0100
1000
0010
0100
0000
1000
0100
,
0001
0010
1000
0010
0001
0000
0000
0000
,
0010
1000
0010
0001
0100
0000
0001
0100
,
1010
0000
1000
0100
0011
0000
0001
0100
,
1010
0000
0000
0000
1000
0000
0100
0000
0011
0000
0000
0000
0001
0100
0000
0100
,
0010
0000
1000
0000
0001
1000
0000
1000
0100
0000
0010
0000
0001
0010
0000
0010
,
0100
0000
1000
0000
0100
1000
0000
1000
0010
0000
0100
0000
1001
0000
0000
0000
,
0000
0000
0000
0001
0000
0000
0100
0000
0000
0000
0100
0000
0000
0000
0001
0000
0000
0000
1001
0000
0000
0000
0000
0000
,
0000
0000
0000
1000
0000
0000
0100
0000
0000
0000
0100
0000
0000
0000
1000
0000
0000
0000
1001
0000
0000
0000
0000
0000
,
0000
0000
0000
0001
0000
0000
0010
0000
0000
0000
0010
0000
0000
0000
0100
0000
0000
0000
1100
0000
0000
0000
0000
0000
,
0000
0000
0000
0100
0000
0000
1000
0000
0000
0000
1000
0000
0000
0000
0001
0000
0000
0000
0101
0000
0000
0000
0000
0000
,
0001
0010
0000
1100
0000
0011
0000
0000
,
0101
0000
0000
0001
0000
0100
0000
0010
0000
1010
0000
0000
,
0001
0101
0000
0011
0000
1100
0000
0000
,
1001
0020
0000
0130
,
0000
0000
0000
0001
0000
0000
1000
0000
0000
0000
1000
0000
0000
0000
0001
0000
0000
0000
0011
0000
0000
0000
0000
0000
,
1100
0101
1010
1001
,
0000
0000
0000
0000
0000
0000
1000
0000
0000
0000
0000
0000
0100
0000
0000
0000
0000
0000
0000
0000
0100
0000
0000
0000
0000
0000
0000
0000
0010
0000
0000
0000
0000
0000
0000
0000
0011
0000
0000
0000
0000
0000
0000
0000
0000
1000
0000
0000
,
0100
0000
0000
0100
0010
0000
0000
0010
0001
0000
0000
0001
0100
0000
0000
0000
,
0000
0110
0110
0000
0000
0000
1001
0000
,
0101
0000
1010
0000
1100
0000
1001
1000
,
0001
0200
0000
0310
1000
0200
0000
0310
,
0001
0200
0000
0310
1000
0100
1001
0000
,
0001
1000
0010
1000
,
0100
0000
0010
0000
0001
0000
0100
0001
,
0100
0010
1000
0001
0010
0100
0010
0001
,
0100
0010
1000
0000
0001
0000
0010
0000
,
0001
0100
0010
1000
,
0100
0000
0010
0100
1000
0010
0100
0001
,
0010
0100
0010
0001
0100
0010
1000
0100
,
0010
0010
0100
0100
,
1000
0100
0010
0001
,
0100
0001
0100
0010
1000
0001
0010
0100
,
0010
0001
1000
0010
0100
0000
0001
0000
,
0010
0001
1000
0100
,
0010
0000
0100
0000
1000
0100
1000
0010
,
0100
0001
0010
0100
0010
0001
0100
0010
,
1000
0001
1001
0000
0000
0000
0000
0000
,
0000
0000
0000
0000
,
0000
0000
1000
0010
0100
0001
0010
0100
,
0010
0001
0100
0010
1000
0100
0010
0001
,
0010
0100
0000
0011
1100
0011
1100
0000
,
0000
0000
1001
0000
0000
0000
1001
0000
0000
0000
0010
0100
0020
0000
0000
0000
,
0000
0000
0030
0000
;

//--------------- dance-single - Pandemonium X ----------------
#NOTES:
     dance-single:
     Pandemonium X:
     Hard:
     16:
     0,0,0,0,0:
0000
0000
0000
0000
,
0000
0000
0000
0000
,
0000
0000
0000
0000
,
0000
0000
0000
0000
,
0001
0000
0010
0000
0001
0000
0100
0000
0001
0000
0010
0000
0100
1000
0100
0000
,
1000
0001
0010
0001
0101
0000
1010
0010
,
0100
0000
0010
0000
1000
0000
0010
0000
0100
0001
0100
0000
0010
0000
1000
0000
,
0100
0010
0100
1000
0001
0100
M110
000M
,
0000
M000
000M
M000
000M
0000
M000
000M
,
0000
M000
000M
M000
000M
0000
1000
0001
,
0000
1000
0001
1000
0001
0000
1000
0001
,
0000
1000
0001
1000
0001
0010
10M1
0000
,
0000
1010
0000
0000
0000
0000
1100
0000
,
0001
101M
0000
0000
0000
0000
1001
0000
,
1000
M110
0000
0000
0000
0000
0001
0100
,
0010
1000
0000
0100
1M01
0000
0001
0100
,
0010
0100
0001
0010
0100
0010
0001
1000
,
0100
1000
0010
0100
0001
1000
0000
1001
,
1001
1001
1001
0000
0000
0110
0000
1001
,
0000
0000
1000
0001
2000
0000
0000
0000
0000
0000
0000
0000
3100
0000
0000
0000
,
0010
0001
0000
0000
0001
0010
0000
0010
0100
0000
0010
0000
0000
0000
0001
0100
,
0001
0000
1000
0000
0100
0000
1000
0000
0010
0000
0100
0000
0001
0010
0001
0000
,
0010
0100
0010
0000
0100
1000
0100
0000
1000
0010
1000
0000
0001
1000
0100
0000
,
0010
0001
1000
0010
1000
0001
0010
0100
1000
0000
0001
0000
1001
0000
0000
0000
,
0001
0100
0000
0000
0010
1000
0000
1000
0100
0000
1000
0000
0002
0000
0000
0000
,
0000
0000
0000
0000
0100
0000
0100
0000
0100
0000
0103
0000
0010
1000
0000
0100
,
0010
0000
0100
0000
1000
0001
1000
0010
0100
0001
0100
0010
1000
0000
1000
0001
,
0010
0000
0001
0000
0040
0400
0000
0000
0000
0000
0330
0000
0001
1000
0000
0010
,
0100
0000
0001
0000
1000
0001
0000
0100
0010
0000
1000
0000
0001
0010
0000
0010
,
0100
0000
1000
0000
1000
0010
0000
0010
0100
0000
0001
0000
0010
0000
0010
0000
,
0001
0000
0001
0000
0100
0000
0100
0000
0010
0000
0010
0000
1000
0000
0000
1000
,
0100
0010
0001
1000
0001
1000
0100
0010
0001
0000
0000
0000
1000
0000
M201
0000
,
0000
0000
100M
0000
0000
0000
0000
0000
0000
0000
0000
0300
1M02
0000
0000
0000
,
0000
0003
102M
0000
0000
0000
0000
0000
M001
0000
0000
0000
0000
0000
100M
0000
,
0000
0000
0000
M13M
0000
0000
1001
0000
0000
0011
0000
1100
,
0000
0000
0000
0000
0011
0000
0000
0000
0000
0000
0000
0000
0004
0000
0000
4000
0000
0000
0000
0000
0000
0000
0000
0000
0000
0000
0000
0000
0000
0000
3003
0000
0000
0000
0000
0000
1001
0000
0000
0000
0000
0000
0000
0000
0000
0000
0000
0000
,
1000
0000
0100
0000
0010
0000
0001
0100
1000
0000
0000
0000
0000
0000
0000
0000
,
0100
0000
0001
0000
1000
0100
0010
0100
0001
0000
0000
0000
0100
1000
0010
0000
,
0100
0000
0010
0100
1000
0000
0100
0000
0001
0000
0000
0000
0000
0000
0000
0000
,
0001
0000
0100
0000
1000
0100
0010
1000
0100
0000
0000
0000
0010
0001
0010
0001
,
M1M0
0000
0000
0000
0010
1000
0010
1000
01MM
0000
0000
0000
0001
0100
0001
0100
,
M01M
0000
0000
0000
1000
0100
1000
0100
M01M
0000
0000
0000
0001
0100
0000
010M
,
1000
0000
0001
0000
1000
0100
0000
M100
0001
0000
1000
0000
0001
0010
0000
001M
,
1000
0000
0001
0000
1000
0010
0000
M010
0001
0000
1000
0000
0101
0000
0000
0000
,
0000
0000
0001
0000
1000
0000
0100
0001
0000
010M
1000
0000
1001
0000
0000
0000
,
0000
0000
0001
0000
1000
0000
0010
0001
0000
001M
1000
0000
1100
0000
0000
0000
,
0000
0000
1000
0000
0001
0000
0010
1000
0000
M010
0001
0000
1001
0000
0000
0000
,
0000
0000
1000
0000
0001
0000
0100
1000
0000
M100
0001
0000
0021
0000
0000
0000
,
0031
210M
0000
0001
000M
0001
0000
0000
,
3010
0000
0000
0000
0101
0000
0000
0110
0000
0000
1010
0000
1200
0000
0000
0000
,
1300
1M02
M000
1000
M000
1000
0000
0000
,
1003
0000
0000
0000
0001
0100
0010
1000
0001
0100
0010
1000
0001
0000
0000
0000
,
0000
0000
1000
0000
1200
0000
0000
M001
0000
0000
130M
0000
1010
0000
0000
0000
,
0101
0011
0110
1001
,
0000
0000
0001
0000
0201
0000
0000
100M
0000
0000
M301
0000
0101
0000
0000
1000
,
0020
0000
0030
00M1
0020
0000
0030
10M0
0020
0000
0030
00M1
2000
0000
0000
0000
,
0000
3000
M011
0000
M011
0000
0000
0000
0000
0000
0000
0000
1001
0000
0000
0000
,
1100
0000
0101
0000
1010
0000
0001
1000
,
M010
0010
0001
1000
M100
0100
1000
0001
,
001M
0010
1000
0001
010M
0100
1000
0100
,
0010
0000
0100
0000
1000
0000
0100
0000
0010
0001
0010
0000
0001
0000
0100
0000
,
0001
0000
0000
0000
0000
0000
0000
0000
1000
0000
0000
0000
0000
0000
0000
0000
0100
0000
0000
0000
0000
0000
0000
0000
1000
0000
0000
0000
0000
0000
0000
0000
0001
0000
0000
0000
0000
0000
0000
0000
0010
0000
0000
0000
0000
0000
0000
0000
0001
0000
0000
0000
0000
0000
0000
0000
2000
3000
0000
0000
0000
0000
0000
0000
,
0020
0030
0000
0000
0000
0000
0000
0000
0200
0300
0000
0000
0002
0003
0000
0000
0020
0030
0000
0000
0002
0003
0000
0000
0000
0000
0000
0000
0002
0003
0000
0000
2000
3000
0000
0000
0000
0000
0000
0000
0020
0030
0000
0000
0000
0000
0000
0000
2000
3000
0000
0000
0200
0300
0000
0000
2000
3000
0000
0000
0200
0300
0000
0000
,
2000
3000
0000
0000
0000
0000
0000
0000
2000
3000
0000
0000
0002
0003
0000
0000
0010
0000
0000
0000
0100
0000
0000
0000
0010
0000
0000
0000
0001
0000
0000
0000
0010
0000
0000
0000
0000
0000
0000
0000
0001
0000
0000
0000
0000
0000
0000
0000
0100
0000
0000
0000
0000
0000
0000
0000
0001
0000
0000
0000
0000
0000
0000
0000
,
1000
0100
1000
0000
0001
0000
0010
0000
0001
0000
1000
0000
0010
0000
1000
0000
,
0100
0000
0000
0000
0000
0000
0000
0000
1000
0000
0000
0000
0000
0000
0000
0000
0001
0000
0000
0000
0000
0000
0000
0000
0200
0300
0000
0000
0000
0000
0000
0000
0020
0030
0000
0000
0200
0300
0000
0000
0002
0003
0000
0000
0020
0030
0000
0000
0002
0003
0000
0000
2000
3000
0000
0000
0002
0003
0000
0000
2000
3000
0000
0000
,
0002
0003
0000
0000
0000
0000
0000
0000
0020
0030
0000
0000
0000
0000
0000
0000
0200
0300
0000
0000
0000
0000
0000
0000
2000
3000
0000
0000
0000
0000
0000
0000
0020
0030
0000
0000
0000
0000
0000
0000
0200
0300
0000
0000
0002
0003
0000
0000
2000
3000
0000
0000
0002
0003
0000
0000
2000
3000
0000
0000
0002
0003
0000
0000
,
0010
0000
0001
0000
1000
0000
0010
0000
1000
0000
0100
0000
0010
0001
0010
0000
,
0001
1000
0010
1000
0001
0100
0001
0010
,
0100
0000
0000
0000
0000
0000
0000
0000
0020
0030
0000
0000
0000
0000
0000
0000
0002
0003
0000
0000
0000
0000
0000
0000
2000
3000
0000
0000
0000
0000
0000
0000
0020
0030
0000
0000
0200
0300
0000
0000
0020
0030
0000
0000
2000
3000
0000
0000
0020
0030
0000
0000
0000
0000
0000
0000
2000
3000
0000
0000
0000
0000
0000
0000
,
0002
0003
0000
0000
0020
0030
0000
0000
0002
0003
0000
0000
0020
0030
0000
0000
0002
0003
0000
0000
0000
0000
0000
0000
2000
3000
0000
0000
0020
0030
0000
0000
2000
3000
0000
0000
0001
0000
0000
0000
0100
0000
0000
0000
0001
0000
0000
0000
1000
0000
0000
0000
0000
0000
0000
0000
0100
0000
0000
0000
0000
0000
0000
0000
,
1000
0000
0010
0000
1000
0100
1000
0000
0001
0000
1000
0000
0010
0000
1000
0000
,
0100
0000
0000
0000
0000
0000
0000
0000
1000
0000
0000
0000
0000
0000
0000
0000
0001
0000
0000
0000
0000
0000
0000
0000
0010
0000
0000
0000
0100
0000
0000
0000
0010
0000
0000
0000
0100
0000
0000
0000
2000
3000
0000
0000
0020
0030
0000
0000
2000
3000
0000
0000
0000
0000
0000
0000
0002
0003
0000
0000
0000
0000
0000
0000
,
0200
0300
0000
0000
0020
0030
0000
0000
0200
0300
0000
0000
0020
0030
0000
0000
2000
3000
0000
0000
0000
0000
0000
0000
0002
0003
0000
0000
0000
0000
0000
0000
0020
0030
0000
0000
0200
0300
0000
0000
0020
0030
0000
0000
0200
0300
0000
0000
2000
3000
0000
0000
0000
0000
0000
0000
0002
0003
0000
0000
0000
0000
0000
0000
,
2000
0000
0000
3000
0000
0000
0000
0000
0000
0000
0000
0000
0000
0000
0000
0000
0000
0000
0000
0000
0000
0000
0000
0000
0020
0000
0000
0030
0000
0000
0000
0000
0000
0000
0000
0000
0200
0000
0300
0000
0000
0000
0000
0000
0000
0000
0000
0000
M000
0000
0000
0000
0000
0000
0000
0000
0000
0000
0000
0000
0000
0000
0000
0000
0000
0000
0000
0000
0000
0000
0000
0000
000M
0000
0000
0000
0000
0000
0000
0000
0000
0000
0000
0000
0000
0000
0000
0000
0000
0000
0000
0000
0000
0000
0000
0000
0000
0000
0000
0000
0000
0000
0000
0000
0000
0000
0000
0000
0000
0000
0000
0000
0000
0000
0000
0000
0000
0000
0000
0000
M000
0000
0000
0000
0000
0000
0000
0000
0000
0000
0000
0000
0000
0000
0000
0000
0000
0000
0000
0000
0000
0000
0000
0000
000M
0000
0000
0000
0000
0000
0000
0000
0000
0000
0000
0000
0000
0000
0000
0000
0000
0000
0000
0000
0000
0000
0000
0000
M000
0000
0000
0000
0000
0000
0000
0000
0000
0000
0000
0000
0000
0000
0000
0000
0000
0000
0000
0000
0000
0000
0000
0000
,
000M
0000
M000
000M
0000
M000
000M
M000
,
000M
0000
1000
0010
0100
0010
1000
0100
,
0010
0100
1000
0001
0010
0001
0100
0010
,
1000
0001
0000
1001
1001
1001
1001
0000
,
0000
0000
0110
0000
0000
0000
0110
0000
0000
0000
0001
1000
2002
0000
0000
0000
,
0000
0000
3003
0000
;
