#TITLE:Healing Vision;
#SUBTITLE:;
#ARTIST:DE-SIRE;
#TITLETRANSLIT:;
#SUBTITLETRANSLIT:;
#ARTISTTRANSLIT:;
#GENRE:;
#CREDIT:;
#MUSIC:Healing Vision.ogg;
#BANNER:Healing Vision.png;
#BACKGROUND:Healing Vision-bg.png;
#CDTITLE:;
#SAMPLESTART:79.603;
#SAMPLELENGTH:15.000;
#SELECTABLE:YES;
#OFFSET:-0.008;
#BPMS:0.000=98.093
,4.000=97.993
,36.000=196.007
,204.000=48.966
,209.000=196.040
,275.000=96.000
;
#STOPS:;
#DISPLAYBPM:49.000:196.000;
#BGCHANGES:;
#FGCHANGES:;

//--------------- dance-single - Pandemonium X ----------------
#NOTES:
     dance-single:
     Pandemonium X:
     Beginner:
     4:
     0,0,0,0,0:
0000
0000
0000
0000
,
0000
0000
0000
0000
,
0000
0000
0000
0000
,
0000
0000
0000
0000
,
0000
0000
0000
0000
,
0001
0000
0000
0000
,
1000
0000
0010
0000
,
0100
0000
0000
0000
,
0020
0000
0000
0030
,
0100
0000
0000
0000
,
0000
0000
0000
0000
,
0000
0000
0000
0000
,
0001
0000
1000
0000
,
0100
0000
0000
1000
,
0000
0000
0000
0000
,
0000
0000
0001
0000
,
0000
0000
0000
0000
,
0100
0000
0000
0000
,
0000
0000
0010
0010
,
0010
0000
0000
0000
,
0100
0000
0001
0000
,
1000
0000
0000
0001
,
0000
0000
0000
0010
,
0000
0000
0000
0000
,
0100
0000
0000
0000
,
1000
0000
0000
0000
,
0001
0000
0000
0000
,
0100
0000
0000
0000
,
0001
0000
0010
0000
,
0100
0000
0000
1000
,
0001
0000
0000
0000
,
1000
0000
0010
0000
,
0100
0000
0000
0000
,
0010
0000
0000
0000
,
0100
0000
0000
0000
,
0001
0000
0000
0000
,
1000
0000
0001
0000
,
1000
0000
0000
0000
,
0010
0000
0000
0000
,
0100
0000
0000
0000
,
0010
0000
0000
0000
,
1001
0000
0000
0000
,
0000
0000
0000
0000
,
0001
0000
0000
0000
,
1000
0000
0000
0000
,
0010
0000
0000
0000
,
1000
0000
0000
0000
,
0001
0000
0000
0000
,
1000
0000
0000
0000
,
0100
0000
0000
0000
,
2000
0000
0000
0000
,
3001
0000
0000
0000
0000
0000
0001
0000
0000
0001
0000
0000
0000
0001
0000
0000
,
0001
1001
0000
0000
,
0000
1000
0000
0000
,
0000
0010
0000
0000
,
0000
0100
0000
0001
,
0000
0010
0000
0000
,
0000
0100
0000
0000
,
0000
1000
0000
0000
,
0000
0001
0000
0000
,
0000
1000
0000
0000
,
0000
0001
0000
0000
,
0000
0100
0000
0000
,
0000
0010
0000
0100
,
0000
0001
0000
0000
,
1000
0001
0000
0000
,
0000
0010
0000
0100
,
0000
1000
0000
0001
,
0001
0000
0000
0110
;

//--------------- dance-single - Pandemonium X ----------------
#NOTES:
     dance-single:
     Pandemonium X:
     Easy:
     7:
     0,0,0,0,0:
0000
0000
0000
0000
,
0000
0000
0000
0000
,
0000
0000
0000
0000
,
0001
1000
0100
1000
,
1010
1010
0101
0101
,
0001
1000
0100
1000
,
0001
0100
0010
1000
,
0100
0010
0001
1000
,
0220
0000
0000
0330
,
0001
0000
0000
0001
0000
0000
0000
0000
,
1000
0000
0000
1000
0000
0000
0000
0000
,
0010
0000
0000
0010
0000
0000
0000
0000
,
0100
0000
0001
0000
,
0010
0000
0000
0010
0000
0000
0000
0000
,
0100
0000
0000
0100
0000
0000
0000
0000
,
1000
0000
1001
0000
,
0001
1000
0001
0000
,
1000
0000
0000
1000
0000
0000
0000
0000
,
0001
0000
0010
0100
,
0010
0001
1000
0010
,
1000
0000
0100
0000
,
1000
0000
0000
1000
0000
0000
0001
0000
,
0100
0000
0000
0100
0000
0000
0010
0000
,
1000
0000
0001
0000
,
0010
0000
0100
0000
,
1000
0000
0000
0001
0000
0000
0010
0000
,
0001
0000
0000
0100
0000
0000
0010
0000
,
1000
0000
0000
0100
0000
0000
0010
0000
,
0100
0000
1000
0000
,
0010
0000
0000
0100
0000
0000
1000
0000
,
0100
0000
0000
0010
0000
0000
1000
0000
,
0001
0010
0100
0000
,
0100
0010
0001
0000
,
0010
0000
0000
0100
0000
1000
0000
0000
,
0100
0000
0000
0010
0000
0100
0000
0000
,
0010
0000
0000
0001
0000
0100
0000
0000
,
1000
0000
0000
0100
0000
0010
0000
0000
,
1000
0000
0000
0001
0000
0010
0000
0000
,
0001
0000
0000
1000
0000
0010
0000
0000
,
0100
0000
0000
0001
0000
1000
0000
0000
,
0100
0000
0000
0010
0000
0001
0000
0000
,
2002
0000
0000
0000
,
3003
0000
0000
0000
,
1000
0010
1000
0000
,
0001
0100
0001
0000
,
0010
0001
0010
0100
,
2000
0000
0000
0000
,
3001
0100
0010
0000
,
0100
0010
1000
0000
,
0001
0010
0100
1000
,
2002
0000
3003
0000
,
0001
0001
0000
0000
0000
0000
0001
0001
0000
0001
0001
0000
0000
0001
0001
0000
,
0001
0001
0000
0000
1000
0000
0000
0000
0000
0000
0000
0000
0001
0000
0000
0000
,
0100
0010
0000
0100
,
0001
1000
0000
0100
,
1000
0001
0000
1000
,
0000
0001
0000
0010
,
0100
1000
0000
0100
,
0010
0001
0000
0100
,
0001
1000
0000
0001
,
1000
0001
0100
0010
,
1000
0100
0010
0001
,
0010
0001
0100
0010
,
1000
0001
0010
0100
,
1000
0100
1000
0010
,
0100
1000
0100
0001
,
1000
0100
0010
0100
,
1000
0001
0010
0100
,
1000
0000
0000
1001
;

//--------------- dance-single - Pandemonium X ----------------
#NOTES:
     dance-single:
     Pandemonium X:
     Medium:
     12:
     0,0,0,0,0:
0000
0000
0000
0000
,
0000
0000
0000
0000
,
0000
0000
0000
0000
,
1000
0000
0100
0000
1000
0000
0000
0000
0001
0000
0100
0000
0001
0000
0000
1000
,
0001
0000
0000
1000
0001
0000
0000
1000
0001
0000
0000
1000
0001
1000
0001
0000
,
1000
0010
0100
1000
0100
0001
0010
0100
,
0010
1000
0010
0100
0010
0001
0100
1000
,
0100
0000
0010
0000
1000
0000
0001
0000
0010
0000
0100
0000
0010
0000
0001
0100
,
0020
0000
0000
0030
,
0100
0001
0010
0000
0100
0000
0000
0000
,
0010
0000
0000
0100
0000
0000
0000
0000
,
1000
0000
0000
0100
0000
0000
1000
0000
,
0001
0000
1000
0010
0100
0000
0100
0001
,
0010
0000
0100
0000
0010
0001
0100
0000
,
0010
0000
0000
0100
0000
0000
0001
0000
,
1000
0100
1100
0000
,
1000
0001
0100
0000
,
0001
0100
0010
0000
0000
0000
0100
0000
,
0001
0000
1000
0100
,
0001
0100
1000
0010
,
0100
0000
1000
0100
0010
0000
0010
0100
,
0001
0000
0010
0000
0100
0010
0001
0000
,
1000
0000
0001
0000
1000
0001
0010
0100
,
0000
0010
0000
0001
0000
0100
0000
0010
,
0000
1000
0000
0001
0000
0000
0000
0000
,
1000
0000
0100
1000
0000
1000
0010
0000
,
0100
0000
0010
0100
0000
0100
0001
0000
,
0010
0000
0001
0010
0000
0010
0100
0000
,
0200
0000
1300
0010
0200
0000
0310
1000
,
0002
0000
0013
0001
0000
0010
0200
0000
,
0310
0000
0001
0100
0000
0001
0010
0000
,
0100
0000
1000
0001
1001
0000
0000
0000
,
1000
1000
1000
0000
,
0002
0000
0103
0001
0000
0010
0100
0000
,
2000
0000
3100
1000
0000
0001
0100
0000
,
0020
0000
1030
0100
0000
1000
0010
0000
,
0200
0000
0301
1000
0002
0000
0103
0010
,
2000
0000
3001
0010
0000
0001
0200
0000
,
0310
0000
1000
0001
0000
0010
0001
1000
,
0000
0100
0000
1000
0000
0001
0000
0010
,
0000
0100
0000
0010
0100
1000
0001
1000
,
1001
0000
0000
0000
,
0000
0000
0000
0000
,
0001
0100
0010
0000
0100
0010
1000
0000
,
0001
0010
0100
0000
0010
0001
0100
0000
,
0010
1000
0100
0000
0010
0100
1000
0000
,
0002
0000
0000
0000
,
1003
0010
0100
0000
0010
1000
0001
0000
,
0010
0100
1000
0000
0100
0010
0001
0000
,
0100
0010
1000
0000
0001
0010
0100
0000
,
1000
0000
1000
0000
1000
0000
1000
0000
0000
0000
0000
0000
,
0001
1001
0000
0000
0000
0000
1000
1001
0000
0001
1001
0000
0000
1000
1001
0000
,
0001
1001
0000
0000
1000
0000
0010
0000
0100
0000
0000
0000
0010
0000
0000
0000
,
1000
0002
0010
0100
,
1000
0000
0103
0000
0010
0100
0001
0000
,
0010
0000
0100
0000
0010
0001
0100
0000
,
0010
1000
0100
0000
0010
0000
0100
1000
,
0001
2000
0010
0010
,
0001
0000
3001
0000
0100
0001
0011
0000
,
0010
0001
0000
0100
,
0001
0000
1000
0100
1000
0000
0001
0000
,
0101
0000
0001
0100
0010
0000
1000
0000
,
1010
0000
1000
0001
0010
0000
0100
0000
,
1100
0000
2000
0000
3100
1000
0020
0000
,
0130
0001
0010
0100
0010
0000
0001
0000
,
0011
0000
0001
0100
0010
0000
1000
0000
,
1010
0000
0010
0100
0001
0000
1000
0100
,
0010
0000
0100
1000
0001
0100
1000
0100
,
0001
1000
0000
0000
0000
0000
2002
0000
,
0000
0000
0000
3003
;

//--------------- dance-single - Pandemonium X ----------------
#NOTES:
     dance-single:
     Pandemonium X:
     Hard:
     15:
     0,0,0,0,0:
0000
0000
0000
0000
,
0000
0000
0000
0000
,
0000
0000
0000
0000
,
0001
0000
0001
0000
0001
0100
0010
0000
0100
0000
0100
0010
1000
0000
0100
1000
,
1100
0000
0000
0001
0101
0000
0000
1000
1100
0000
0000
0001
0101
0001
0010
0000
,
0010
0001
0100
1000
0100
0001
1000
0100
0010
0100
0000
1100
0000
0011
0000
0000
,
0001
0100
0101
0000
0000
0011
0000
0000
1001
1000
0100
0010
0100
1000
0001
0100
,
0010
0000
0010
1000
0100
0000
0100
0010
0100
1000
0001
0000
1000
0001
0100
0000
,
0001
0100
0010
1000
0100
0010
0100
1000
0001
0010
0200
0000
0000
0000
0000
0000
,
1300
0000
0100
1000
0000
0010
0100
0000
,
1000
0000
0100
0001
0000
0010
0100
0000
,
1000
0000
0100
0001
0000
0100
0010
0000
,
0002
0000
1003
0100
0020
0000
0130
1000
,
0002
0000
0103
0001
0000
0010
0200
0000
,
1000
0000
0000
0010
0000
1300
0010
0000
,
0100
0000
0010
1000
1001
0001
0000
0001
,
0000
0010
0001
0010
0100
0010
0001
1000
,
0020
0000
0130
0001
1000
0000
0100
0010
,
0001
0010
0011
1010
,
0011
0000
0101
0001
0100
0010
1000
0100
,
0020
0000
0130
1000
0020
0000
0130
0001
,
2000
0000
3001
0010
0100
0000
2000
0000
,
0010
0000
0000
0001
0000
3001
0100
0010
,
0100
0001
0010
0100
0000
0010
0000
0001
,
0000
1000
0000
0010
0000
0100
0000
0000
,
1001
0000
0000
0000
0001
0000
0020
0030
0000
0000
0020
0030
1000
0000
0000
0000
,
1001
0000
0000
0000
1000
0000
0200
0300
0000
0000
0200
0300
0001
0000
0000
0000
,
1001
0000
0000
0000
0001
0000
0020
0030
0000
0000
0020
0030
1000
0000
0000
0000
,
2000
0000
3001
0100
0020
0000
0130
0010
,
2000
0000
3100
0010
0001
0000
2000
0000
,
0010
0001
0010
3100
,
0010
0000
0001
1000
1001
0000
1000
0001
,
0000
0100
0010
0100
0000
0000
0100
0001
,
0201
1000
0301
1001
,
0021
1000
0031
1001
,
0201
1000
0010
0301
,
2001
0000
3001
0100
0020
0000
1030
0100
,
0020
0000
0130
0000
1000
0001
2000
0000
,
0010
0000
0000
0001
0000
3001
0000
1000
,
0001
0100
0001
0010
0000
0100
0000
1000
,
0000
0100
0000
0010
0000
0100
1000
0001
,
2002
0000
0000
0000
,
3003
0000
0000
0000
0001
0100
0001
0100
0010
1000
0010
1000
0100
0000
0000
0000
,
0010
0000
0001
0000
0100
0000
0010
0000
1000
0100
1000
0000
0001
0000
1000
0000
,
0100
0000
1000
0000
0001
0000
0010
0000
0001
0100
0001
0000
0100
0000
0010
0000
,
1000
0000
0001
0000
0010
0000
0100
0000
1000
0001
1000
0000
0100
0000
1000
0000
,
0001
0000
0002
0203
0320
2030
3200
0000
,
1300
0000
0010
0000
0100
0000
0001
0010
0001
0100
0001
0000
0010
0000
0001
0000
,
1000
0000
0100
0000
1000
0000
1000
0010
1000
0100
0010
0000
0001
0000
0000
0000
,
0010
0000
0100
0000
1000
0000
0001
0010
0001
0100
0010
0100
0001
0000
1000
0000
,
0101
0000
1010
0000
0101
0000
0110
0000
0000
0000
0000
0000
,
1001
1001
0000
0000
0000
0000
1001
1001
0000
1001
1001
0000
0000
1001
1001
0000
,
1001
1001
0000
0000
1020
0000
0000
0000
0100
0000
0000
0000
1000
0000
0000
0000
,
0130
0001
0021
0000
0001
0000
0130
0000
,
1000
0001
1000
0000
0010
1000
0100
0000
,
0010
0001
0200
0000
1300
0000
0200
0000
,
0301
0000
0021
0000
1000
0000
0031
0100
,
0120
0230
1000
0010
,
0301
0000
1000
0000
0001
0010
0011
0000
,
0001
0000
1000
0000
0100
0010
0011
0000
,
1001
0000
0001
0100
0010
1000
0001
0010
,
0100
1000
0001
1000
0100
1000
0010
0100
,
0001
0010
0100
0010
0001
0100
0010
1000
,
0001
0010
0210
0000
1300
0100
2100
0000
,
3100
0010
0210
0000
0310
0100
1000
0001
,
2001
0000
3010
0100
0001
0010
0001
0100
,
0010
1000
0001
0010
0100
0010
0001
0100
,
0010
1000
0001
0010
0100
1000
0001
1000
,
0001
0000
0000
0000
0000
0000
0000
0000
0000
0000
0000
0000
1000
0000
0000
0000
0000
0000
0000
0000
0000
0000
0000
0000
0001
0000
0000
0000
0000
0000
0000
0000
0000
0000
0000
0000
1000
0000
0000
0000
0000
0000
0000
0000
0000
0000
0000
0000
0000
0000
0000
0000
0000
0000
0000
0000
0000
0000
0000
0000
0000
0000
0000
0000
0000
0000
0000
0000
0000
0000
0000
0000
0000
0000
0000
0000
0000
0000
0000
0000
0000
0000
0000
0000
0000
0000
0000
0000
0000
0000
0000
0000
0000
0000
0000
0000
0000
0000
0000
0000
0000
0000
0000
0000
0000
0000
0000
0000
0000
0000
0000
0000
0000
0000
0000
0000
0000
0000
0000
0000
0000
0000
0000
0000
0000
0000
0000
0000
0000
0000
0000
0000
0000
0000
0000
0000
0000
0000
0000
0000
0000
0000
0000
0000
1000
0000
0000
0000
0000
0000
0000
0000
0000
0000
0100
0000
0000
0000
0000
0000
0000
0000
0000
0010
0000
0000
0000
0000
0000
0000
0000
0000
0000
0002
0000
0000
0000
0000
0000
0000
0000
0000
0000
0000
0000
0000
0000
0000
0000
0000
0000
0000
,
0000
0000
0000
0000
0000
0000
0000
0000
0000
0000
0000
0000
0000
0000
0000
0000
0000
0000
0000
0000
0000
0000
0000
0000
0000
0000
0000
0000
0000
0000
0000
0000
0000
0000
0000
0000
0000
0000
0000
0000
0000
0000
0000
0000
0000
0000
0000
0000
0000
0000
0000
0000
0000
0000
0000
0000
0000
0000
0000
0000
0000
0000
0000
0000
0000
0000
0000
0000
0000
0000
0000
0000
0000
0000
0000
0000
0000
0000
0000
0000
0000
0000
0000
0000
0000
0000
0000
0000
0000
0000
0000
0000
0000
0000
0000
0000
0000
0000
0000
0000
0000
0000
0000
0000
0000
0000
0000
0000
0000
0000
0000
0000
0000
0000
0000
0000
0000
0000
0000
0000
0000
0000
0000
0000
0000
0003
0000
0000
0000
0000
0000
0000
0000
0000
0000
0000
0000
0000
0000
0000
0000
0000
0000
0000
0000
0000
0000
0000
0000
0000
0000
0000
0000
0000
0000
0000
0000
0000
0000
0000
0000
0000
0000
0000
0000
0000
0000
0000
0000
0000
0000
0000
0000
0000
0000
0000
0000
0000
0000
0000
0000
0000
0000
0000
0000
0000
0000
0000
0000
0000
0000
0000
;
