#TITLE:Healing Vision~Angelic mix~;
#SUBTITLE:;
#ARTIST:2MB;
#TITLETRANSLIT:;
#SUBTITLETRANSLIT:;
#ARTISTTRANSLIT:;
#GENRE:;
#CREDIT:;
#MUSIC:Healing Vision~Angelic mix~.ogg;
#BANNER:Healing Vision~Angelic mix~.png;
#BACKGROUND:Healing Vision~Angelic mix~-bg.png;
#CDTITLE:./CDTITLES/DANCE DANCE REVOLUTION HOME VERSION.PNG;
#SAMPLESTART:39.180;
#SAMPLELENGTH:15.000;
#SELECTABLE:YES;
#OFFSET:0.000;
#BPMS:0.000=49.046
,4.000=48.980
,8.000=195.998
,230.000=195.980
,295.000=49.013
;
#STOPS:230.000=0.307;
#DISPLAYBPM:46.000:196.000;
#BGCHANGES:;
#FGCHANGES:;

//--------------- dance-single - ----------------
#NOTES:
     dance-single:
     :
     Beginner:
     6:
     0,0,0,0,0:
0000
0000
0000
0000
,
0000
0000
0000
0000
,
0001
0000
0000
0000
,
1000
0000
0000
0000
,
0010
0000
0000
0000
,
0100
0000
0010
0000
,
1000
0000
0000
0000
,
0100
0000
0000
0000
,
0010
0000
0000
0000
,
0001
0000
0010
0000
,
0001
0000
0000
0000
,
0100
0000
0000
0000
,
0010
0000
0000
0000
,
0100
0000
0001
0000
,
1000
0000
0000
0000
,
0100
0000
0000
0000
,
0010
0000
0000
0000
,
0001
0000
1000
0000
,
0010
0000
0000
0000
,
0100
0000
0000
0000
,
0001
0000
0000
0000
,
0010
0000
0100
0000
,
1000
0000
0000
0000
,
0001
0000
0000
0000
,
0100
0000
0000
0000
,
0010
0000
0100
0000
,
1001
0000
0000
0000
,
0001
0000
0000
0000
,
1000
0000
0000
0000
,
0010
1000
0010
1000
,
0100
0000
0000
0010
,
0000
0000
0001
0000
,
0000
0100
0000
0000
,
0010
0000
0000
1000
,
0001
0000
1000
0000
,
0000
0100
0000
0000
,
0010
0000
0000
0001
,
0100
0001
0010
0001
,
0100
0000
0000
0000
0000
0000
0000
0010
,
0000
0000
0000
0000
0000
0100
0000
0000
,
0001
0000
1000
0000
,
0010
0000
0100
0000
,
1001
0000
0000
0000
,
0001
0000
1000
0000
,
0100
0000
0000
0000
,
0010
0000
0000
0000
,
0100
0000
0000
0000
,
1000
0000
0001
0000
,
0010
0000
0001
0000
,
0100
0000
1001
0110
,
1001
0000
0000
0001
0000
0000
0000
0000
,
1000
0000
0000
1000
0000
0000
0000
0000
,
0001
0000
0000
0001
0000
0000
0000
0000
,
1000
0000
0000
1000
0000
0000
0000
0000
,
0010
0000
0000
0010
0000
0000
0000
0000
,
0100
0000
0000
0100
0000
0000
0000
0000
,
0010
0000
0000
0010
0000
0000
0000
0000
,
0100
0000
0000
0000
0002
0003
1000
0000
,
0000
0000
0000
0100
,
0000
0000
0000
0010
,
0000
0000
0000
0001
,
0000
1000
0000
0100
,
0000
0000
0000
1000
,
0000
0000
0000
0010
,
0000
0000
0000
0100
,
0000
0001
0000
0010
,
0000
0000
0000
0100
,
0000
0000
0000
1000
,
0000
0000
0000
0001
,
0000
1000
0000
0010
,
0000
0000
0000
1000
,
0000
0000
0000
0001
,
0000
0000
0000
0010
,
0000
0001
0000
1001
,
0000
0000
1000
0000
0000
1000
0000
0000
0000
1000
0000
0000
1000
0000
0000
0000
;

//--------------- dance-single - ----------------
#NOTES:
     dance-single:
     :
     Easy:
     10:
     0,0,0,0,0:
0000
0000
0000
0000
,
0000
0000
0000
0000
,
0101
0001
1000
0100
,
0100
1000
0001
0100
,
0100
0001
1000
0100
,
0100
0010
0002
0000
,
0103
0001
0100
0100
,
0010
1000
0100
0100
,
0010
0001
0100
0100
,
0010
1000
0002
0000
,
1003
0100
0010
0100
,
1000
0001
0010
0100
,
0010
0001
0010
0100
,
1000
0001
0020
0000
,
0130
0010
0001
0100
,
0010
0100
0001
0010
,
0100
1000
0010
0100
,
0010
1000
0200
0000
,
1300
0100
0001
0100
,
1000
0001
0100
1000
,
0100
0001
1000
0100
,
0001
0100
1000
0001
,
0100
0000
0000
1001
0000
0000
0000
0000
,
0010
0000
0000
1001
0000
0000
0000
0000
,
0100
0000
0000
1001
0000
0000
0000
0000
,
0010
0100
0010
0100
0010
0100
0010
0000
,
1001
0001
0100
0000
0010
0000
1000
0000
,
0100
1000
0001
0010
,
0100
0010
0001
1000
,
0001
0100
0001
0100
0010
1000
0010
1000
,
0010
0000
0100
0000
0001
0010
0100
0000
,
0010
0001
1000
0100
,
0010
0100
1000
0001
,
0100
0010
1000
0001
,
1001
0001
0100
0010
,
1000
1010
0100
0001
,
0101
0001
0010
0100
,
1000
0100
1000
0100
0010
0001
0010
0001
,
1000
0001
0100
0110
,
0010
0100
0001
1000
,
0001
0001
1000
1000
,
0010
0010
0100
0100
,
1001
0001
0100
0010
,
1000
0100
0020
0100
,
0130
0010
0001
0100
,
0010
1000
0001
0100
,
0001
1000
0010
1000
,
0001
0020
0130
2000
,
3001
1000
0010
1020
,
1000
0000
0100
0000
1030
0001
1000
0001
,
0100
0000
0000
1001
0000
0000
0000
0000
,
0010
0000
0000
1001
0000
0000
0000
0000
,
0100
0000
0000
1001
0000
0000
0000
0000
,
0010
0000
0000
1001
0002
0000
0000
0000
,
0103
0000
0001
0100
0000
0000
0000
0000
,
1010
0000
1000
0100
0000
0000
0000
0000
,
0011
0000
0010
0100
0000
0000
0000
0000
,
1100
0000
0100
1000
0010
0000
0100
0000
,
0010
1000
0001
0010
,
0100
0010
0001
1000
,
0010
0100
0001
0010
,
0100
2000
0100
3001
,
1000
0010
0100
0001
,
0010
0100
0010
0001
,
0100
0010
1000
0100
,
0010
0002
0010
1003
,
0001
0100
0001
0010
,
0100
1000
0100
1000
,
0010
0100
0001
0010
,
0100
0020
0001
0130
,
0010
0001
0100
0010
,
1000
0001
0010
0100
,
1000
0001
0100
0010
,
1000
0000
0000
0000
0002
0000
0000
0000
1000
0000
0000
0000
0103
0100
0000
0000
,
0000
0000
0100
0100
0000
0100
0100
0000
0000
0100
0100
0000
0100
0200
0000
0000
,
0300
0000
0000
0000
;

//--------------- dance-single - ----------------
#NOTES:
     dance-single:
     :
     Medium:
     13:
     0,0,0,0,0:
0000
0000
0000
0000
,
0000
0000
0000
0000
,
1010
0000
1000
0000
0001
0010
0100
0010
,
0001
0000
1000
0000
0010
0100
1000
0100
,
0010
0000
1000
0000
0001
0010
0100
1000
,
0001
0000
1000
0001
0200
0000
0000
0000
,
0310
0000
0100
0010
1000
0100
0010
0100
,
1000
0000
0001
0100
0010
0001
0010
0100
,
0001
0000
0100
0010
1000
0100
0010
0100
,
1000
0000
0100
1000
0002
0000
0000
0000
,
1003
0000
0001
1000
0001
0100
0001
0010
,
0100
0000
0010
0100
0010
0100
1000
0010
,
0100
0000
0010
1000
0010
0100
0001
0010
,
0100
0000
0010
0001
2000
0000
0000
0000
,
3010
0000
0100
0010
1000
0001
0010
0100
,
0010
0000
0100
0010
0001
0010
0100
1000
,
0001
0000
0100
0001
0010
0001
1000
0100
,
0010
0000
0100
1000
0020
0000
0000
0030
,
1001
0000
0001
0100
1000
0100
0001
1000
,
0001
0000
1000
0100
0001
0100
1000
0001
,
1000
0000
0001
0010
1000
0010
0001
1000
,
0001
0000
1000
0010
0001
0010
1000
0100
,
0110
0000
0000
0011
0000
0000
0000
0000
,
0110
0000
0000
1100
0000
0000
0000
0000
,
0110
0000
0000
0011
0000
0000
0000
0000
,
0001
1000
0001
1000
0001
1000
0020
0000
,
0130
0001
0010
0000
0100
0000
0010
0001
,
0100
0000
0010
0000
1000
0000
0001
0100
,
0010
0000
1000
0000
0100
0010
0100
0000
,
1000
0100
0001
0100
1000
0010
0001
0010
,
1000
0000
0010
0000
0100
0001
0010
0000
,
0100
0000
0010
0001
0100
0001
1000
0000
,
0100
0000
0010
0001
1000
0100
0010
0000
,
0001
0000
0100
0010
1000
0000
0001
0000
,
1000
0100
0001
0000
0100
0000
1000
0000
,
0001
0100
1000
0000
0100
0000
0001
0010
,
1000
0000
0010
0100
1000
0000
1001
0000
,
1000
0100
0001
0100
1000
0010
0001
0010
,
0100
0000
0010
0100
0001
0010
0100
0000
,
0010
0000
0010
0001
1000
0100
1000
0000
,
0010
1000
0010
0000
0100
0001
0100
0000
,
0001
0010
0001
0000
1000
0100
1000
0000
,
0011
0000
0100
1000
0010
0100
0001
0010
,
0100
0000
0010
0001
0100
0010
1000
0100
,
0010
0000
0100
1000
0001
0100
0001
0010
,
0200
1300
0200
0301
,
1100
0000
1000
0001
0100
0100
0001
1000
,
0010
0000
1000
0001
0010
0010
0100
0010
,
0001
0000
0010
0100
1000
0001
0100
0010
,
1000
0001
0010
0100
2000
3002
2003
3002
,
1003
0000
0000
0110
0000
0000
0000
0000
,
1001
0000
0000
0110
0000
0000
0000
0000
,
1100
0000
0000
0110
0000
0000
0000
0000
,
0011
0000
0000
0110
0000
0000
0000
0000
,
1001
0000
0000
1010
0000
0000
0000
0000
,
1001
0000
0000
0101
0000
0000
0000
0000
,
0011
0000
0000
1100
0000
0000
0000
0000
,
1001
0000
0110
0000
1001
0000
0001
0100
,
0010
1000
0001
0010
0100
1000
0001
0100
,
0010
1000
0001
0010
0100
1000
0100
1000
,
0010
0100
0001
0010
0100
1000
0001
0010
,
0001
0100
0010
0001
0010
1000
0001
1000
,
0100
0010
0100
1000
0001
0100
0010
1000
,
0001
0010
0100
1000
0100
1000
0010
1000
,
0001
0010
0100
0010
0001
0100
0010
1000
,
0001
0010
0100
0001
0100
1000
1100
0000
,
1000
0001
0010
0100
1000
0100
0010
0100
,
1000
0010
0100
0001
1000
0001
0010
0100
,
1000
0100
0010
1000
0010
0100
0001
1000
,
0001
0010
0100
0001
0100
1000
0001
0100
,
0010
1000
0001
0010
0100
0010
0001
0100
,
0010
1000
0001
0010
0100
1000
0100
0010
,
0100
1000
0001
0100
0010
1000
0001
1000
,
0001
0000
1000
0000
0100
0000
0001
0000
0100
0000
1000
0000
0001
1001
0000
0000
,
0000
0000
1000
1001
0000
0001
1001
0000
0000
1000
1001
0000
0001
2002
0000
0000
,
3003
0000
0000
0000
;

//--------------- dance-single - ----------------
#NOTES:
     dance-single:
     :
     Hard:
     16:
     0,0,0,0,0:
0000
0000
0000
0000
,
0000
0000
0000
0000
,
1001
0000
0000
0000
1000
0000
0100
0000
0010
0001
0010
0000
0001
0000
0100
0000
,
0001
0000
0000
0000
0010
0000
0100
0000
1000
0010
1000
0000
0001
0000
0010
0000
,
0100
0000
0000
0000
0010
0000
0001
0000
0100
0010
0100
0000
0001
0000
1000
0000
,
0100
0000
0000
0000
0010
0000
0100
0000
1000
0001
1000
0001
1000
0001
1000
0001
,
1000
0000
0000
0000
0001
0000
0010
0000
0100
1000
0100
0000
1000
0000
0001
0000
,
0100
0000
0000
0000
0010
0000
1000
0000
0001
0100
0001
0000
1000
0000
0100
0000
,
0010
0000
0000
0000
0100
0000
1000
0000
0001
0010
0001
0000
0100
0000
0001
0000
,
0010
0000
0000
0000
0100
0000
0010
0000
0001
1000
0001
1000
0001
1000
0001
1000
,
0001
0000
0000
0000
1000
0000
0010
0000
0100
0001
0010
0000
0100
0000
0010
0000
,
0001
0000
0000
0000
0010
0000
0100
0000
1000
0010
0100
0000
0010
0000
1000
0000
,
0001
0000
0000
0000
0010
0000
0001
0000
1000
0010
0100
0000
0010
0000
1000
0000
,
0100
0000
0000
0000
0010
0000
0001
0000
1000
0001
1000
0001
1000
0001
1000
0001
,
1000
0000
0000
0000
0001
0000
1000
0000
0100
0010
0001
0000
0010
0000
0100
0000
,
1000
0000
0000
0000
0001
0000
0100
0000
0010
1000
0100
0000
0010
0000
0001
0000
,
0100
0000
0000
0000
0010
0000
1000
0000
0100
0010
0001
0000
0010
0000
0001
0000
,
0100
0000
0000
0000
0010
0000
1000
0000
0001
1000
0001
1000
0001
1000
0001
1000
,
0001
0000
1000
0000
0100
0000
1000
0000
0010
0100
0001
0000
0010
0000
0100
0000
,
0010
0000
0001
0000
0100
0000
0010
0000
1000
0100
0010
0000
0100
0000
1000
0000
,
0001
0000
0100
0000
0001
0000
0010
0000
0100
0010
0001
0000
0010
0000
0001
0000
,
0100
0000
0010
0000
1000
0000
0100
0000
0010
0100
1000
0000
0001
0000
0100
0000
,
0101
0010
1000
1100
0000
0000
0000
0000
,
1100
0001
0100
0101
0000
0000
0000
0000
,
1001
0010
0100
1100
0000
0000
0000
0000
,
1000
0000
1000
0000
0001
0000
0001
0000
0100
0000
0100
0000
0001
0100
0010
1000
,
0100
0010
0200
0000
0001
0000
1000
0000
,
0001
0000
0010
0000
1000
0000
0310
0100
,
1001
0000
1000
0010
0100
0001
0101
0000
,
0200
1300
0200
0301
0020
1030
0020
0031
,
0200
0000
0010
0000
0301
0010
0021
0000
,
1000
0000
0031
1000
0010
0100
0001
0010
,
0011
0000
1000
0010
1000
0001
0101
0000
,
0001
0010
0001
1000
0100
0010
0011
0000
,
1100
0100
0001
0000
0101
0000
1100
0000
,
0001
0100
1100
0000
0101
0000
0110
0000
,
1001
0000
0001
0010
0100
1000
1001
0000
,
0020
1030
0020
0031
0200
1300
0200
0301
,
1002
0000
0010
0000
1003
0001
0201
0000
,
0010
0000
0301
0000
1000
0001
1001
0000
,
0001
0100
1000
0100
0001
0010
1000
0010
,
0001
0100
1000
0100
0010
1000
0001
0010
,
1001
0000
0000
0000
0001
0000
1000
0000
0010
0100
0010
0000
0100
0000
0001
0000
,
0011
0000
0000
0000
0100
0000
1000
0000
0010
0100
0010
1000
0010
0100
0010
1000
,
0010
0000
0000
0000
0100
0000
0001
0000
0010
0100
0010
0000
0100
0000
1000
0000
,
1001
0000
1000
0001
0100
1000
0100
0001
,
0010
0000
0100
0000
1000
0000
0010
0000
0100
0010
0100
0000
0001
0000
1000
0000
,
1100
0000
0000
0000
1000
0000
0001
0000
1000
0010
1000
0000
0001
0000
0010
0000
,
0100
0000
1000
0000
0010
0000
0100
0000
0001
0000
1000
0100
1000
0100
1000
0100
,
1000
0100
1000
0100
1000
0100
1000
0100
2000
0000
3002
0000
2003
0000
3002
0000
,
1003
0100
0010
0011
0000
0000
0000
0000
,
1010
0010
0100
0101
0000
0000
0000
0000
,
1001
0001
1000
1010
0000
0000
0000
0000
,
1001
0000
0001
0000
1000
0000
0001
0000
0100
0001
0100
0001
0100
0001
0100
0001
,
0100
0010
1000
1100
0000
0000
0000
0000
,
1100
0100
0010
0011
0000
0000
0000
0000
,
1001
0001
1000
1010
0000
0000
0000
0000
,
1001
0000
0110
0000
1002
0000
0013
0001
,
0100
0000
0001
0000
1000
0010
0100
0000
0010
0000
1000
0000
0001
0000
0010
0000
,
0100
0000
0010
0000
0001
0100
0010
0000
0100
0000
0001
0000
1000
0000
0100
0000
,
0010
0000
0100
0000
1000
0001
0100
0000
0001
0000
0010
0000
0100
0000
0010
0000
,
0001
0000
1000
0000
0010
0100
0010
0100
0010
0100
0010
0100
0010
0000
1000
0000
,
0100
0000
0010
0000
0100
1000
0001
0000
0100
0000
0010
0000
1000
0000
0001
0000
,
0010
0000
0100
0000
0010
0001
1000
0000
0100
0000
0010
0000
0100
0000
1000
0000
,
0001
0000
0100
0000
0010
1000
0100
0000
0010
0000
0100
0000
1000
0000
0001
0000
,
0100
0000
0001
0000
0010
0100
0010
0100
0010
0100
0010
0100
0020
0000
0000
0000
,
0031
0000
0100
0000
0010
1000
0100
0010
0100
0000
1000
0000
0001
0000
0010
0000
,
0100
0000
0010
0000
0100
0010
0001
1000
0001
0000
0010
0000
0001
0000
0100
0000
,
0010
0000
1000
0000
0001
0010
0001
1000
0100
0000
0010
0000
0100
0000
1000
0000
,
0010
0000
1000
0000
0001
0010
0001
0010
0001
0010
0001
0010
0001
0000
0010
0000
,
0100
0000
0010
0000
0100
1000
0100
0010
0100
0000
1000
0000
0010
0000
0100
0000
,
0001
0000
0010
0000
0100
0010
0001
1000
0010
0000
0100
0000
0001
0000
1000
0000
,
0100
0000
0010
0000
0100
0010
0001
1000
0010
0000
0100
0000
0001
0000
0010
0000
,
0100
0000
1000
0000
0001
0100
0010
1000
0001
1000
0001
0000
1001
1001
0000
0000
,
0000
0000
1001
1001
0000
1001
1001
0000
0000
1001
1001
0000
1001
2002
0000
0000
,
3003
0000
0000
0000
;
