#TITLE:Haunted Rhapsody;
#SUBTITLE:;
#ARTIST:Architect ft. Jasmine Nii;
#TITLETRANSLIT:;
#SUBTITLETRANSLIT:;
#ARTISTTRANSLIT:;
#GENRE:;
#CREDIT:;
#MUSIC:Haunted Rhapsody.ogg;
#BANNER:Haunted Rhapsody.png;
#BACKGROUND:Haunted Rhapsody-bg.png;
#CDTITLE:./CDTitles/DDR X3 VS 2ndMIX.png;
#SAMPLESTART:66.600;
#SAMPLELENGTH:15.000;
#SELECTABLE:YES;
#OFFSET:0.000;
#BPMS:0.000=154.200
,4.000=155.000
;
#STOPS:;
#DISPLAYBPM:155.000;
#BGCHANGES:;
#FGCHANGES:;

//--------------- dance-single - Pandemonium X ----------------
#NOTES:
     dance-single:
     Pandemonium X:
     Beginner:
     4:
     0,0,0,0,0:
0000
0000
0000
0000
,
0000
0000
0000
0000
,
0000
0000
0000
0000
,
0000
0000
0000
0000
,
0000
0000
0000
0000
,
0001
0000
0000
0000
,
1000
0000
0000
0000
,
0010
0000
0100
0000
,
0001
0000
1000
0000
,
0100
0000
0000
0000
,
1000
0000
0000
0000
,
0001
0000
0001
0000
,
0001
0001
0001
0000
,
0100
0000
0010
0000
,
0100
0100
0100
0000
,
0010
0000
1000
0000
,
0100
0100
0100
0000
,
0010
0000
0100
0000
,
2000
0000
0000
3000
,
0001
0000
1000
0000
,
0010
0010
0010
0000
,
1000
0000
0001
0000
,
0010
0000
0100
0000
,
1000
0000
0001
0000
,
0100
0100
0100
0000
,
0110
0000
1001
0000
,
0220
0000
0000
0330
,
1000
0000
0001
0000
,
0100
0001
0100
0000
,
0010
0000
1000
0000
,
0100
0000
0010
0000
,
0001
0000
1000
0000
,
0010
1000
0010
0000
,
1000
0000
0001
0000
,
0020
0000
0000
0030
,
0100
0000
0010
0000
,
0001
1000
0100
0000
,
1000
0000
0001
0000
,
0100
0001
0010
0000
,
0100
0000
0010
0000
,
0001
1000
0100
0000
,
1001
0000
0110
0000
,
1001
0000
0000
0000
,
0001
0000
1000
0100
,
1000
0010
1000
0000
,
0001
0000
1000
0000
,
0100
0100
0100
0000
,
0010
0001
0100
0001
,
0010
0001
0100
0000
,
0010
0000
0100
0000
,
2002
0000
0000
3003
,
0001
0000
1000
0000
,
0100
0000
0010
0000
,
0001
0000
0100
0000
,
0010
0010
0010
0000
,
0100
0000
0001
0000
,
1000
0000
0100
0000
,
0110
0000
1001
0000
,
0220
0000
0000
0330
,
1000
0000
0000
0000
,
0001
0000
0000
0000
,
0010
0000
0100
0000
,
1000
0000
0001
0000
,
0200
0000
0000
0300
,
0020
0000
0000
0030
,
2002
0000
0000
0000
,
0000
0000
0000
0000
,
3003
0000
0000
0000
;

//--------------- dance-single - Pandemonium X ----------------
#NOTES:
     dance-single:
     Pandemonium X:
     Easy:
     6:
     0,0,0,0,0:
0000
0000
0000
0000
,
0000
0000
0000
0000
,
0000
0000
0000
0000
,
0000
0000
0000
0000
,
0000
0000
0000
0000
,
1001
0000
0000
0001
,
0101
0000
1000
0000
,
1100
0000
0011
0000
,
0101
0000
1010
0000
,
1002
0000
0000
0000
,
2000
0000
0000
3003
,
0001
0000
1000
0000
,
0100
1000
0100
0000
,
1000
0000
0001
0000
,
0100
0001
0010
0100
,
0010
0000
0001
0000
,
1000
0010
1000
0000
,
0100
1000
0010
0100
,
0002
0000
0000
0003
,
0010
0001
0010
0100
,
1000
1000
1000
0000
,
0100
1000
0010
0100
,
0001
0001
0001
0000
,
0100
0001
1000
0100
,
0010
0010
0010
0000
,
0100
1000
0010
0100
,
0002
0000
2003
0000
,
3100
0010
0001
0100
,
0010
0100
1001
0000
,
0001
0000
1000
0000
,
0100
0010
0100
1000
,
0010
0100
0001
0010
,
0001
1000
1001
0000
,
1000
0010
0100
0001
,
0020
0000
0100
0030
,
0001
0100
0010
1000
,
0100
0001
0100
0000
,
0010
0001
0100
0010
,
0001
0010
1000
0000
,
0010
0100
0001
1000
,
0100
0001
0100
0000
,
1100
0000
0110
0000
,
1002
0000
2000
3003
,
0201
0000
0310
1000
,
0100
0001
0100
0000
,
0010
0001
0100
1000
,
0100
0010
1001
0000
,
1000
1000
0001
0001
,
0100
1000
0100
0000
,
0010
1000
0100
0010
,
0021
0000
0000
0030
,
0002
0000
0103
1000
,
0100
0001
1000
0100
,
0001
0100
0010
0001
,
1000
0010
1000
0000
,
0020
0000
0130
0001
,
1000
0100
0001
0100
,
1100
0000
0101
0000
,
2002
0000
0000
3003
,
0001
1000
0010
1000
,
0100
0010
0100
1000
,
0001
0100
0010
0100
,
0001
0010
0100
1000
,
0002
0000
0000
0000
,
2000
0000
0000
3003
,
0220
0000
0000
0000
,
0000
0000
0000
0000
,
0330
0000
0000
0000
;

//--------------- dance-single - Pandemonium X ----------------
#NOTES:
     dance-single:
     Pandemonium X:
     Medium:
     8:
     0,0,0,0,0:
0000
0000
0000
0000
,
0000
0000
0000
0000
,
0000
0000
0000
0000
,
0000
0000
0000
0000
,
0000
0000
0000
0000
,
0001
0000
1000
0000
0100
0000
0010
0100
,
1000
0100
0010
0001
,
0101
0001
0011
1000
,
1010
0010
1001
0100
,
2001
0000
0000
0000
,
3002
0000
0000
0003
,
0100
0000
0001
0010
,
1000
0010
0001
0000
,
0200
1300
0200
0301
,
1000
0000
0100
0010
0001
0000
0001
0000
,
1001
1000
0100
1000
,
0010
0001
0010
1000
,
0100
0001
0100
0010
,
0002
0000
0000
0003
,
2100
0100
0100
0100
,
0010
0100
3010
0000
,
0102
0100
0100
0100
,
0010
0100
0013
0000
,
0002
0103
0020
1030
,
0020
2030
3002
0003
,
0010
0100
0010
0100
,
2000
0000
0002
3003
,
1010
1000
1001
0001
,
0011
1100
1001
0000
,
0002
0000
2003
0000
,
3010
0000
0100
0001
1000
0000
0100
0000
,
0011
0001
1001
1000
,
1010
0101
1001
0000
,
1000
0100
0010
0001
,
2000
0000
3002
0000
,
0103
1000
0100
0001
,
0011
1010
1001
0000
,
0001
1000
0100
0010
,
0100
1000
0001
0000
,
1000
0100
0001
0100
,
1100
0101
1100
0000
,
1001
0000
0110
0000
,
2001
0000
0002
3003
,
1020
0000
0230
2300
,
3200
0302
2000
3003
,
0001
0000
0000
0010
0000
0000
0001
0000
2000
0000
3000
0000
2000
0000
0000
0000
,
3020
2030
0002
3003
,
0021
2030
3020
0032
,
0203
0302
2000
3003
,
0201
0310
1200
0310
,
2002
0000
0000
3003
,
1020
0000
0230
2300
,
3200
0302
2003
3002
,
0023
2030
3020
0032
,
0203
0320
2000
3030
,
0021
0000
0230
0302
,
0203
2300
3020
0032
,
0023
0000
2030
0000
,
0002
0000
0000
3003
,
1000
0000
0001
0000
0100
0000
0001
0010
,
0100
0010
0001
1000
,
1100
0000
1000
0000
0110
0000
0100
0001
,
1001
0000
0001
0000
0011
0000
0010
0100
,
2100
0000
0000
0000
,
0002
0000
0000
3003
,
0220
0000
0000
0000
,
0000
0000
0000
0000
,
0330
0000
0000
0000
;

//--------------- dance-single - Pandemonium X ----------------
#NOTES:
     dance-single:
     Pandemonium X:
     Hard:
     12:
     0,0,0,0,0:
0000
0000
0000
0000
,
0000
0000
0000
0000
,
0000
0000
0000
0000
,
0000
0000
0000
0000
,
0000
0000
0000
0000
,
0001
0000
1000
0000
0100
0000
1000
0001
,
0011
0001
1000
0010
,
1010
1000
0011
0100
,
1001
0001
1100
1000
,
2010
0000
0000
0000
,
0002
0000
0000
3003
,
2010
3100
0021
0130
,
0011
0000
0000
0001
0010
0000
0000
0010
0100
0000
0000
0000
0010
0000
0001
0000
,
0200
1300
0200
0301
,
0011
0000
1000
0100
0010
0000
0100
0000
,
0021
0130
2100
3001
,
1010
0000
0000
1000
0010
0000
0000
0010
0200
0000
0000
0000
0301
0000
0000
0000
,
0010
0000
0000
0001
0000
0000
1000
0000
0010
0000
0000
0000
0100
0000
0000
0000
,
0002
0000
2000
3003
,
1001
0000
0000
1000
0100
0000
0000
0100
0010
0000
0000
0010
0001
0000
0000
0001
,
0100
0000
0000
0100
0010
0000
0000
0010
2000
0000
0000
0000
3100
0000
0000
0000
,
0001
0000
0000
0100
0000
0000
1000
0000
0010
0000
0000
0000
0100
0000
0000
0000
,
1000
0000
0000
0100
0000
0000
0001
0000
2000
0000
0000
0000
0002
0000
3003
0000
,
0011
0000
0000
0001
0010
0000
0000
0010
0100
0000
0000
0100
1000
0000
0000
1000
,
0010
0000
0000
0010
0100
0000
0000
0100
0001
0000
0000
0000
0001
0000
1000
0000
,
0100
0000
0000
0001
0000
0000
0100
0000
0010
0000
0000
0000
0001
0000
0000
0000
,
2001
0000
0002
3003
,
0201
0310
1020
0130
,
1001
0000
0000
1000
0100
0000
0000
0010
0001
0000
0000
0000
0100
0000
0001
0000
,
0020
1030
0020
0031
,
1001
0000
1000
0100
0010
0000
0110
0000
,
2100
3001
0021
0130
,
1100
0000
0000
0001
0100
0000
0000
0010
1000
0000
0000
0000
0001
0000
1000
0000
,
0100
0000
0000
1000
0000
0000
0010
0000
0100
0000
0000
0000
1000
0000
0000
0000
,
0200
0000
0000
0000
0001
0000
0000
0000
0310
0000
0000
0010
0100
0000
0010
0000
,
1002
0013
0021
0130
,
0011
0000
0000
0001
1000
0000
0000
0010
2000
0000
0000
0000
3100
0000
0000
0000
,
1000
0000
0000
0010
0000
0000
0001
0000
0010
0000
0000
0000
0100
0000
0000
0000
,
1000
0000
0000
0100
0000
0000
0001
0000
1000
0000
0000
0000
0001
0000
0000
0000
,
0011
0000
0000
0001
0100
0000
0000
0100
0001
0000
0000
0001
1000
0000
0000
1000
,
0100
0000
0000
0010
0001
0000
0000
0001
0100
0000
0010
0000
0000
0000
0010
0000
,
1000
0000
0000
0010
0000
0000
0100
0000
0001
0000
0000
0000
1000
0000
0000
0000
,
1002
0000
2000
3003
,
0101
0100
0010
1000
0001
0010
0100
0010
,
0001
0100
0010
1000
0010
1000
0001
0010
,
0100
0010
0001
0100
0010
1000
0001
0010
,
2000
3020
0031
0000
,
1100
1000
0100
1000
0010
0100
0001
0010
,
0100
1000
0010
1000
0001
0100
0001
1000
,
0200
0000
0000
0000
0000
0000
0000
0000
0000
0000
0000
0000
0000
0000
0000
0000
0000
0000
0000
0000
0000
0000
0000
0000
0000
0000
0000
0000
0000
0000
0000
0000
0000
0000
0000
0000
1300
0000
0000
0000
0000
0000
0000
0000
0000
0000
0000
0000
0000
0000
0000
0000
0000
0000
0000
0000
0000
0000
0000
0000
0000
0000
0000
0000
0000
0000
0000
0000
0000
0000
0000
0000
0100
0000
0000
0000
0000
0000
0000
0000
0000
0000
0000
0000
0000
0000
0000
0000
0000
0000
0000
0000
0000
0000
0000
0000
0020
0000
0000
0000
0000
0000
0000
0000
0000
0000
0000
0000
0000
0000
0000
0000
0000
0000
0000
0000
0000
0000
0000
0000
0000
0000
0000
0000
0000
0000
0000
0000
0000
0000
0000
0000
0031
0000
0000
0000
0000
0000
0000
0000
0000
0000
0000
0000
0000
0000
0000
0000
0000
0000
0000
0000
0000
0000
0000
0000
0000
0000
0000
0000
0000
0000
0000
0010
0000
0000
0000
0000
0000
0000
0000
0000
0000
0000
0000
0000
0000
0000
0000
0000
0000
0000
0000
0000
0000
0000
0000
0000
0000
0000
0000
0000
,
2002
0000
0000
3003
,
0201
0000
0000
0000
0000
0000
0000
0000
0310
0000
0000
0010
1000
0000
0000
1000
,
0100
0000
0000
0100
0010
0000
0000
0010
0001
0000
0000
0000
1001
0000
0000
0001
,
0100
0000
0000
0100
0010
0000
0000
0010
1000
0000
0000
0001
1000
0000
0000
1000
,
0100
0000
0000
0010
0001
0000
0000
0001
0200
0000
0000
0000
0310
0000
1000
0000
,
0200
0000
0000
0000
0010
0000
0000
0000
1300
0000
0000
1000
0100
0000
0000
0010
,
0001
0000
0000
0001
0100
0000
0000
0010
1000
0000
0000
0001
1000
0000
0000
0001
,
0200
0000
0020
0330
,
2002
0000
0000
3003
,
2001
0000
0010
0000
0001
0000
3010
0100
,
0002
0010
0100
0013
,
0021
0130
1020
0130
,
1001
0000
0001
0000
0010
0000
0100
0000
1000
0001
1000
0001
1000
0001
1000
0001
,
2000
0010
0010
3010
,
0102
0100
0100
0103
,
2002
0000
0000
0000
,
0000
0000
0000
0000
,
3003
0000
0000
0000
;
