#TITLE:Gun Rock;
#SUBTITLE:;
#ARTIST:Banya production;
#TITLETRANSLIT:;
#SUBTITLETRANSLIT:;
#ARTISTTRANSLIT:;
#GENRE:;
#CREDIT:;
#MUSIC:Gun Rock.ogg;
#BANNER:Gun Rock-bn.png;
#BACKGROUND:Gun Rock-bg.png;
#CDTITLE:;
#SAMPLESTART:40.509;
#SAMPLELENGTH:18.462;
#SELECTABLE:YES;
#OFFSET:-0.124;
#BPMS:0.000=104.000;
#STOPS:;
#BGCHANGES:;
#FGCHANGES:;

//--------------- dance-single - Pandemonium X ----------------
#NOTES:
     dance-single:
     Pandemonium X:
     Beginner:
     3:
     0,0,0,0,0:
0000
0000
0000
0000
,
0000
0000
1001
0000
,
0000
0000
0001
0000
,
0000
0000
0100
0000
,
0000
0000
0010
0000
,
0000
0000
1000
0000
,
0000
0000
0100
0000
,
0000
0000
0010
0000
,
0000
0000
0001
0000
,
0000
0000
1001
0000
,
0000
0000
1001
0000
,
0000
0000
1001
0000
,
0000
0000
0010
0010
,
0010
0010
1001
0000
,
0000
0000
1001
0000
,
0000
0000
1001
0000
,
0000
0000
0100
0100
,
0100
0100
1001
1000
,
1000
1000
0001
0000
,
0000
0000
0100
0100
,
0100
0100
0010
0000
,
0000
0000
0010
0010
,
0010
0010
1000
0000
,
0000
0000
0001
0001
,
0001
0001
0010
0000
,
0000
0000
0002
0000
,
0000
0003
2000
0000
,
0000
3000
0020
0000
,
0000
0030
1001
0000
,
0000
0000
2000
0000
,
0000
3000
0002
0000
,
0000
0003
0200
0000
,
0000
0300
0020
0000
,
0000
0000
0030
0000
1000
0000
0000
0001
,
0000
0000
0000
0000
0010
0000
0000
0100
,
0000
0000
0000
0000
0010
0000
0000
0001
,
0000
0000
0000
0000
1000
0000
0000
0010
,
0000
0000
0000
0000
0100
0000
0000
0010
,
0000
0000
0000
0000
1000
0000
0000
0001
,
0000
0000
0010
0000
0001
0000
0000
1000
,
0000
0000
0100
0100
,
0100
0100
1001
0000
;

//--------------- dance-single - Pandemonium X ----------------
#NOTES:
     dance-single:
     Pandemonium X:
     Easy:
     7:
     0,0,0,0,0:
0000
0000
0000
0000
,
0000
0000
0000
0000
1001
0001
1000
0001
,
1000
0000
0000
0001
0000
0000
0100
0000
0020
0000
0000
0000
0000
0000
0000
0000
,
0000
0000
0030
0000
1000
0100
1000
0100
,
1000
0000
0000
0100
0000
0000
1000
0000
0020
0000
0000
0000
0000
0000
0000
0000
,
0000
0000
0030
0000
0100
0001
0100
0001
,
0100
0000
0000
0001
0000
0000
0010
0000
0200
0000
0000
0000
0000
0000
0000
0000
,
0000
0000
0300
0000
0010
0001
0010
0001
,
0010
0000
0000
0001
0000
0000
1000
0000
0002
0000
0000
0000
0000
0000
0000
0000
,
0000
0000
0003
0000
1001
0000
0000
1000
,
0000
1000
0000
0000
1000
0000
0000
0000
1001
0000
0000
0000
0000
0000
0001
0000
,
0000
0001
0000
0000
0001
0000
0000
0000
1001
0000
0000
0000
0000
0000
1000
0000
,
0000
1000
0000
0000
1000
0000
0000
0000
1001
0000
0000
0000
0110
0000
0000
0000
,
1001
0000
0110
0000
1001
0000
0000
0001
,
0000
0001
0000
0000
0001
0000
0000
0000
1001
0000
0000
0000
0000
0000
1000
0000
,
0000
1000
0000
0000
1000
0000
0000
0000
1001
0000
0000
0000
0000
0000
0001
0000
,
0000
0001
0000
0000
0001
0000
0000
0000
1001
0000
0000
0000
0110
0000
0000
0000
,
1001
0000
0110
0000
1001
0001
1000
0001
,
1000
0000
0000
0001
0000
0000
0100
0000
0020
0000
0000
0000
1000
0000
0000
0000
,
1000
0000
1030
0000
0100
0010
0100
0010
,
0100
0000
0000
0010
0000
0000
0001
0000
0200
0000
0000
0000
0010
0000
0000
0000
,
0001
0000
0310
0000
0100
0001
0100
0001
,
0100
0000
0000
0001
0000
0000
1000
0000
0200
0000
0000
0000
1000
0000
0000
0000
,
0010
0000
1300
0000
0001
1000
0001
1000
,
0001
0000
0000
0100
0000
0000
0001
0000
0020
0000
0000
0000
0100
0000
0000
0000
,
0001
0130
2000
0100
,
0010
3001
0002
0010
,
0100
1003
2000
0100
,
0010
3001
0220
0000
,
0000
0330
0201
0010
,
0001
0310
1020
0100
,
1000
0130
0201
0010
,
0001
0310
2002
0000
,
3003
0000
0000
0000
0000
0000
0000
0000
1000
0000
0000
0000
0001
0000
0000
0010
,
0000
0000
0001
0000
0100
0000
0000
0000
0010
0000
0000
0000
1000
0000
0000
0100
,
0000
0000
1000
0000
0001
0000
0000
0000
0100
0000
0000
0000
0001
0000
0000
0010
,
0000
0000
0100
0000
0010
0000
0000
0000
0001
0000
0000
0000
1000
0000
0000
0100
,
0000
0000
1000
0000
0010
0000
0000
0000
0100
0000
0000
0001
0000
0000
0010
0000
,
0000
0000
0100
0000
1000
0000
0000
0000
0100
0000
0000
1000
0000
0000
0010
0000
,
0000
0000
0100
0000
0001
0000
1000
0000
0100
0000
0000
1000
0000
0000
0001
0000
,
0000
0100
0000
0000
0001
0000
0000
0000
1001
0000
0000
0000
0110
0000
0000
0000
,
1001
0000
0110
0000
2002
0000
0000
3003
;

//--------------- dance-single - Pandemonium X ----------------
#NOTES:
     dance-single:
     Pandemonium X:
     Medium:
     11:
     0,0,0,0,0:
0000
0000
0000
0000
,
0000
0000
0000
0000
1001
0001
0100
0001
,
0010
0000
0001
1000
0000
0000
0100
0000
1000
0100
0000
1000
0000
1000
0000
1000
,
0000
0001
1000
0000
0001
1000
0000
0000
0010
0000
1000
0000
0100
0000
1000
0000
,
0010
0000
1000
0100
0000
0000
0010
0000
0001
0100
0000
0001
0000
0001
0000
0001
,
0000
0001
0100
0000
0001
1000
0000
0000
1000
0000
0010
0000
0100
0000
0010
0000
,
1000
0000
0001
0010
0000
0000
0001
0000
1000
0001
0000
0001
0000
0001
0000
0001
,
0000
1000
0001
0000
1000
0001
0000
0000
0100
0000
0001
0000
0010
0000
0001
0000
,
0100
0000
0001
0010
0000
0000
0100
0000
1000
0100
0000
1000
0000
1000
0000
1000
,
0000
0001
1000
0000
0001
1000
0000
0000
1001
0000
0000
0000
0000
0000
1000
0000
,
0000
0001
0000
0000
1001
0000
0000
0000
0110
0000
0000
0000
0000
0000
0001
0000
,
0000
1000
0000
0000
1001
0000
0000
0000
0110
0000
0000
0000
0000
0000
1000
0000
,
0000
0001
0000
0000
1001
0000
0000
0000
1001
0000
0001
0100
0001
0000
1000
0010
,
1000
0000
0001
0100
0001
0000
1000
0010
1000
0000
0000
0000
0000
0000
0001
0000
,
0000
0010
0000
0000
1100
0000
0000
0000
1001
0000
0000
0000
0000
0000
1000
0000
,
0000
0010
0000
0000
0101
0000
0000
0000
1001
0000
0000
0000
0000
0000
0001
0000
,
0000
0010
0000
0000
1100
0000
0000
0000
1001
0000
1000
0100
1000
0000
0100
0010
,
0100
0000
0010
0001
0010
0000
0001
0100
0001
0000
0001
0000
0001
0000
0001
0000
,
0001
0000
0001
0200
0000
0000
0320
0000
1030
0100
0000
0010
0000
0001
0000
0100
,
0000
0001
1000
0000
0100
0010
0000
0000
0100
0000
0100
0000
0100
0000
0100
0000
,
0100
0000
0100
0020
0000
0000
0032
0000
0103
0010
0000
0100
0000
0001
0000
1000
,
0000
0100
0010
0000
0010
0100
0000
0000
1000
0000
1000
0000
1000
0000
1000
0000
,
1000
0000
1000
0200
0000
0000
0320
0000
0130
1000
0000
0010
0000
0100
0000
0001
,
0000
0010
0001
0000
0001
0100
0000
0000
0010
0000
0010
0000
0010
0000
0010
0000
,
0010
0000
0010
0200
0000
0000
0000
0000
0301
0010
0000
0001
0000
0100
0000
0010
,
0000
1000
0001
0000
0100
0010
0000
0000
1010
0000
0000
0000
0101
0000
0000
0000
,
0011
1100
1001
1010
,
1100
0110
0011
0101
,
1001
0000
0000
0000
1010
0000
0000
0000
0001
1000
0001
0000
0000
0000
0000
0000
,
0000
0000
1100
0011
,
0101
1010
1001
0011
,
0110
1100
1010
0110
,
0101
0000
0000
0000
0011
0000
0000
0000
1000
0001
1000
0000
0000
0000
0000
0000
,
0000
0000
0000
0000
0000
0000
0000
0000
0001
0100
0000
0001
0100
0000
0001
0100
,
0000
0001
0100
0000
0001
0100
0000
0000
0010
1000
0000
0010
1000
0000
0010
1000
,
0000
0010
1000
0000
0010
1000
0000
0000
0001
1000
0000
0001
1000
0000
0001
1000
,
0000
0001
1000
0000
0001
1000
0000
0000
0100
0010
0000
0100
0010
0000
0100
0010
,
0000
0100
0010
0001
0100
0000
0010
0000
0200
0000
0000
0301
0000
0000
0100
0010
,
0000
1000
0100
0000
0010
0001
0000
0000
0020
0000
0000
0130
0000
0000
0010
0001
,
0000
1000
0100
0000
1000
0000
0001
0000
2000
0000
0000
3001
0000
0000
0010
0001
,
0000
1000
0100
0000
0010
0100
0000
0000
0011
0000
0001
0100
0010
0000
0100
0010
,
1000
0000
0001
0010
0100
0000
1100
0000
2002
0000
0000
0000
0000
0000
3003
0000
;

//--------------- dance-single - Pandemonium X ----------------
#NOTES:
     dance-single:
     Pandemonium X:
     Hard:
     13:
     0,0,0,0,0:
0000
0000
0000
0000
,
0000
0000
0000
0000
0000
0000
0000
0000
1001
0001
1000
0001
1000
0001
1000
0001
,
1000
0100
1000
0020
0000
0000
0130
0000
0001
0100
0000
0010
0000
0010
0000
0010
,
0000
0010
0100
0000
0100
0001
0000
0000
1000
0001
1000
0001
1000
0001
1000
0001
,
0100
0001
0010
0200
0000
0000
0320
0000
0130
1000
0000
0010
0000
0010
0000
0010
,
0000
0010
0100
0000
0100
0001
0000
0000
1000
0001
0100
0001
1000
0001
0100
0001
,
1000
0001
0010
0200
0000
0000
1300
0000
0100
0010
0000
0001
0000
0001
0000
0001
,
0000
1000
0010
0000
0100
0010
0000
0000
1000
0100
0010
0100
1000
0100
0010
0100
,
1000
0100
1000
0020
0000
0000
0130
0000
0100
0001
0000
1000
0000
1000
0000
1000
,
0000
0001
0010
0000
0100
0010
0000
0000
0021
0000
0000
0130
0000
0000
0011
0000
,
0000
1100
0000
0000
1001
0000
0000
0000
1020
0000
0000
0130
0000
0000
1010
0000
,
0000
0101
0000
0000
1001
0000
0000
0000
1200
0000
0000
0310
0000
0000
0011
0000
,
0000
1100
0000
0000
1001
0000
0000
0000
0101
0000
0100
0010
1001
0000
0010
0100
,
1001
0000
0100
0010
1001
0000
0010
0100
2001
0000
0000
3100
0000
0000
0011
0000
,
0000
1100
0000
0000
1010
0000
0000
0000
0102
0000
0000
0013
0000
0000
1100
0000
,
0000
0011
0000
0000
1001
0000
0000
0000
0201
0000
0000
0310
0000
0000
1010
0000
,
0000
0101
0000
0000
1001
0000
0000
0000
1001
0000
0010
0100
1001
0000
0100
0010
,
1001
0000
0010
0100
1001
0000
0100
0010
1001
1000
0001
1000
0001
1000
0001
1000
,
0100
1000
0010
0200
0000
0000
0301
0000
0001
0100
0000
1000
0000
0100
0000
0001
,
0000
1000
0100
0000
0010
0001
0000
0000
0001
1000
0001
1000
0001
1000
0001
1000
,
0001
0010
0100
0020
0000
0000
0031
0000
1000
0100
0000
0001
0000
0100
0000
1000
,
0000
0010
0100
0000
0010
1000
0000
0000
0010
1000
0100
1000
0010
1000
0100
1000
,
0010
0100
0001
0020
0000
0000
0130
0000
1000
0010
0000
0001
0000
0010
0000
1000
,
0000
0010
0100
0000
0010
1000
0000
0000
0001
0100
0010
0100
0001
0010
0001
0100
,
0010
0100
0001
0020
0000
0000
0130
0000
0010
1000
0000
0010
0000
0001
0000
0100
,
0000
0010
0100
0000
0001
1000
0000
0000
0001
0100
0001
0000
0100
0000
0001
0100
,
0001
0000
0100
0000
0001
0000
0000
0000
1000
0010
1000
0000
0010
0000
1000
0010
,
1000
0000
0010
0000
1000
0000
0000
0000
0100
1000
0100
0000
1000
0000
0100
1000
,
0100
0000
1000
0000
0100
0000
0000
0000
1000
0001
1000
0000
0000
0000
0000
0000
,
0000
0000
0000
0000
0000
0000
0000
0000
0001
0100
0010
0000
0100
0000
0010
0100
,
0001
0000
0010
0000
0001
0000
0000
0000
1000
0010
0100
0000
0010
0000
0100
0010
,
1000
0000
0100
0000
0010
0000
0000
0000
0100
1000
0010
0000
0100
0000
0001
0010
,
0100
0000
0010
0000
0001
0000
0000
0000
0001
0100
0010
0000
1000
0000
0100
0010
,
0001
0000
1000
0000
0110
0000
0000
0000
0001
0100
0010
1000
0000
0000
0100
0010
,
0000
0100
1000
0000
0010
0100
0000
0000
0010
1000
0001
0010
0000
0000
0100
0010
,
0000
0100
1000
0000
0001
0100
0000
0000
0010
1000
0001
0010
0000
0000
0100
0010
,
0000
0100
1000
0000
0010
0100
0000
0000
0001
0100
0010
1000
0001
0000
0010
0100
,
0000
0010
0001
0001
0001
1000
1000
0001
1000
0010
0100
0001
0010
0000
0100
0020
,
0000
0130
2000
0000
3010
0100
0000
0000
0001
0010
0001
0100
0001
0000
0010
0200
,
0000
0310
0002
0000
2003
0000
3002
0000
0103
0001
0010
0100
0010
0000
0100
0020
,
0000
0031
0200
0000
0310
2000
0000
0000
3001
0000
0100
0010
1001
0000
0100
0010
,
1001
0001
0100
0010
1000
0100
0010
0001
2002
0000
0000
0000
0000
0000
3003
0000
;

//--------------- dance-single - Pandemonium X ----------------
#NOTES:
     dance-single:
     Pandemonium X:
     Challenge:
     16:
     0,0,0,0,0:
0000
0000
0000
0000
,
0000
0000
0000
0000
0000
0000
0000
0000
MMM1
0100
0010
0100
0001
0010
0001
0100
,
0010
1000
0100
0020
0000
0000
0230
0000
1300
0100
0000
0011
0000
0110
0000
1100
,
0000
1000
1020
0000
0130
10M1
0000
0000
1000
0010
0100
0010
1000
0010
0100
0010
,
1000
0001
0010
0200
0000
0000
0320
0000
0031
0010
0000
0011
0000
1010
0000
1001
,
0000
0000
0001
0000
0201
0000
0000
0000
0310
0000
1M00
0001
1000
0001
1000
0001
1000
0000
0001
0000
0010
0000
0001
0000
1000
0000
0010
0000
1000
0000
0001
0000
,
0010
0100
1000
0020
0000
0000
2030
0000
3100
1000
0000
1100
0000
0011
0000
0101
,
0000
0010
0200
0000
0310
1M01
0000
0000
0001
1000
0010
1000
0001
0010
0001
1000
,
0010
0100
0001
0020
0000
0000
0230
0000
0310
0001
0000
0011
0000
1010
0000
0011
,
0000
0000
0000
0001
0000
0000
0201
0000
0000
0000
0000
0000
0310
0000
0000
1M01
0000
0000
0000
0000
0000
0000
0000
0000
0101
0000
0000
0001
0000
0000
1000
0000
0000
1010
0000
0000
0000
0000
0000
0000
0000
0000
1001
0000
0000
0000
MMMM
0000
,
0000
0000
1100
0000
0000
MMMM
0000
0000
1001
0000
0000
0000
0000
0000
0000
0000
1100
0000
0100
0000
0010
0000
0011
0000
0000
0000
0000
0000
0011
0000
0000
MMMM
,
0000
0000
0101
0000
0000
MMMM
0000
0000
1010
0000
0000
0000
0000
0000
0000
0000
0011
0000
0010
0000
0100
0000
1100
0000
0000
0000
0000
0000
1001
0000
0000
MMMM
,
0000
0000
0011
0000
0000
MMMM
0000
0000
1100
0000
0000
0000
0000
0000
0000
0000
0101
0000
010M
0000
0010
0000
1000
0000
1010
0000
10M0
0000
0100
0000
0010
0000
,
0011
0000
00M1
0000
0100
0000
0010
0000
1010
0000
10M0
0000
0100
0000
0010
0000
0011
0000
0010
0000
0100
0000
1100
0000
0000
0000
0000
0000
1001
0000
0000
MMMM
,
0000
0000
1010
0000
0000
MMMM
0000
0000
0101
0000
0000
0000
0000
0000
0000
0000
1010
0000
1000
0000
0010
0000
0110
0000
0000
0000
0000
0000
1001
0000
0000
MMMM
,
0000
0000
1100
0000
0000
MMMM
0000
0000
0011
0000
0000
0000
0000
0000
0000
0000
1001
0000
0001
0000
0010
0000
0110
0000
0000
0000
0000
0000
0011
0000
0000
MMMM
,
0000
0000
1100
0000
0000
MMMM
0000
0000
1001
0000
0000
0000
0000
0000
0000
0000
0101
0000
010M
0000
0010
0000
1000
0000
1010
0000
M010
0000
0100
0000
0001
0000
,
1000
0000
0100
0000
1000
0000
0010
0000
0100
0000
0001
0000
0010
0000
1000
0000
0010
0000
0001
0000
0100
0000
0001
0000
1MM0
0000
0000
0100
0000
0000
0001
0000
0000
0100
0000
0000
1000
0000
0000
0100
0000
0000
0001
0000
0000
0100
0000
0000
,
1000
0010
0001
0020
0000
0000
2030
0000
3001
0100
0000
0101
0000
1010
0000
1100
,
0000
0100
2100
0000
3010
M101
0000
0000
0001
0100
1000
0100
0001
0100
1000
0100
,
0001
0010
1000
0020
0000
0000
0230
0000
1300
0100
0000
1100
0000
1010
0000
0101
,
0000
0000
0001
0000
0021
0000
0000
0000
0130
0000
10M0
0100
1000
0100
1000
0100
1000
0000
0010
0000
0001
0000
0010
0000
1000
0000
0010
0000
0001
0000
0010
0000
,
1000
0100
0001
0200
0000
0000
0320
0000
0031
0010
0000
0011
0000
0101
0000
1010
,
0000
1000
1200
0000
0310
0M11
0000
0000
0001
0100
1000
0100
0001
0100
1000
0100
,
0001
0010
1000
0020
0000
0000
0230
0000
1300
0100
0000
0011
0000
1100
0000
1010
,
0000
0010
0120
0000
0130
10M1
0000
0000
100M
001M
010M
000M
001M
000M
100M
010M
,
001M
000M
010M
000M
1100
0000
0000
0000
M001
M100
M010
M000
M100
M000
M001
M010
,
M100
M000
M010
0000
0011
0000
0000
0000
00M1
10M0
01M0
00M0
11M0
00M0
10M0
00M1
,
01M0
00M0
00M1
0000
1001
0000
0000
0000
0M01
1M00
0M01
0M00
0M00
0M00
0M01
1M00
,
0M01
0M10
0M01
0000
1001
0000
0000
0000
00M1
01M0
10M0
00M0
01M0
00M0
00M1
10M0
,
01M0
00M0
00M1
00M0
11M0
0000
0000
0000
0M01
0M10
1M00
0M00
0M10
0M00
0M01
1M00
,
0M10
0M00
1M00
0000
1001
0000
0000
0000
001M
010M
100M
000M
010M
000M
100M
010M
,
001M
000M
010M
000M
110M
0000
0000
0000
M100
M010
M001
M000
M000
M000
M001
M010
,
M100
0000
M100
0010
M100
0000
M010
0000
M001
0000
0000
0000
1001
0000
0000
0000
MM1M
0000
0100
0000
0001
0000
MM1M
0000
0011
0000
0000
0000
0100
0000
2100
0000
,
0000
3010
M120
0000
0130
10M1
0000
0000
1MMM
0010
0100
MMM1
1001
0000
1000
1020
,
0000
0130
0102
0000
0013
1001
1001
0101
MMM1
0010
0100
1MMM
0020
0000
0130
10M2
,
0000
0013
210M
0000
3010
M101
0000
0000
1MMM
0010
0100
MMM1
0010
0000
0100
0210
,
0000
0000
1300
0000
1000
0000
1000
0000
0100
0000
1000
0010
1000
0010
1000
0010
1000
0000
0010
0000
0100
0000
0001
0000
0011
0000
0000
0000
0001
0000
0020
0000
,
0000
0000
1030
00M0
0020
0000
0000
0000
0031
0000
0101
0000
0000
0000
0000
0000
1001
0000
0001
0000
0010
0000
0001
0000
0000
0000
0000
0000
0001
0000
0200
0000
,
0000
0000
1300
0M00
0200
0000
0000
0000
0302
0000
0M00
0000
2000
0000
3003
0000
1100
0000
0100
0000
1000
0000
1010
0000
0000
0000
0000
0000
1000
0000
0200
0000
,
0000
0000
0301
0M00
0200
0000
0000
0000
1300
0000
0010
0000
0000
0000
0000
0000
0101
0000
0M01
0000
0100
0000
0010
0000
1010
0000
M010
0000
0100
0000
0001
0000
,
0100
0001
0010
0100
1000
0100
1000
0010
0100
0001
0010
0100
2000
0000
0000
0000
0000
0000
0000
0000
0000
3000
0000
0000
;
