#TITLE:Go Beyond!!;
#SUBTITLE:;
#ARTIST:Ryu☆ Vs. Sota;
#TITLETRANSLIT:;
#SUBTITLETRANSLIT:;
#ARTISTTRANSLIT:;
#GENRE:;
#CREDIT:;
#MUSIC:Go Beyond!!.ogg;
#BANNER:Go Beyond!!.png;
#BACKGROUND:Go Beyond!!-bg.png;
#CDTITLE:cdtitle.png;
#SAMPLESTART:83.200;
#SAMPLELENGTH:19.212;
#SELECTABLE:YES;
#OFFSET:0.800;
#BPMS:0.000=200.000
,104.000=100.000
,156.000=200.000
,289.000=100.000
;
#STOPS:156.000=0.900;
#BGCHANGES:0.000=Go Beyond!!-bg.png=1.000=0=0=1,
4.000=Go Beyond!!.mp4=1.000=0=0=1,
99999.000=-nosongbg-=1.000=0=0=0=StretchNoLoop====
;
#FGCHANGES:;

//--------------- dance-single - Pandemonium X ----------------
#NOTES:
     dance-single:
     Pandemonium X:
     Beginner:
     6:
     0.174907,0.418214,0.083289,0.108276,0,147,137,10,13,0,0,0.174907,0.418214,0.083289,0.108276,0,147,137,10,13,0,0:
0000
0000
0000
0000
,
0000
0000
0000
0000
,
0000
0000
0000
0000
,
0000
0000
0000
0000
,
0000
0000
0000
0000
,
0000
0000
0000
0000
,
1000
0000
0001
0000
,
0000
1000
1000
0000
,
0000
0010
0000
0100
,
0000
0000
0010
0010
,
1000
0000
0001
0000
,
0010
0010
0010
0000
,
0001
0000
1000
0000
,
0200
0000
0000
0300
,
0010
0000
0100
0000
,
0010
0010
0010
0000
,
0001
0000
0100
0000
,
0010
0010
0100
0100
,
0001
0000
1000
0000
,
0100
0100
0100
0100
,
0010
0000
0001
0000
,
0100
0100
0100
0000
,
0010
0000
1000
0000
,
0000
0100
0100
0000
,
0000
0010
0000
0100
,
0000
0000
0010
0100
,
1000
0000
0000
0000
,
0002
0000
0000
0003
,
0100
0000
0000
0000
,
0020
0000
0000
0030
,
1000
1000
1000
1000
,
2000
0000
0000
3010
,
0100
0100
0100
0100
,
0200
0000
0000
0310
,
1001
0000
0000
0100
,
1001
0000
0000
0010
,
1001
0110
1001
0110
,
2002
0000
0000
0000
,
0000
0000
3003
0000
,
0000
0000
0001
0001
,
0001
1000
0000
0000
,
0000
0100
0000
0000
,
0000
0010
0000
0000
,
0000
0001
0000
0100
,
0000
0010
0000
0000
,
0000
1000
0000
0000
,
0000
0001
0000
0000
,
0000
1000
1000
0001
,
0001
0100
0000
0001
,
0000
0010
0000
0100
,
0000
0010
0000
0001
,
0000
1000
0000
0100
,
0000
1000
0000
0010
,
0000
0100
0000
0001
,
0000
1000
0000
0001
,
0000
0200
0000
0000
,
0000
0310
0000
1000
,
0000
0100
0000
0010
,
0000
0200
0000
0000
,
0000
0000
0000
0310
,
0000
0001
0000
0100
,
0000
0001
0000
1000
,
0000
0200
0000
0000
,
0000
0310
0010
0100
,
0100
0010
0000
0001
,
0000
0100
0000
0010
,
0000
2001
0000
0000
,
0000
0000
0000
3001
,
0000
1000
0000
0001
,
0000
0010
0000
0100
,
0000
0120
0000
0000
,
0000
0000
0000
0130
,
0000
1001
0000
0000
,
0001
0100
0000
0000
,
0001
0100
0010
1000
,
0001
2000
0000
0000
,
0000
0000
0000
0000
,
0000
3000
0000
0000
;

//--------------- dance-single - Pandemonium X ----------------
#NOTES:
     dance-single:
     Pandemonium X:
     Easy:
     10:
     0.355763,0.514725,0.441431,0.424773,0,299,246,53,51,0,0,0.355763,0.514725,0.441431,0.424773,0,299,246,53,51,0,0:
0000
0000
0000
0000
,
0000
0000
0000
0000
,
0000
0000
0000
0000
,
0000
0000
0000
0000
,
0000
0000
0000
0000
,
0000
0000
0000
0000
,
1000
1000
0001
0001
,
0100
0010
1001
0000
,
0000
0000
0001
0000
0000
0000
0100
0010
,
0000
0000
0000
0000
0100
0000
0001
1000
,
0100
0010
0100
1000
,
0010
0000
0100
0000
0001
0000
0010
0100
,
0010
0100
0010
0001
,
1000
0001
0000
0100
0000
0001
0000
1000
,
0100
1000
0010
0100
,
0001
0000
0010
0000
0100
0000
1000
0010
,
1000
0010
0100
0001
,
1001
0110
1001
0110
,
0001
0100
0010
1000
,
0002
0023
0230
2300
,
3100
1000
0010
0100
,
0020
2030
0002
3003
,
1000
0100
1000
0010
,
0000
0010
0100
0001
1000
0100
0000
0000
,
0000
0000
0110
0000
0000
0000
0001
1000
,
0000
0000
0000
0000
0010
0000
0100
0001
,
0010
0100
1000
0100
,
0020
0000
0000
0032
,
0013
0100
1000
0100
,
2000
0000
0000
3002
,
0103
0001
0010
0100
,
0020
0000
0000
0230
,
0310
0001
0100
0010
,
2000
0000
0000
0000
0000
3000
1001
0000
,
0220
0000
0000
0000
0000
0330
0101
0000
,
2020
0000
0000
0000
0000
3030
1100
0000
,
0011
0110
1100
0110
,
2002
0000
0000
0000
,
0000
0000
0000
3003
0220
0000
0000
0000
,
0330
0010
1001
1001
,
1001
0001
0100
0010
,
1000
0010
0100
0001
,
0010
0100
1000
0000
0100
0000
1000
0000
,
0010
0100
0001
0020
,
0000
0130
0010
0001
,
0100
0010
1000
0001
,
0010
0100
0010
0000
0001
0000
0100
0000
,
0010
1001
0110
1001
,
0110
0001
0001
0100
,
0100
0010
0010
1000
,
1000
0010
0100
0000
0100
0000
0010
0000
,
0010
1000
1000
0002
,
0000
1003
0100
0010
,
0001
0101
0100
0010
,
1000
1001
0110
1001
,
0110
0002
0203
0320
,
2030
3002
0103
0002
,
0013
0002
1003
0002
,
0103
0010
2000
0000
0000
0000
0000
0000
,
0000
0000
0000
3002
,
0000
2003
3010
2000
,
3001
2000
3100
2000
,
3001
0010
0200
0000
0000
0000
0000
0000
,
0300
0110
1001
0110
,
1001
0101
0100
0110
,
0010
1010
1000
1001
,
0001
0010
0022
0000
0000
0000
0000
0000
,
0000
0000
0033
2002
,
0000
3003
0110
0000
1001
0000
0001
1000
,
0000
0100
0010
0001
0000
0010
0000
0001
,
0000
1000
0010
0100
0020
0000
1030
0001
,
0200
0310
1001
0110
,
1001
0000
0022
0000
0000
0000
0000
0033
,
1100
0000
2020
0000
0000
0000
0000
3030
,
0110
0101
0011
0110
,
1100
2002
0000
0000
,
0000
0000
0000
0000
,
0000
3003
0000
0000
;

//--------------- dance-single - Pandemonium X ----------------
#NOTES:
     dance-single:
     Pandemonium X:
     Medium:
     13:
     0.489025,0.611236,0.516391,0.508062,0.012493,411,349,62,61,0,0,0.489025,0.611236,0.516391,0.508062,0.012493,411,349,62,61,0,0:
0000
0000
0000
0000
,
0000
0000
0000
0000
,
0000
0000
0000
0000
,
0000
0000
0000
0000
,
0000
0000
0000
0000
,
0000
0000
0000
0000
,
1000
0001
0100
0001
0010
0100
1000
0001
,
0100
0000
0000
0100
0000
0000
0010
0000
0100
0000
0000
0000
0000
0000
0000
0000
,
1001
0000
0010
0000
1001
1000
1000
0000
,
0001
0000
0000
0001
0000
0000
0010
0000
0011
0000
0000
0000
0100
0000
1000
0000
,
0001
0000
0001
0000
0001
0100
0000
0010
,
0100
0001
0000
1000
0000
0001
0001
1000
,
0001
0000
0001
0000
0001
0010
0100
0010
,
0001
0001
0000
1001
0000
0101
0000
0001
,
0010
0000
0010
0000
0100
1000
0000
0100
,
0010
0001
0000
0001
0000
1000
0100
0000
,
0010
0000
0010
0000
0010
0100
1000
0001
,
0200
0000
0301
0010
0100
1000
0100
0010
,
0100
0100
1000
0010
0100
0100
0001
0001
,
2000
3002
0023
0230
,
2300
0000
3100
0010
0001
0001
1000
1000
,
0002
0203
0320
0030
,
0100
0100
0010
1000
0100
0100
0010
0100
,
0000
0010
0001
1000
0010
0100
0001
1000
,
0001
0000
0201
0000
0310
0000
2000
0002
,
0000
0000
0000
0000
0000
0000
0000
0000
3000
0000
0000
0003
0000
0000
0000
0000
,
1001
0001
0100
0001
,
0020
0000
0000
0230
,
1300
0100
1000
0100
,
0020
0000
0000
0230
,
1300
0010
0100
0001
,
0020
0000
0000
0230
,
0310
0001
0100
0010
,
2000
0000
0000
0000
0000
3000
1001
0000
,
0220
0000
0000
0000
0000
0330
1001
0000
,
2020
0000
0000
0000
0000
3030
1100
0000
,
0110
0011
0110
1100
,
0220
0000
0000
0000
,
0000
0000
0000
0330
2002
0000
0000
0000
,
3003
0010
1001
1001
,
1001
0000
0001
0100
0010
0100
0001
1000
,
0100
0000
1000
0100
0010
0100
0010
0001
,
1000
1000
0001
0100
0010
1000
0010
0100
,
0010
0000
1000
0100
0010
0001
0010
0001
,
0200
0000
0301
0001
1000
1000
0100
0010
,
0100
0000
0010
0100
0010
0010
0001
1000
,
0010
0100
0010
0010
0100
0001
0010
0100
,
1000
0001
1001
0000
0110
0000
1001
0000
,
0110
0000
0001
0100
0010
1000
0001
0010
,
0100
0010
0001
1000
0010
1000
0100
0010
,
0001
0010
0100
0010
0001
0100
0010
1000
,
0010
0100
0001
1000
0010
1000
0100
0001
,
0100
1000
0010
0100
0001
0010
0001
1000
,
0100
1000
0010
0100
0001
0010
0100
0010
,
0001
0100
0110
0100
0010
1000
1001
0001
,
0010
0100
2000
3200
0320
0032
2003
3200
,
0320
0032
2003
0000
3100
0000
1002
0000
,
0103
1020
0130
0201
,
0310
0010
1002
0000
0010
0000
1000
0000
,
0010
1000
0013
2001
,
0100
3100
0120
0000
0031
0000
0201
0000
,
0310
1002
0103
2001
,
3100
0021
0100
0001
,
0130
0110
1001
0110
,
1001
0102
0013
0210
,
1300
1002
0103
0021
,
0100
0130
2100
0000
0100
0000
0010
0000
,
0100
0010
0100
3020
,
0100
0130
1001
0000
0101
0000
1000
0001
,
0000
0001
1000
1000
0000
0110
0000
1001
,
0000
0001
0100
0001
2000
0000
3001
1000
,
0020
0130
1001
0110
,
1001
0000
0220
0000
0000
0000
0000
0330
,
1001
0000
0202
0000
0000
0000
0000
0303
,
1001
1100
0110
0011
,
0110
2002
0000
0000
,
0000
0000
0000
0000
,
0000
3003
0000
0000
;

//--------------- dance-single - Pandemonium X ----------------
#NOTES:
     dance-single:
     Pandemonium X:
     Hard:
     15:
     0.587782,0.772088,0.707956,0.574694,0.183236,494,409,85,69,0,0,0.587782,0.772088,0.707956,0.574694,0.183236,494,409,85,69,0,0:
0000
0000
0000
0000
,
0000
0000
0000
0000
,
0000
0000
0000
0000
,
0000
0000
0000
0000
,
0000
0000
0000
0000
,
0000
0000
0000
0000
,
1000
1000
0001
0010
0100
0100
0010
0001
,
1001
0000
0000
0101
0000
0000
0010
0000
1010
0000
0000
0000
0000
0000
0000
0000
,
1000
0100
0011
0000
0001
0100
1010
0000
,
0110
1001
1010
0101
,
0021
0000
0130
0000
0010
0001
0100
0001
,
1000
1000
0000
1010
0000
0001
0100
0001
,
1001
0000
1100
0000
1001
0001
0010
0001
,
0101
0101
0000
1010
0000
0101
0000
1100
,
1020
0000
0130
0000
0010
1000
0000
0100
,
0110
0010
0000
1001
0000
1000
0100
0010
,
0011
0000
0011
0000
0001
1000
0100
0010
,
0002
0000
1003
1000
0100
0100
0010
0010
,
0001
0010
1000
0010
0001
0100
1000
0100
,
0020
0230
0302
2003
,
3002
0000
0013
1000
0010
0001
0100
0010
,
2000
3200
0020
0330
,
1001
0000
0101
0000
1000
1010
0000
0001
,
0011
0000
1100
0000
0000
0000
1001
0000
0000
0000
0101
0000
0001
1000
0001
1000
,
0001
0000
1000
0000
0001
1000
0010
1000
0001
0000
1000
0000
0001
0010
0100
1000
,
0000
0000
0000
0000
,
1001
0001
0100
0001
,
0020
0000
0000
0230
,
1300
0100
1000
0100
,
0020
0000
0000
0000
0000
0000
0000
0000
0000
0000
0000
0000
0032
0000
0000
0003
,
0202
0000
0000
0303
2020
0000
0000
3030
2002
0000
0000
3003
2200
0000
0000
3300
,
2002
0000
0000
0000
0000
0000
0000
0000
0000
0000
0000
3003
0202
0000
0000
0303
,
2020
0000
0000
3030
2200
0000
0000
3300
0220
0000
0000
0330
0022
0000
0000
0033
,
2002
0000
0000
0000
0000
0000
0000
0000
0000
0000
0000
3003
0201
0000
0000
0000
,
0020
0000
0000
0000
0000
0330
1020
0000
,
0200
0000
0000
0000
0000
0330
0201
0000
,
0320
2030
3200
0320
,
0002
0000
0000
0000
,
0000
0030
0000
0000
2000
0000
0000
0000
,
3003
0100
1001
1001
,
1001
0000
0001
0100
0010
1000
0001
0010
,
0100
0010
0001
1000
0010
1000
0001
1000
,
0100
0010
0100
0010
0001
0100
0010
0100
,
0001
0010
0001
1000
0001
0100
0002
0000
,
0000
0000
1003
0010
1000
0001
0010
0100
,
0010
0001
1000
0001
0100
0001
1000
0100
,
0010
0001
0010
0001
0100
0010
1000
0100
,
0010
0001
1001
0000
0110
0000
1001
0000
,
0110
0000
0000
0000
0001
1000
0001
0000
0100
0000
0010
0000
1000
0000
0001
0000
,
0010
0000
0100
0000
1000
0100
1000
0000
0100
0000
1000
0000
0010
0000
0100
0000
,
0001
0000
0010
0000
0100
0010
0100
0000
0010
0000
0001
0000
0100
0000
0010
0000
,
1000
0000
0001
0000
0010
0001
0010
0000
0001
0000
0100
0000
0010
0000
0010
0000
,
0100
0000
0001
0000
1000
0001
1000
0000
0001
1000
0001
0000
0010
0000
0100
0000
,
0010
0000
0001
0000
0100
0010
0100
0000
0010
0100
0010
0000
0100
0000
0001
0000
,
1000
0001
1001
1000
0001
0010
1001
0001
,
1000
0000
0010
0000
1000
0010
1000
0000
0001
0100
0001
0000
0010
0001
0010
0000
,
0100
1000
0100
0000
1000
0000
0010
0000
0100
0000
0010
0000
1000
0000
0001
0000
,
0010
0100
0010
0001
0100
0010
1000
0001
,
0010
0010
0010
0001
0100
0010
1000
0001
,
0010
0001
1000
0100
0010
0100
2000
0000
,
0000
0000
3010
0100
0001
0010
0001
0100
,
0010
1000
0010
0100
0001
0010
0100
1000
,
0100
1000
0010
1000
0001
0010
0100
0010
,
0001
0100
0110
0000
1001
0000
0110
0000
,
1001
0000
0101
0100
0010
1000
1010
1000
,
0100
0010
0011
0010
0100
1000
1001
0001
,
1000
1000
1010
0010
0100
0001
0010
0001
,
0100
0010
1000
0100
0010
0001
0021
0000
,
0000
0000
0130
0000
1100
0000
0101
1010
,
0000
0101
1001
1010
0000
0101
0000
1001
,
0000
0000
0001
1000
0100
0000
0100
0000
0010
0001
0100
0001
0010
0000
0100
0000
,
1000
0100
0010
0001
1000
0000
0000
0000
0110
0000
0000
0000
1001
0000
0000
0000
,
0110
0000
0000
0000
2002
0000
0000
0000
0000
0000
0000
0000
0000
0000
0000
3003
,
0202
0000
0000
0303
2002
0000
0000
0000
0000
0000
0000
0000
0000
0000
0000
3003
,
2200
0000
0000
3300
0220
0000
0000
0330
0022
0000
0000
0033
0220
0000
0000
0330
,
2200
0000
0000
3300
2002
0000
0000
0000
0000
0000
0000
0000
0000
0000
0000
0000
,
0000
0000
0000
0000
,
0000
3003
0000
0000
;

//--------------- dance-single - Pandemonium X ----------------
#NOTES:
     dance-single:
     Pandemonium X:
     Challenge:
     18:
     0,0,0,0,0:
0000
0000
0000
0000
,
0000
0000
0000
0000
,
0000
0000
0000
0000
,
0000
0000
0000
0000
,
0000
0000
0000
0000
,
0000
0000
0000
0000
,
0001
0001
0100
0010
0001
0010
1000
0100
,
1001
0000
0000
1001
0000
0000
0110
0000
1001
0000
0000
0000
0000
0000
0000
0000
,
0201
0000
1000
0000
0001
0301
0101
0000
,
1001
0000
0000
0001
0000
0000
0001
0000
0010
0000
0010
0000
0100
1000
0100
1000
,
0001
0100
0110
0010
1000
0100
1100
0010
,
0001
0100
0101
1001
0000
0001
0001
0001
,
1000
0100
0110
0010
0001
0100
0101
0100
,
1010
0000
1100
0000
0000
0000
0011
0000
0000
0000
1010
0000
0000
0000
1000
0001
,
1000
0100
0110
0010
0001
1000
1010
1000
,
1100
0100
0010
0011
0001
1000
1000
1000
,
1001
0000
0011
0000
1100
0011
1100
0011
,
2001
0000
0000
0000
3002
0003
0200
0300
2000
3000
0020
0030
0002
0003
2000
3000
,
0001
0100
1000
0100
0001
0010
1000
0010
,
0002
0023
0230
2300
,
3200
0000
0301
0100
1000
0010
0001
0010
,
0200
0000
0000
0000
0302
0000
0000
0000
2000
0000
0003
0000
3001
0000
0001
0010
,
0001
1000
1100
0100
0011
1001
0001
1010
,
0101
0000
2001
0000
3100
0000
1002
0000
0013
0000
2001
0000
3010
0100
0001
1000
,
0100
0000
0011
0000
0010
0100
1000
0001
0100
0000
1010
0000
1000
0100
0010
0002
,
2000
0000
0003
3000
,
0002
0000
0020
0003
2000
0030
0200
3000
,
0002
0300
0000
0000
0000
0000
2000
3003
,
2000
0000
0020
3000
0002
0030
0200
0003
,
2000
0300
0000
0000
0000
0000
0002
3003
,
0202
0000
0000
0000
0000
0000
0000
0303
0022
0000
0000
0000
0000
0000
0000
0033
0220
0000
0000
0000
0000
0000
0000
0330
2200
0000
0000
0000
0000
0000
0000
3300
,
2020
0000
0000
0000
0000
0000
0000
0000
0000
0000
0000
0000
0000
0000
0000
0000
0000
0000
0000
0000
0000
0000
0000
3030
2002
0000
0000
0000
0000
0000
0000
3003
,
0202
0000
0000
0000
0000
0000
0000
0303
0022
0000
0000
0000
0000
0000
0000
0033
0220
0000
0000
0000
0000
0000
0000
0330
2002
0000
0000
0000
0000
0000
0000
3003
,
0220
0000
0000
0000
0000
0000
0000
0000
0000
0000
0000
0000
0000
0000
0000
0000
0000
0000
0000
0000
0000
0000
0000
0330
2002
0000
0000
0000
0000
0000
3003
0000
,
1001
1000
0010
0000
0010
0100
0000
0100
0001
0000
0001
0010
0000
0010
0100
0000
,
0100
1000
0100
0000
1000
0100
0000
0100
0010
0000
0010
0001
0000
0001
0100
0000
,
0201
0310
1020
0130
1002
1003
0021
0031
,
1001
0001
0100
0000
0010
1000
0000
0100
0010
0000
0001
0010
0000
0100
0010
0000
,
0001
0100
0000
0010
1000
0000
0001
0010
0100
0000
2000
0000
0000
0000
0001
0002
,
0000
3003
0000
0000
0100
0000
0000
0000
1001
0000
0000
0000
1001
0000
0000
0000
,
1001
0000
0000
0000
0001
0100
0001
0000
0100
0010
0100
0000
0010
1000
0010
0000
,
1000
0100
0010
0100
1000
0100
1000
0000
0001
0010
0001
0000
0100
0001
0100
0000
,
0001
0100
0010
0100
0001
1000
0001
0000
1000
0100
1000
0000
0001
0010
0001
0000
,
0010
0100
1000
0001
1000
0010
1000
0000
0001
0100
0001
0000
1000
0100
2000
0000
,
0000
0000
0000
0000
3001
0100
0010
0000
0100
0001
1000
0000
0100
0010
0001
0000
,
0010
0100
0010
0001
1000
0001
0100
0000
0010
1000
0100
0000
1000
0100
0010
0000
,
0100
0010
0001
0100
0001
1000
0010
0000
0100
0010
1000
0000
0001
0010
0100
0000
,
0010
0001
1000
0000
1001
0000
0000
0000
0110
0000
0000
0000
2000
0000
3200
0000
,
0320
0000
0032
0000
1003
0100
0010
0100
1000
0100
0010
0001
0010
0001
0100
0001
,
1000
0001
0010
0100
1000
0100
0010
0100
1000
0100
0010
0001
0010
0001
0100
0001
,
1000
0001
0010
0100
1000
0010
0100
0001
1000
0100
0010
0001
0100
0010
1000
0001
,
0100
0001
0010
0001
1000
0010
0100
0001
1000
0100
0010
0001
0100
0010
1000
0001
,
0100
0001
0010
0001
1000
0010
0100
0010
1000
0001
0010
0100
0010
0001
1000
0010
,
1000
0100
0010
0001
1000
0010
0100
0010
1000
0001
0010
0100
0010
0001
1000
0010
,
1000
0100
0010
0001
1000
0010
1000
0010
0100
0001
0100
0001
0010
0100
1000
0100
,
0010
0001
0010
0100
2000
3200
2300
3200
0320
0230
0320
0032
0023
0032
0203
0302
,
0203
0320
0230
0320
1030
0000
0010
0000
0100
0000
0001
0000
0011
0000
0010
0000
,
0100
1000
1100
0100
0010
0001
0101
0100
,
1001
1001
1001
0001
1001
0001
0010
0100
,
0110
0010
0001
1000
1010
0010
0201
0000
,
0010
0310
1001
0001
0100
0010
1010
1000
,
0100
0010
0011
0001
0100
0001
1001
1000
,
0100
0010
0110
0100
1000
0100
0010
0001
,
0100
0001
1001
0000
0110
0000
1001
0000
,
0110
0000
0000
0000
0000
0000
0000
0000
0000
0000
0000
0000
0000
0000
0000
0000
0202
0303
0000
0000
0000
0000
0000
0000
0100
0000
0000
0000
0000
0000
0000
0000
0010
0000
0000
0000
0000
0000
0000
0000
1000
0000
0000
0000
0000
0000
0000
0000
2200
3300
0000
0000
0000
0000
0000
0000
0100
0000
0000
0000
0000
0000
0000
0000
,
0010
0000
0000
0000
0000
0000
0000
0000
0001
0000
0000
0000
0000
0000
0000
0000
0022
0033
0000
0000
0000
0000
0000
0000
0001
0000
0000
0000
0000
0000
0000
0000
0100
0000
0000
0000
0000
0000
0000
0000
0010
0000
0000
0000
0000
0000
0000
0000
2020
3030
0000
0000
0000
0000
0000
0000
1000
0000
0000
0000
0000
0000
0000
0000
,
1100
0000
0000
0000
0000
0000
0000
0000
0011
0000
0000
0000
0000
0000
0000
0000
2200
3300
0000
0000
0000
0000
0000
0000
0100
0000
0000
0000
0000
0000
0000
0000
0110
0000
0000
0000
0000
0000
0000
0000
0001
0000
0000
0000
0000
0000
0000
0000
0100
0000
0000
0000
0000
0000
0000
0000
0010
0000
0000
0000
0000
0000
0000
0000
,
0110
0100
0001
1000
1001
0010
2001
0000
,
0100
0000
0000
0000
0000
0000
0000
0000
3100
0000
0000
0000
1000
0000
0000
0000
0200
0300
0000
0000
0000
0000
0000
0000
0100
0000
0000
0000
0000
0000
0000
0000
0011
0000
0000
0000
0000
0000
0000
0000
0001
0000
0000
0000
0000
0000
0000
0000
0202
0303
0000
0000
0000
0000
0000
0000
1010
0000
0000
0000
0000
0000
0000
0000
,
1000
0000
0000
0000
0000
0000
0000
0000
1001
0000
0000
0000
0000
0000
0000
0000
0202
0303
0000
0000
0000
0000
0000
0000
1001
0000
0000
0000
0000
0000
0000
0000
1000
0000
0000
0000
0000
0000
0000
0000
1100
0000
0000
0000
0000
0000
0000
0000
0220
0330
0000
0000
0000
0000
0000
0000
0011
0000
0000
0000
0000
0000
0000
0000
,
0001
0000
0000
0000
0000
0000
0000
0000
0001
0000
0000
0000
1000
0000
0000
0000
0020
0030
0000
0000
0000
0000
0000
0000
0110
0000
0000
0000
0000
0000
0000
0000
0100
0000
0000
0000
0001
0000
0000
0000
0010
0000
0000
0000
0100
0000
0000
0000
1000
0000
0000
0000
0000
0000
0000
0000
0011
0000
0000
0000
0000
0000
0000
0000
,
1000
0000
0000
0000
0100
0000
0000
0000
0010
0000
0000
0000
0001
0000
0000
0000
1000
0000
0000
0000
0000
0000
0000
0000
0000
0000
0000
0000
0000
0000
0000
0000
1001
0000
0000
0000
0000
0000
0000
0000
0000
0000
0000
0000
0000
0000
0000
0000
0220
0330
0000
0000
0000
0000
0000
0000
0000
0000
0000
0000
0000
0000
0000
0000
,
1001
0000
0000
0000
0220
0000
0000
0000
0000
0000
0000
0000
0000
0000
0000
0330
,
2002
0000
0000
3003
0220
0000
0000
0000
0000
0000
0000
0000
0000
0000
0000
0330
,
2002
0000
0000
3003
0002
0000
0000
0000
0203
0000
0000
0000
2300
0000
0000
0000
,
3020
0002
0000
0000
,
0000
0000
0000
0000
,
0000
0033
0000
0000
;
