#TITLE:GHOSTBUSTERS;
#SUBTITLE:;
#ARTIST:Remixed by DJ Yoshitaka;
#TITLETRANSLIT:;
#SUBTITLETRANSLIT:;
#ARTISTTRANSLIT:;
#GENRE:;
#CREDIT:;
#MUSIC:GHOSTBUSTERS.ogg;
#BANNER:GHOSTBUSTERS-bn.png;
#BACKGROUND:GHOSTBUSTERS-bg.png;
#CDTITLE:;
#SAMPLESTART:10.067;
#SAMPLELENGTH:15.340;
#SELECTABLE:YES;
#OFFSET:-0.467;
#BPMS:0.000=125.000;
#STOPS:;
#BGCHANGES:;
#FGCHANGES:;

//--------------- dance-single - Pandemonium X ----------------
#NOTES:
     dance-single:
     Pandemonium X:
     Beginner:
     2:
     0,0,0,0,0:
0000
0000
0000
0000
,
0000
0000
0000
0000
,
0000
0000
0000
0000
,
0000
0000
0000
0000
,
0000
0000
0000
0000
,
0001
0000
0000
0000
,
1000
0000
0000
0000
,
0001
0000
0000
0000
,
1000
0000
0000
0000
,
0010
0000
0000
0000
,
0100
0000
0000
0000
,
0010
0000
0000
0000
,
1001
0000
0000
0000
,
0001
0000
0000
0000
,
1000
0000
0000
0000
,
0100
0000
0000
0000
,
1001
0000
0000
0000
,
0001
0000
0000
0000
,
0100
0000
0000
0000
,
0001
0000
0000
0000
,
1001
0000
0000
0000
,
1000
0000
0000
0001
,
0000
0000
0100
0100
,
0010
0000
0000
1000
,
0000
0000
0001
0001
,
0010
0000
0000
0100
,
0000
0000
1000
1000
,
0010
0000
0000
0100
,
0000
0000
0010
0010
,
1000
0000
0000
0000
,
0001
0000
0000
0000
,
0010
0000
0000
0000
,
0110
0000
0000
0000
,
1000
0000
0000
0000
,
0001
0000
0000
0000
,
0100
0000
0000
0000
,
0110
0000
0000
0000
,
0001
0000
0000
0000
,
1000
1000
1000
0000
,
0010
0000
0000
0000
,
0100
0100
0100
0000
,
0010
0000
0000
0000
,
1000
1000
1000
0000
,
0001
0000
0000
0000
,
1001
1001
0110
0110
,
0001
0000
0000
0000
,
1000
0000
0000
0000
,
0100
0000
0000
0000
,
1001
0000
0000
0000
,
0001
0000
0000
0000
,
0100
0000
0000
0000
,
0010
0000
0000
0000
,
1001
0000
0000
0000
,
0001
0000
0000
0010
,
0000
0000
0100
0100
,
1000
0000
0000
0010
,
0000
0000
0100
0100
,
0001
0000
0000
1000
,
0000
0000
0010
0010
,
0100
0000
0000
0001
,
0000
0000
1001
0110
,
1001
0000
0000
0000
;

//--------------- dance-single - Pandemonium X ----------------
#NOTES:
     dance-single:
     Pandemonium X:
     Easy:
     5:
     0,0,0,0,0:
0000
0000
0000
0000
,
0000
0000
0000
0000
,
0000
0000
0000
0000
,
0000
0000
0000
0000
,
0101
1010
1100
0011
,
1001
0001
1000
0010
,
1000
0001
0010
0100
,
1000
0001
0100
0001
,
1000
0001
0010
0100
,
1000
0100
1000
0000
,
0000
0001
0001
0000
,
0000
0100
0010
0110
,
1001
0001
1000
0010
,
0100
0002
0003
0000
,
0010
0200
0300
0000
,
1000
0002
0003
0100
,
0010
1000
0000
0000
0000
0000
0000
0000
,
0001
0020
0030
0000
,
0100
2000
3000
0000
,
0001
0020
0030
0100
,
1000
0001
0000
0000
0000
0000
0000
0000
,
0100
0000
0000
0100
0000
0000
0100
0000
,
0000
0100
0000
0000
0100
0000
0010
0000
,
0010
0000
0000
0010
0000
0000
0010
0000
,
0000
0010
0000
0000
0010
0000
1000
0000
,
1000
0000
0000
1000
0000
0000
1000
0000
,
0000
1000
0000
0000
1000
0000
0001
0000
,
0001
0000
0000
0001
0000
0000
0001
0000
,
0000
0001
0000
0000
1001
0000
1001
0000
,
1000
0020
0030
0000
,
0100
0002
0003
0000
,
0010
0200
0300
1000
,
0001
0100
0000
0000
0000
0000
0000
0000
,
0010
2000
3000
0000
,
0100
0020
0030
0000
,
0001
2000
3000
0001
,
1000
0100
0000
0000
0000
0000
0000
0000
,
0010
0001
0100
0010
,
1000
0000
0000
0001
0000
0000
1000
0000
0001
0000
0000
0000
0000
0000
0000
0000
,
1000
0100
0010
0001
,
0000
0000
0001
0000
1000
0000
0000
0100
0000
0000
0000
0000
0000
0000
0000
0000
,
0100
1000
0010
0100
,
0001
0000
0000
1000
0000
0000
0010
0000
1000
0000
0000
0000
0000
0000
0000
0000
,
0001
1000
0100
0010
,
0011
1100
0011
1100
,
0001
1000
0010
1000
,
0001
0010
0100
0100
,
0010
0002
0003
0100
,
0001
1000
0000
0000
0100
0000
0010
0000
,
0001
0010
0110
0000
,
0100
1000
1010
0000
,
0010
0100
0101
0001
,
1000
0001
0000
0000
0000
0000
0000
0000
,
1000
0000
0000
0001
0000
0000
0100
0000
,
0000
0010
0000
0000
1000
0000
0010
0000
,
1000
0000
0000
0100
0000
0000
0010
0000
,
0000
0100
0000
0000
0010
0000
0001
0000
,
1000
0000
0000
0001
0000
0000
0100
0000
,
0000
0001
0000
0000
0010
0000
0001
0000
,
1000
0000
0000
0100
0000
0000
1000
0000
,
0000
0001
0000
0000
1001
0000
1001
0000
;

//--------------- dance-single - Pandemonium X ----------------
#NOTES:
     dance-single:
     Pandemonium X:
     Medium:
     11:
     0,0,0,0,0:
0000
0000
0000
0000
,
0000
0000
0000
0000
,
0000
0000
0000
0000
,
0000
0000
0000
0000
,
0101
0011
1100
1010
,
0001
1000
0010
0010
1000
0001
0010
0100
,
1000
0001
0010
0010
0001
0010
0100
1000
,
0001
1000
0100
0100
1000
0001
0010
0100
,
0010
0001
0100
0100
0001
0010
0100
0010
,
0001
0100
0001
1000
0100
0010
0000
0000
,
0000
0000
0100
0100
1000
0001
0000
0000
,
0000
1000
0001
0100
0001
0010
0011
0000
,
1000
0100
0001
0100
1000
0010
0100
0000
,
0010
1000
0001
0000
0010
0000
0100
0000
,
0010
0010
0001
0000
1000
0000
0100
0000
,
0010
0100
1000
0001
0001
0000
0101
0000
,
1010
1100
0000
0000
0100
1000
0010
0000
,
0100
0001
0010
0000
0100
0000
0010
0000
,
0001
0010
0100
0000
1000
1000
0100
0000
,
1000
0010
0100
1000
0100
0000
0001
0000
,
1001
0101
0011
1100
,
0001
0000
0000
1000
0000
0000
0001
0000
0000
1000
0000
0000
0001
0000
0000
1000
,
0000
0000
0001
0000
0000
1000
0000
0000
0001
0000
0100
0000
0010
0000
1000
0000
,
0100
0000
0000
0010
0000
0000
0100
0000
0000
0010
0000
0000
0100
0000
0000
0010
,
0000
0000
0100
0000
0000
0010
0000
0000
0100
0000
0010
0000
0001
0000
1000
0000
,
1010
0000
0000
0010
0000
0000
1010
0000
0000
1000
0000
0000
1010
0000
0000
0010
,
0000
0000
1010
0000
0000
1000
0000
0000
0010
0000
0100
0000
0001
0000
0010
0000
,
0011
0000
0000
0001
0000
0000
0011
0000
0000
0010
0000
0000
0011
0000
0000
0001
,
0000
0000
0011
0000
0000
0010
0000
0000
0011
0000
0000
0000
1100
0000
0000
0000
,
0001
1000
0010
0000
1000
0000
0100
0000
,
0010
0100
1000
0000
0001
0001
0100
0000
,
0001
0010
0100
0010
0001
0000
1010
0000
,
0110
0101
0000
0000
0001
0010
0000
0000
,
0100
0001
0100
0000
1000
0000
0010
0000
,
0001
0010
0001
0000
0010
0100
0001
0000
,
1000
0100
0010
0001
1000
0000
0001
0000
,
0101
1010
1100
0011
,
1000
0100
0110
0000
1100
0000
0110
0000
,
0100
0000
0000
0010
0000
0000
0001
0000
1001
0000
0000
0000
0000
0000
0000
0000
,
0001
0010
0110
0000
0011
0000
0110
0000
,
0010
0000
0001
0000
0100
0000
0001
1000
0000
0000
0000
0000
0000
0000
0000
0000
,
0001
0100
0101
0000
1100
0000
1001
0000
,
1000
0000
0000
0001
0000
0000
0010
0000
1001
0000
0000
0000
0000
0000
0000
0000
,
1000
0001
0011
0000
1100
0000
1010
0000
,
1001
0110
1001
0110
,
1001
1000
0010
0010
1000
0001
0010
0100
,
1000
0001
0010
0010
0001
1000
0100
0010
,
0100
1000
0001
0001
0100
0010
1000
0010
,
0100
0010
1000
1000
0010
0100
0001
1000
,
0001
0000
0110
0000
0000
1100
0000
0000
1010
0000
0000
0000
1001
0000
0000
0000
,
0000
0000
1010
0000
0000
0101
0000
0000
0011
0000
0000
0000
1001
0000
0000
0000
,
0000
1000
0100
0010
0100
1000
1001
0000
,
0101
0000
1000
0010
0100
0001
1000
0000
,
0001
0000
0000
0010
0000
0000
0001
0000
0000
0010
0000
0000
0001
0000
0000
0010
,
0000
0000
0001
0000
0000
0010
0000
0000
0001
0000
0010
0000
0100
0000
1000
0000
,
0010
0000
0000
1000
0000
0000
0010
0000
0000
1000
0000
0000
0010
0000
0000
1000
,
0000
0000
0010
0000
0000
1000
0000
0000
0010
0000
0100
0000
0001
0000
1000
0000
,
1001
0000
0000
0001
0000
0000
1001
0000
0000
1000
0000
0000
1001
0000
0000
0001
,
0000
0000
1001
0000
0000
1000
0000
0000
0001
0000
0100
0000
0010
0000
1000
0000
,
1100
0000
0000
0100
0000
0000
0110
0000
0000
0010
0000
0000
0011
0000
0000
0001
,
0000
0000
0101
0000
0000
0100
0000
0000
1001
0000
0000
0000
1001
0000
0000
0000
;

//--------------- dance-single - Pandemonium X ----------------
#NOTES:
     dance-single:
     Pandemonium X:
     Hard:
     14:
     0,0,0,0,0:
0000
0000
0000
0000
,
0000
0000
0000
0000
,
0000
0000
0000
0000
,
0000
0000
0000
0000
,
0100
0001
0100
0001
1000
0100
1000
0100
0010
0001
0010
0001
1000
0010
1000
0010
,
0100
0000
0001
0000
0010
0100
0010
0000
0100
0000
1000
0000
0001
0000
0100
0000
,
0001
0000
1000
0000
0010
0100
0010
0000
0100
0000
0001
0000
1000
0000
0010
0000
,
1000
0000
0001
0000
0010
0100
0010
0000
0100
0000
0010
0000
0001
0000
1000
0000
,
0010
0000
1000
0000
0010
0100
0010
0000
1000
0000
1000
0000
1000
0000
0001
0000
,
1000
0000
0100
0001
0100
0000
1000
0000
0010
0000
0100
0000
0001
0000
0100
0000
,
0001
0000
1000
0000
0100
0010
0100
0010
0100
0000
1000
0000
0001
0000
0100
0000
,
0001
0000
0010
1000
0010
0000
0100
0000
1000
0000
0001
0000
1001
0000
0000
0000
,
0001
0100
0001
0100
0010
1000
0010
1000
0001
0010
0001
0010
0100
1000
0100
1000
,
0001
1000
0200
0000
0010
0010
0310
0000
,
0100
0000
1000
0000
0200
0000
0000
0000
0310
0000
0100
0020
0000
0000
0000
0000
,
0130
1000
0010
0100
0002
0000
1000
0000
2003
0000
0000
0000
3010
0000
0000
0000
,
0110
0000
1001
0000
0000
0000
0000
0000
0001
0000
0200
0000
0000
0000
0310
1000
,
0100
0000
1000
0000
0002
0000
0000
0000
0010
0000
0010
0000
0013
0000
0001
0010
,
0100
0000
0100
0000
0200
0000
0000
0000
1000
0000
1300
0020
0000
0000
0000
0000
,
0130
0001
0010
0100
2000
0000
0001
0000
3001
0000
0000
0000
1010
0000
0000
0000
,
0001
0010
0001
0010
0100
1000
0100
1000
0010
1000
0010
1000
0001
0100
0001
0100
,
0020
0000
0030
10M0
0000
0000
0020
0000
0030
10M0
0000
0000
0020
0000
0030
10M0
,
0000
0000
0020
0000
0030
10M0
0000
0000
0010
0000
1000
0000
0010
1000
0010
0000
,
0200
0000
0300
0M01
0000
0000
0200
0000
0300
0M01
0000
0000
0200
0000
0300
0M01
,
0000
0000
0200
0000
0300
0M01
0000
0000
0100
0000
0001
0000
0100
0001
0100
0000
,
0002
0000
0003
001M
0000
0000
0002
0000
0003
001M
0000
0000
0002
0000
0003
001M
,
0000
0000
0002
0000
0003
001M
0000
0000
0001
0000
0010
0000
0100
1000
0010
0000
,
0200
0000
0300
0M01
0000
0000
0200
0000
0300
0M01
0000
0000
0200
0000
0300
0M01
,
0000
0000
0200
0000
0300
0M01
0000
0000
1001
0000
0000
0000
1001
0000
0000
0000
,
0001
0010
0200
0000
1000
1000
1300
0001
,
1000
0000
0100
0000
1000
0000
0000
0000
0100
0000
0010
0200
0000
0000
0300
0000
,
0010
0001
0100
0010
2000
0000
0001
0000
3002
0000
0000
0000
0103
0000
0000
0000
,
0101
0000
1010
0000
0000
0000
0000
0000
0001
0000
2000
0000
0000
0000
3001
0010
,
0100
0010
0001
0000
2000
0000
0000
0000
0010
0000
0010
0000
3010
0000
0010
1000
,
0100
0000
0010
0000
0200
0000
0000
0000
0310
0000
0010
0200
0000
0000
0010
0000
,
0310
0001
0100
0001
2000
0000
0010
0000
3020
0000
0000
0000
1030
0000
0000
0000
,
0001
0100
0001
0100
0010
1000
0010
1000
0100
1000
0100
1000
0001
0010
0001
0010
,
0001
0010
0110
0000
1100
0000
1010
0000
,
1000
0000
0001
0010
0000
001M
1000
0000
1001
0000
0000
0000
0000
0000
0000
0000
,
1000
0100
0110
0000
1100
0000
0110
0000
,
0011
0000
0001
0000
0100
0000
0001
1000
0100
0010
0100
1000
0001
0100
0001
1000
,
0001
0100
0101
0000
1010
0000
1001
0000
,
0001
0000
1000
0100
0000
M100
0001
0000
1001
0000
0000
0000
0000
0000
0000
0000
,
0001
0010
0011
0000
0101
0000
0011
0000
,
0101
1010
1100
0011
,
0101
0000
0001
0000
0010
1000
0010
0000
0100
0000
0010
0000
0100
0000
1000
0000
,
0010
0000
1000
0000
0100
0001
0100
0000
0020
0000
0032
0000
2003
0000
3020
0000
,
0130
0000
0001
0000
0010
1000
0010
0000
0100
0000
1000
0000
1100
0000
0000
0000
,
0011
0000
0011
0000
0010
0100
0010
0000
0200
0000
2300
0000
3200
0000
0320
0000
,
0031
0000
0010
1000
0010
0000
0100
0000
1000
0000
0010
0000
0100
0000
0001
0000
,
1000
0000
0100
0000
0010
0001
0010
0001
0010
0000
0100
0000
0010
0000
0001
0000
,
1000
0000
0010
0001
0010
0000
0100
0000
0001
0000
1000
0000
1001
0000
0000
0000
,
0001
0100
0001
0100
0010
1000
0010
1000
0001
1000
0001
1000
0001
0010
0001
0010
,
0200
0000
0300
1M00
0000
0000
0200
0000
0300
1M00
0000
0000
0200
0000
0300
1M00
,
0000
0000
0200
0000
0300
1M00
0000
0000
0100
0000
0010
0000
0001
0100
0010
0000
,
2000
0000
3000
M001
0000
0000
2000
0000
3000
M001
0000
0000
2000
0000
3000
M001
,
0000
0000
2000
0000
3000
M001
0000
0000
1000
0000
0001
0000
0100
0010
1000
0000
,
0002
0000
0003
001M
0000
0000
0002
0000
0003
001M
0000
0000
0002
0000
0003
001M
,
0000
0000
0002
0000
0003
001M
0000
0000
0001
0000
0010
0000
0100
1000
0010
0000
,
0200
0000
0300
0M01
0000
0000
0200
0000
0300
0M01
0000
0000
0200
0000
0300
0M01
,
0000
0000
0200
0000
0300
0M01
0000
0000
0110
0000
0000
0000
0220
0000
0000
0000
,
0330
0000
0000
0000
;
