#TITLE:Frozen Ray -nostal mix-;
#SUBTITLE:;
#ARTIST:dj TAKA;
#TITLETRANSLIT:;
#SUBTITLETRANSLIT:;
#ARTISTTRANSLIT:;
#GENRE:;
#CREDIT:;
#MUSIC:Frozen Ray -nostal mix-.ogg;
#BANNER:;
#BACKGROUND:;
#CDTITLE:;
#SAMPLESTART:24.896;
#SAMPLELENGTH:12.692;
#SELECTABLE:YES;
#OFFSET:1.258;
#BPMS:0.000=156.000;
#STOPS:;
#BGCHANGES:;
#FGCHANGES:;

//--------------- dance-single - Pandemonium X ----------------
#NOTES:
     dance-single:
     Pandemonium X:
     Beginner:
     5:
     0,0,0,0,0:
0000
0000
0000
0000
,
0000
0000
0000
0000
,
0000
0000
0000
0000
,
0000
0000
0000
0000
,
0000
0000
0000
0000
,
0000
0000
0000
0000
,
0000
0000
0000
0000
,
0000
0000
0000
0000
,
0000
0000
0000
0000
,
1001
0000
0000
0001
,
0001
0000
0000
1000
,
1001
0000
0000
0000
,
0100
0000
0010
0000
,
1001
0000
0000
0000
,
0100
0000
0000
0000
,
1001
0000
0000
0000
,
0010
0000
0000
0000
,
0100
1001
0000
0001
,
0000
1000
0000
0100
,
1000
0000
0010
0000
,
0100
0000
0010
0100
,
0001
1001
1000
0000
,
0001
0000
0010
0000
,
0100
0000
0010
0000
,
0100
0100
0100
0100
,
0000
1001
0001
0000
,
1000
0000
0010
0000
,
1000
0000
0100
0000
,
0010
0000
0001
0000
,
1000
0001
0000
0000
,
0100
0010
0000
0000
,
0100
0000
0001
0000
,
1000
0000
0000
0000
,
0000
1001
0001
0000
,
1000
0000
0001
0000
,
0100
0000
0000
0010
,
0000
0100
0001
1000
,
0000
1001
0001
0000
,
1000
0000
0010
0000
,
1000
0000
0100
0000
,
0010
0000
0100
0000
,
1000
1001
0000
0001
,
1000
0010
0000
1000
,
0100
1000
0000
0001
,
0000
0000
0100
0010
,
0100
0001
0000
0010
,
0100
1000
0000
0100
,
1000
0000
0001
0000
,
0100
0000
0000
0000
,
1001
0000
0000
0000
,
0001
0000
0000
0000
,
1000
0000
0100
0000
,
0010
0000
0001
0000
,
1001
0000
0000
0000
,
1000
0000
0000
0000
,
0001
0000
0010
0000
,
0100
0000
1000
0000
,
1001
0000
0000
0000
,
0100
0000
0000
0000
,
0110
0000
0000
0000
,
0010
0000
0000
0000
,
1001
0000
0000
0000
,
0110
0000
0000
0000
,
1001
0000
0100
0000
,
1001
0000
0000
0000
,
0001
1001
1000
0000
,
1000
0001
1000
0000
,
0001
0000
1000
0000
,
0010
0000
1000
0000
,
0100
1001
0001
0000
,
0100
0001
0010
0000
,
0100
0000
1000
0000
,
0001
0000
0000
0000
,
0100
1001
0000
0000
;

//--------------- dance-single - Pandemonium X ----------------
#NOTES:
     dance-single:
     Pandemonium X:
     Easy:
     7:
     0,0,0,0,0:
0000
0000
0000
0000
,
0000
0000
0000
0000
,
0000
0000
0000
0000
,
0000
0000
0000
0000
,
0000
0000
0000
0000
,
0001
0001
0001
0001
,
1000
1000
1000
1000
,
0010
0010
0010
0010
,
0100
0100
0100
0100
,
1001
0001
1000
0100
,
1000
0100
1000
0010
,
0110
0100
0001
0010
,
0100
0010
0001
1000
,
1001
0001
1000
0010
,
1000
0001
0010
0001
,
1001
0001
1000
0010
,
0100
0000
0000
0000
,
0010
0000
1001
0000
0000
0001
0100
0001
,
0000
1000
0000
0100
0000
0010
0100
0000
,
1000
0000
0000
1000
0000
0000
0001
0001
,
0000
0000
0000
1000
0001
0000
0100
0000
,
0010
0000
1001
0000
0001
0000
1000
0100
,
0000
0000
1000
0010
0000
0100
0000
0000
,
0101
0000
1000
0000
,
0001
0100
1000
0010
,
0001
1001
1000
0001
,
0100
0001
0010
0100
,
1000
0100
1000
0010
,
0100
1000
0100
0001
,
1000
0001
0001
0001
,
0010
0100
0100
0100
,
0010
0001
1000
0100
,
1000
0000
0000
0000
,
0100
1001
0011
0000
,
1100
0000
1010
0000
,
0110
0000
0000
0001
,
0000
1000
0001
0100
,
0001
0011
0110
0000
,
1100
0000
1010
0000
,
0110
0000
0000
0001
0000
0000
1000
1000
,
0000
0001
0010
0100
,
1000
0000
0100
0100
0000
0000
1100
0000
,
1000
0000
0001
0001
0000
0000
0101
0000
,
0001
0000
1000
1000
0000
0000
0001
0001
,
0000
0000
0000
0010
0001
0100
0001
0000
,
1000
0000
0010
0010
0000
0000
1001
0000
,
1000
0000
0100
0100
0000
0000
0011
0000
,
0001
0000
0100
0100
0000
0001
0000
1000
,
0000
0000
0000
0000
,
1001
0000
0000
0001
,
0010
1000
0010
0001
,
1000
0000
0100
0000
,
1000
0000
0001
0000
,
0100
0000
0000
0001
0000
0000
1000
0000
,
0100
0000
0000
1000
0000
0000
0010
0000
,
0100
0000
1000
0000
,
0100
0000
0001
0000
,
1001
0000
0000
0000
,
0010
0000
0000
0000
,
1001
0000
0000
0000
,
1000
0000
0001
0000
,
0110
0100
0100
0100
,
0110
0010
0010
0010
,
1001
1000
0001
0001
,
1001
0000
0000
0000
,
1000
0100
1000
0000
0001
0000
0100
0000
,
0001
0100
0001
0000
1000
0000
0001
0000
,
0010
0001
0010
0000
0001
0000
0100
0000
,
0001
1000
0100
0010
,
0001
0100
0001
0000
0100
0000
0010
0000
,
1000
0010
1000
0000
0010
0000
0100
0000
,
0001
1000
0001
0000
1000
0000
0100
0000
,
0010
0100
1000
0001
,
1001
0110
0000
0000
;

//--------------- dance-single - Pandemonium X ----------------
#NOTES:
     dance-single:
     Pandemonium X:
     Medium:
     12:
     0,0,0,0,0:
0000
0000
0000
0000
,
0000
0000
0000
0000
,
0000
0000
0000
0000
,
0000
0000
0000
0000
,
0000
0000
0000
0000
,
1000
1000
1000
1000
,
0010
0000
0000
0000
0010
0000
0000
0000
0010
0000
0000
0000
0010
0000
0000
0010
,
0100
0000
0000
0001
0100
0000
0000
0001
0100
0000
0000
0001
0100
0000
0000
0001
,
0100
0010
1000
0001
0010
0100
1000
0001
,
1001
0000
0000
0000
1000
0000
0000
0000
0100
0000
0000
1000
0010
0000
0000
0000
,
0010
0000
0000
0000
0100
0000
0000
0000
0001
0000
0000
0010
0001
0000
0000
0001
,
0100
0000
0010
0000
0100
0000
0000
0000
0010
0000
0000
0000
0100
0000
0000
0001
,
0100
0000
0000
0000
0001
0000
0000
0000
1000
0000
0000
0100
1000
0000
0100
0000
,
0010
0000
0000
0001
0010
0000
0000
0001
0010
0000
0100
0000
1000
0000
0000
0000
,
0010
0000
0000
1000
0100
0000
0000
1000
0100
0000
1000
0000
0001
0000
0000
0000
,
0010
0000
0000
1000
0001
0000
0000
1000
0001
0000
0000
1000
0001
0000
1000
0000
,
0100
0100
0000
0000
0000
0000
0000
0000
,
0010
0000
1001
0000
0000
0001
0100
0001
,
0000
0010
0000
0100
0000
0010
0001
0000
,
1100
0000
0000
1010
0000
0000
0010
0100
,
0000
0000
0000
0100
1000
0100
0001
1000
,
0100
0000
0011
0000
0001
0100
0001
1000
,
0000
0001
0010
0100
0000
0010
0000
0000
,
0011
0000
0000
1000
0100
0000
0000
1000
,
0100
0001
0100
1000
0010
0001
0010
1000
,
0001
0000
1001
0000
0001
0100
0001
0000
,
0100
0000
1010
0000
1000
0100
1000
0000
,
0100
0010
0000
0010
0001
0000
0000
1000
0001
0000
0000
0001
0000
0000
0001
0000
,
0000
0100
0010
0000
0100
0000
0010
0000
1000
0000
0100
0000
0010
0000
0001
0000
,
1000
0000
0100
0000
1000
0000
0010
0000
0100
0000
0000
0100
0000
0000
0100
0000
,
0010
0000
0100
0000
0001
0000
0010
0000
0100
0000
0000
0100
0000
0000
0100
0000
,
0010
0001
0100
0010
1000
0001
0010
0100
,
1000
0000
0000
0000
0000
0000
0000
0000
0001
1000
0000
0001
1000
0000
0001
0000
,
1001
0000
0000
0000
1010
0000
0000
0010
0100
0000
0000
0000
0000
0000
0000
0000
,
0001
0100
0000
0000
0000
0000
0000
0000
0010
0100
0000
0000
0000
0000
0000
0100
,
1000
0000
0000
0000
0000
0000
0100
1000
,
0000
0000
0010
0000
1000
0000
0000
0000
0010
0000
0100
0001
0100
0000
0001
0000
,
1000
1001
0001
0000
,
0010
0000
0100
0000
,
1000
0000
0000
0100
0000
0000
1000
0010
,
0000
0000
0010
0100
0001
1000
0001
0000
,
1001
1000
0010
1000
0000
0010
0001
0010
,
0000
1000
0100
1000
0000
0100
0001
0100
,
0000
1000
0010
1000
0000
0010
0001
0010
,
0000
1000
0100
1000
0000
0100
0001
0100
,
0000
1000
0010
1000
0000
0010
0001
0010
,
0000
0001
0010
0001
0000
0010
1000
0010
,
0000
0001
0100
0001
0000
0100
1000
0100
,
0000
0001
0010
0001
0000
0010
1000
0010
,
0011
0000
0000
0010
,
0100
0000
0010
0000
0001
0000
1000
0010
,
0100
0000
0001
0000
,
1000
0000
0100
0000
,
1000
0000
0000
0001
0000
0010
0100
0000
,
0010
0000
0000
0001
0000
0010
0100
0000
,
1100
0000
0101
0000
,
0011
0000
1010
0000
,
1001
0000
0000
0000
0001
0000
0000
0000
0100
0000
0000
0000
0010
0000
0000
1000
,
0100
0000
0000
0000
0010
0000
0000
0000
0100
0000
0000
0000
1000
0000
0000
0001
,
0100
0000
0000
0000
0001
0000
0000
0000
1000
0000
0000
0000
0100
0000
0000
0010
,
0100
0000
0000
0000
0010
0000
0000
0000
0001
0000
0000
0100
0010
0000
0100
0000
,
0001
0000
0000
0001
0100
0000
0000
0100
0010
0000
0000
0010
1000
0000
0100
0000
,
1000
0000
0000
0010
0100
0000
0000
0100
0001
0000
0000
0001
0010
0000
0000
0010
,
0100
0010
0001
0000
0001
0010
0100
0000
,
1000
1000
0000
0000
0000
0000
0000
0000
,
0001
0000
0100
0000
0001
0000
0000
1000
0000
0000
0100
0000
0000
0010
0000
0000
,
0100
0000
1000
0000
0001
0010
0000
0010
0000
0000
0100
0000
0000
0010
0000
0000
,
0001
0000
0100
0000
0010
0100
0000
0001
0000
0000
1000
0000
0000
0100
0000
0000
,
1000
0000
0001
0000
0100
0001
0000
0010
0000
0100
1000
0000
0001
0000
1000
0000
,
0010
0000
1000
0000
1100
0000
0000
0100
0000
0000
1000
0000
0000
0010
0000
0000
,
0100
0000
0001
0000
0010
0100
0000
0010
0000
0000
0001
0000
0000
1000
0000
0000
,
0001
0000
1000
0000
0001
1000
0000
0100
0000
0000
1000
0000
0000
0001
0000
0000
,
0100
0001
0000
0010
0100
0000
0100
1000
0000
0100
0010
0000
0001
0000
1000
0000
,
0110
1001
0000
0000
;

//--------------- dance-single - Pandemonium X ----------------
#NOTES:
     dance-single:
     Pandemonium X:
     Hard:
     14:
     0,0,0,0,0:
0000
0000
0000
0000
,
0000
0000
0000
0000
,
0000
0000
0000
0000
,
0000
0000
0000
0000
,
0000
0000
0000
0000
,
0001
0000
0000
1000
0000
0000
0001
0000
,
0010
0000
0100
0000
0000
0010
0000
0001
,
0100
0000
0000
0010
0010
0000
0000
0000
,
0100
1000
0100
0001
1000
0100
1000
0001
,
0010
0010
0100
0000
0010
0000
0011
0000
,
1001
0000
1000
0000
0001
0010
0100
1000
,
0010
0010
1000
0000
0100
0000
0010
0001
,
0001
0000
0100
0000
0010
0000
1000
0100
,
0010
0010
0001
0010
0100
0000
0100
1000
,
0010
0000
0000
0000
0010
0000
0100
0000
0001
0000
0000
0001
0010
0000
0100
0000
,
1000
1000
0001
0000
1000
0000
0010
0000
,
0100
0000
0100
0000
0000
0000
0000
0000
0001
1000
0000
0001
1000
0000
0001
0000
,
0010
0010
0011
0000
0000
0010
0001
1000
,
0000
0010
0000
0001
0000
0010
0100
0000
,
0010
0010
1000
0100
0000
0100
1000
0001
,
0000
0000
0000
1000
0010
0010
0100
0001
,
0010
0010
1001
0000
1000
0100
1000
0010
,
0000
1000
0100
1000
0000
0100
0000
0000
,
0010
0000
0010
0000
0000
0000
0001
0010
0001
0000
0000
0000
0000
0000
1000
0010
,
1000
0000
0001
0010
0001
0000
1000
0010
1000
0000
0001
0010
0001
0000
1000
0000
,
0010
0010
1001
0000
0001
0010
0001
0100
,
0010
0000
1000
0000
0100
0000
0010
0000
0100
0000
1000
0000
0001
0000
0100
0001
,
0000
0001
0000
0001
1000
0000
0000
1000
0000
0001
0000
1000
0000
0001
1000
0000
,
0100
0010
0000
0000
0100
1000
0100
0010
0001
0100
0001
1000
0001
0000
1000
0000
,
0001
0000
0100
0000
0001
0010
0100
1000
0100
0000
0100
1000
0000
1000
0001
0000
,
1000
0000
0010
0000
1000
0100
0010
0001
0010
0000
0010
0001
0000
0001
1000
0000
,
0010
0000
0010
0000
0100
0001
0000
0001
0100
0000
0010
0000
1000
0100
0000
0100
,
1000
0000
0000
0000
0000
0000
0000
0000
1000
0001
0000
0001
0100
0000
0100
0010
,
1000
0000
0001
0000
0101
0000
0000
0001
1000
0000
0000
0000
0100
0000
0000
0000
,
0010
0100
0000
0000
1000
0000
0000
0000
0010
0100
0000
0000
0010
0000
0000
0100
,
0010
0010
1000
0000
0001
0000
0100
0010
,
0000
0000
0100
0000
0001
0000
0000
0000
0010
0000
0100
1000
0001
0000
0100
0000
,
0010
0010
1001
0000
1010
0000
1000
0000
,
0101
0001
1001
1000
,
0010
0010
0100
0101
0000
0000
0001
0011
,
0000
1001
1010
1001
,
1010
0010
0110
0100
0000
0000
1001
0000
,
0001
0100
0001
0010
0000
0100
1001
0000
,
0011
0010
0100
0110
0000
0000
0100
1100
,
0000
0000
0000
1000
0100
0001
0100
1000
,
0010
0000
0010
0000
0100
0000
0101
0000
0000
0000
0000
1000
0100
0000
0000
0000
,
1000
0000
1000
0000
0010
0000
1010
0000
0000
0000
0000
0010
0100
0000
0000
0000
,
0101
0000
1000
1000
0000
0001
0000
1000
,
0010
0000
0010
0000
0100
0000
0001
0000
1000
0010
0000
0010
0100
0001
0010
0100
,
1000
0010
1000
0100
0000
0000
0010
0000
,
0100
0000
0010
0000
0001
0000
0100
0010
,
1000
0000
0010
0000
,
1000
0000
0001
0000
,
1000
0100
0010
0100
0000
1000
0001
0000
,
1000
0001
0010
0100
0000
0010
0001
0000
,
1001
0000
1000
0100
1100
0000
0001
0100
,
0101
0000
1000
0100
1100
0000
0001
0100
,
0101
0000
0000
0001
0010
0000
0000
0010
0001
0000
0000
0001
0010
0000
0100
0000
,
1000
0000
0000
0010
1000
0000
0000
1000
0010
0000
0000
0010
1000
0000
0001
0000
,
1000
0000
0000
0001
1000
0000
0000
1000
0001
0000
0000
0001
1000
0000
0100
0000
,
0010
0000
0000
0010
0100
0000
0000
0100
0010
0000
0000
0010
0100
0000
0010
0000
,
0001
0010
0001
0010
0001
0010
0001
0010
,
0100
1000
0100
1000
0100
1000
0100
1000
,
0100
0010
0001
0010
0100
1000
0001
1000
,
0010
0010
0000
0000
0000
0000
0100
0010
,
1010
0000
1000
0000
1001
0000
0000
0001
0000
0000
1001
0000
0000
0101
0000
0000
,
0001
0000
1000
0000
0100
0010
0000
0110
0000
0000
0011
0000
0000
1001
0000
0000
,
0101
0000
0100
0000
0010
1000
0000
0100
0000
0000
0110
0000
0000
1100
0000
1000
,
0100
0000
0100
1000
0001
0100
0000
1010
0000
0000
1000
0000
0000
0001
0100
0000
,
0010
0000
0010
0000
1001
0000
0000
1010
0000
0000
0101
0000
0000
1010
0000
0000
,
0001
0000
1000
0000
0100
0010
0000
0100
0000
0000
0011
0000
0000
1001
0000
0000
,
1010
0000
0010
0000
0100
0010
0000
0101
0000
0000
0110
0000
0000
1010
0000
0000
,
0010
0100
0000
0010
0000
0000
0100
0001
0000
1000
0100
0000
0010
0000
0100
0000
,
0110
0010
1001
0000
0000
0000
0000
0000
;
