#TITLE:First Resolution;
#SUBTITLE:;
#ARTIST:good-cool;
#TITLETRANSLIT:;
#SUBTITLETRANSLIT:;
#ARTISTTRANSLIT:;
#GENRE:;
#CREDIT:;
#MUSIC:First Resolution.ogg;
#BANNER:First Resolution-bn.png;
#BACKGROUND:First Resolution-bg.png;
#CDTITLE:;
#SAMPLESTART:69.253;
#SAMPLELENGTH:12.800;
#SELECTABLE:YES;
#OFFSET:1.147;
#BPMS:0.000=150.000;
#STOPS:;
#BGCHANGES:;
#FGCHANGES:;

//--------------- dance-single - Pandemonium X ----------------
#NOTES:
     dance-single:
     Pandemonium X:
     Beginner:
     3:
     0,0,0,0,0:
0000
0000
0000
0000
,
0000
0000
0000
0000
,
0000
0000
0000
0000
,
0001
0000
0000
0000
,
0010
0000
0010
0000
,
0001
0000
0000
0000
,
0000
1001
0000
1001
,
1000
0000
0000
0000
,
0010
0000
0000
0000
,
1000
0000
0000
0000
,
0020
0000
0030
0000
,
0100
0000
0000
0000
,
0001
0000
0000
0000
,
0010
0000
0000
0000
,
0000
0110
0000
0110
,
1000
0000
0000
0000
,
0001
0000
0000
0000
,
1000
0000
0000
0000
,
0020
0000
0000
0030
,
0100
0000
0000
0000
,
0010
0000
0000
0000
,
1000
0000
0000
0000
,
0100
0000
0010
0000
,
0001
0000
0000
0000
,
0100
0000
0000
0000
,
0001
0000
0000
0000
,
1000
0000
0001
0000
,
0100
0000
0000
0000
,
0010
0000
0000
0000
,
1000
0000
0000
0000
,
0100
0100
0100
0100
,
0010
0000
0000
0000
,
0001
0000
0000
0000
,
1000
0000
0000
0000
,
0001
0000
1000
0000
,
0110
0000
0000
0000
,
0000
0000
0000
0000
,
0000
0000
0000
0000
,
0000
0000
0000
0000
,
0001
0000
0000
0000
,
1000
0000
0001
0000
,
1000
0001
1000
0001
,
1000
1000
1000
1000
,
1000
0000
0000
0000
,
0001
0000
0000
0000
,
0100
0000
0000
0000
,
0010
0000
0000
0000
,
1000
0000
0001
0000
,
1000
0000
0000
0000
,
0100
0000
0000
0000
,
0010
0000
0010
0000
,
0010
0000
0000
0000
,
1001
0000
0000
0000
,
0001
0000
0000
0000
,
1000
0000
0010
0000
,
1000
0000
0001
0001
,
1001
0000
0000
0000
,
1000
0000
0000
0000
,
0001
0000
1000
0000
,
0001
0000
0000
0000
,
0100
0000
0000
0000
,
0000
0110
0000
0110
,
0010
0000
0000
0000
,
1000
1001
0002
0000
,
1003
0000
0000
0000
,
0000
1001
0000
1001
,
0001
0000
0000
0000
,
0100
0000
0000
0000
0010
0000
0000
1000
;

//--------------- dance-single - Pandemonium X ----------------
#NOTES:
     dance-single:
     Pandemonium X:
     Easy:
     6:
     0,0,0,0,0:
0000
0000
0000
0000
,
0000
0000
0000
0000
,
0000
0000
0000
0000
,
0001
1000
0001
0000
,
0100
0000
0100
0000
,
0001
1000
0001
0000
,
0000
1010
0000
1010
,
1000
0001
1000
0000
,
0100
0000
0100
0000
,
0010
0001
0010
0000
,
0200
0000
0000
0300
,
1000
0010
1000
0100
,
0000
0010
0000
0010
,
0001
0100
0001
0010
,
0000
0110
0000
0110
,
1000
0001
0010
0001
,
0000
1000
0000
1000
,
0001
1000
0010
0100
,
2002
0000
0000
3003
,
1000
0000
0001
0000
,
0010
0010
0010
0000
,
0100
0000
1000
0000
,
0001
0001
0001
0000
,
0100
0000
0010
0000
,
1000
1000
1000
0000
,
0001
0000
1000
0000
,
0100
0100
0100
0000
,
0010
0000
0100
0000
,
1000
1000
1000
0000
,
0010
0000
0100
0000
,
0001
0001
0001
0001
,
0001
0000
0010
0000
,
0001
0100
0010
0000
,
0100
0000
0010
0000
,
1000
0010
0100
0001
,
1001
0000
0000
0000
,
0000
0000
0000
0000
,
0000
0000
0000
0000
,
0000
0000
0000
0000
,
0010
0000
0000
0000
,
0010
0000
0010
0000
,
0010
0010
0010
0010
,
0110
0110
0110
0110
,
1001
0000
0000
0000
,
0000
1000
0002
0003
,
0000
0100
0010
0010
,
0000
0100
0001
0000
,
0010
0000
0100
0100
,
1000
0000
0100
0000
,
1000
0010
1000
0000
,
1001
0010
1001
0100
,
1001
0000
0000
0000
,
1000
0001
0010
0000
,
0001
1000
0010
0000
,
0100
0001
0010
0100
,
1000
0001
0100
0001
,
0010
0001
0001
0000
,
1000
0100
0100
0000
,
1001
0000
0110
0000
,
1001
0110
1001
0110
,
0001
1000
0010
0000
,
0000
1001
0000
1001
,
1000
0001
0010
0000
,
0000
1100
0002
0000
,
0103
0001
1000
0000
,
0000
1001
0000
1001
,
1000
0001
0010
0000
,
0100
0000
0000
0000
0010
0000
0000
1001
;

//--------------- dance-single - Pandemonium X ----------------
#NOTES:
     dance-single:
     Pandemonium X:
     Medium:
     9:
     0,0,0,0,0:
0000
0000
0000
0000
,
0000
0000
0000
0000
,
0000
0000
0000
0000
,
0000
0000
0001
0000
0000
1000
0000
0000
0010
0000
0000
0000
0000
0000
0000
0000
,
1000
1000
0001
0001
,
1000
0000
0000
0001
0000
0000
0010
0000
0000
0000
0000
0000
0000
0000
0000
0000
,
0000
1100
0000
1100
,
0000
0000
0100
0000
0000
1000
0000
0000
0010
0000
0000
0000
0000
0000
0000
0000
,
0100
0001
0010
0001
,
0100
0000
0000
0001
0000
0000
0010
0000
0000
0000
0000
0000
0000
0000
0000
0000
,
0200
0000
1000
0000
0310
0100
0010
0100
,
1000
0000
0010
0000
0000
0010
0000
0000
0100
0000
0000
0100
0000
0000
0001
0000
,
0000
0000
1000
0000
1000
0000
0000
0000
0001
0000
0000
1000
0000
0000
0010
0000
,
0100
0000
0000
0100
0000
0000
0010
0000
0000
0010
0000
0000
1000
0000
0001
0000
,
0000
0101
0000
0101
,
0000
0000
0010
0000
0000
0100
0000
0000
0001
0000
0000
0001
0000
0000
0010
0000
,
0100
0000
0000
0010
0000
0000
0001
0000
1000
0000
0000
0010
0000
0000
0100
0000
,
0001
0000
0000
1000
0000
0000
0001
0000
0000
0001
0000
0000
0010
0000
0100
0000
,
2000
0100
0010
3001
,
0000
0000
1000
0000
0000
0001
0000
0000
0000
0000
0100
0000
0000
0001
0000
0000
,
0010
0000
0000
0100
0000
0000
1100
0000
0000
0000
0000
0000
0000
0000
0000
0000
,
0000
0000
0100
0000
0000
0100
0000
0000
0000
0000
1000
0000
0000
0010
0000
0000
,
0100
0000
0000
0001
0000
0000
0010
0000
0000
0100
0000
0000
0010
0000
0010
0000
,
0000
0000
0100
0000
0000
0010
0000
0000
0000
0000
0001
0000
0000
0100
0000
0000
,
0010
0000
0000
1000
0000
0000
0011
0000
0000
0000
0000
0000
0000
0000
0000
0000
,
0000
0000
0001
0000
0000
1001
0000
0000
0000
0000
1000
0000
0000
0010
0000
0000
,
1000
0000
0000
0100
0000
0000
0010
0000
0000
0001
0000
0000
0100
0000
0100
0000
,
0001
0000
0100
0000
0000
0010
0000
0000
0000
0000
1000
0000
0000
0001
0000
0000
,
0010
0000
0000
0100
0000
0000
0011
0000
0000
0000
0000
0000
0000
0000
0000
0000
,
0000
0000
0001
0000
0000
0001
0000
0000
0000
0000
0100
0000
0000
0010
0000
0000
,
1010
0101
1010
0101
,
0001
0000
1000
0000
0000
0100
0000
0000
0000
0000
0010
0000
0000
0100
0000
0000
,
1000
0000
0000
0010
0000
0000
1001
0000
0000
0000
0000
0000
0000
0000
0000
0000
,
0000
0000
0001
0000
0000
0001
0000
0000
0000
0000
0010
0000
0000
0001
0000
0000
,
0100
0000
0000
0010
0000
0000
1000
0000
0000
0001
0000
0000
0010
0000
0100
0000
,
1001
0000
0000
0000
,
0000
0000
0000
0000
,
0001
0000
0000
0000
,
1000
0000
0000
0000
,
1001
0000
0000
0000
,
0110
0000
1001
0000
,
0110
1001
0110
1001
,
0001
1000
0001
1000
0001
0100
0010
1000
,
0002
0000
0000
0003
,
1000
0010
0200
0001
,
0310
0000
0100
0000
0001
0001
0001
0000
,
0010
0100
0020
0031
,
2000
0000
3010
0000
0100
0100
0100
0000
,
0010
0000
0100
0001
0100
0000
0010
0000
,
1000
0100
1000
0000
0100
0000
0010
0000
,
0021
0130
1020
0130
,
1001
0110
1001
0110
,
0001
0100
0010
1000
,
0100
0001
0100
0010
,
0001
0100
1000
0100
,
0010
0000
1000
0010
0100
0000
0001
0000
,
1100
0000
0100
1000
0010
0000
0100
0000
,
0001
0000
0010
0001
0100
0000
0010
0000
,
1001
0110
1001
0110
,
1001
1001
0110
0110
,
0001
0100
0010
1000
,
0000
0110
0000
0110
,
0001
1000
0100
0010
,
0000
0000
1001
0000
0010
0100
0010
0100
,
1001
0001
1000
0100
,
0000
0110
0000
0110
,
0010
0001
0100
0010
,
1000
0010
1000
0001
0010
0100
1000
1001
;

//--------------- dance-single - Pandemonium X ----------------
#NOTES:
     dance-single:
     Pandemonium X:
     Hard:
     12:
     0,0,0,0,0:
0000
0000
0000
0000
,
0000
0000
0000
0000
,
0000
0000
0000
0000
,
0001
0000
1000
0000
0000
1000
0000
0000
0010
0000
0000
0000
0000
0000
0000
0000
,
0100
0001
0100
0010
0100
0001
0100
0000
,
0010
0000
0000
0010
0000
0000
1000
0000
0000
0000
0000
0000
0000
0000
0000
0000
,
0000
1001
0000
1001
,
1000
0000
0001
0000
0000
0001
0000
0000
0100
0000
0000
0000
0000
0000
0000
0000
,
0010
1000
0100
1000
0010
1000
0100
0000
,
0010
0000
0000
0010
0000
0000
0001
0000
0000
0000
0000
0000
0000
0000
0000
0000
,
2100
3001
0010
0001
,
0100
0000
0010
0000
0000
0010
0000
0000
0100
0000
0000
0100
0000
0000
0001
0000
,
0000
0000
1000
0000
1000
0001
0000
0000
0001
0000
0000
1000
0000
0000
0100
0000
,
0010
0000
0000
0010
0000
0000
0100
0000
0000
0100
0000
0000
1000
0000
0001
0000
,
0000
1001
0000
1001
,
0001
0000
1000
0000
0000
1000
0000
0000
0010
0000
0000
0010
0000
0000
0100
0000
,
0010
0100
0010
0000
0100
0010
0100
0000
,
0001
0000
0000
0001
0000
0000
0010
0000
0000
0010
0000
0000
0100
0000
1000
0000
,
0200
1000
0010
1300
,
0001
0000
1000
0100
1000
0100
0000
0000
0000
0000
0010
0000
0000
0010
0000
0000
,
0100
0000
0000
0010
0000
0000
1001
0000
0000
0000
0000
0000
0000
0000
0000
0000
,
0000
0000
0001
0100
0001
0100
0000
0000
0000
0000
0001
0000
0000
0001
0000
0000
,
1000
0000
0000
0010
0000
0000
0100
0000
0000
0001
0000
0000
1000
0000
0010
0000
,
0110
0000
0010
0000
0000
0010
0000
0000
0000
0000
0100
0000
0000
0100
0000
0000
,
0010
0000
0000
0100
0000
0000
1001
0000
0000
0000
0000
0000
0000
0000
0000
0000
,
0000
0000
0001
1000
0001
1000
0000
0000
0000
0000
0100
0000
0000
0100
0000
0000
,
0010
0000
0000
0100
0000
0000
1000
0000
0000
0010
0000
0000
0100
0000
0010
0000
,
1001
0000
0001
0100
0001
1000
0000
0000
0000
0000
0010
0000
0000
1000
0000
0000
,
0010
0000
0000
0100
0000
0000
1001
0000
0000
0000
0000
0000
0000
0000
0000
0000
,
0000
0000
0001
0010
0001
0100
0000
0000
0000
0000
0001
0000
0000
1000
0000
0000
,
1010
1100
1010
1100
,
1001
0000
0001
1000
0100
0010
0000
0000
0000
0000
0010
0000
0000
0010
0000
0000
,
0001
0000
0000
0010
0000
0000
0100
0000
0000
0000
0000
0000
0000
0000
0000
0000
,
0000
0000
0010
0100
0010
0001
0000
0000
0000
0000
0010
0000
0000
0001
0000
0000
,
2100
0000
3010
0000
0201
0000
0310
0010
,
2001
0000
0000
0000
,
0000
0000
0000
3000
,
0002
0000
0000
0000
,
0000
0000
0000
0003
,
1001
0000
0000
0000
,
1001
0000
1001
0000
,
1001
1001
1001
1001
,
1001
0000
1001
0000
1001
0000
1001
0000
0001
1000
0001
1000
0001
1000
0001
1000
,
0001
0000
0000
0000
0000
0000
0000
0000
0000
0000
0000
0000
0001
0000
0001
1000
,
0001
0010
0001
1000
1020
0000
0100
0000
,
1030
0010
0100
0001
1001
1001
2001
0000
,
3001
0010
0001
0100
0010
0000
0000
1002
,
0000
0000
0000
0013
0011
0011
0011
0000
,
0101
0001
0010
0001
1001
0000
1010
0000
,
1000
0001
1000
1010
0000
0000
0000
1000
,
2100
3010
0201
0310
,
1001
0110
1001
0110
,
1001
0001
0010
0001
0200
0000
0320
0000
,
0130
0001
0010
0100
2000
0000
3200
0000
,
0310
0100
1100
0000
0100
0010
0011
0000
,
0010
0001
0100
0010
1010
0000
1001
0000
,
1100
0000
0100
1000
0010
0000
0100
0000
,
0001
0010
0100
0010
0001
0000
1000
0000
,
1001
0110
1001
0110
,
1000
0001
1000
0001
1000
0001
1000
0001
,
1001
0001
0100
0010
,
0100
1001
0010
1001
,
1000
0001
0010
0100
,
0000
0000
0000
0000
1001
0000
0000
0000
0001
0100
0001
0100
0001
0100
0001
0100
,
0001
0010
0100
1000
,
0010
1001
0100
1001
,
0001
1000
0010
0100
,
0001
0010
0100
1000
0100
0010
0001
1001
;
