#TITLE:Final Audition;
#SUBTITLE:;
#ARTIST:Banya;
#TITLETRANSLIT:;
#SUBTITLETRANSLIT:;
#ARTISTTRANSLIT:;
#GENRE:;
#CREDIT:;
#MUSIC:Final Audition.ogg;
#BANNER:;
#BACKGROUND:Final Audition-bg.png;
#CDTITLE:;
#SAMPLESTART:52.872;
#SAMPLELENGTH:10.575;
#SELECTABLE:YES;
#OFFSET:0.010;
#BPMS:0.000=130.500;
#STOPS:36.000=1.847;
#BGCHANGES:;
#FGCHANGES:;

//--------------- dance-single - Pandemonium X ----------------
#NOTES:
     dance-single:
     Pandemonium X:
     Beginner:
     1:
     0,0,0,0,0:
0000
0000
0000
0000
,
0000
0000
0000
0000
,
0001
0000
0000
0000
,
1000
0000
0000
0000
,
0001
0000
0000
0000
,
1000
0000
0000
0000
,
0001
0000
0000
0000
,
1000
0000
0000
0000
,
0001
0000
0000
0000
,
0110
1000
0000
0000
,
0000
0100
0000
0000
,
0000
0010
0000
0000
,
0000
0001
0000
0000
,
0000
1000
0000
0000
,
0000
0001
0000
0000
,
0000
0100
0000
0000
,
0000
0010
0000
0000
,
0000
2000
0000
0000
,
0000
0000
0000
0000
,
3000
0002
0000
0000
,
0000
0000
0000
0000
,
0003
0200
0000
0000
,
0000
0000
0000
0000
,
0300
1001
0000
0001
,
0000
0000
0000
1000
,
0000
0001
0000
1000
,
0000
0000
0000
0001
,
0000
1000
0000
0010
,
0000
0100
0000
0001
,
0000
1000
0001
1000
,
0000
0000
0000
0001
,
0000
0000
0000
0200
,
0000
0000
0000
0000
,
0000
0000
0300
0020
,
0000
0000
0000
0000
,
0000
0000
0030
2000
,
0000
0000
0000
0000
,
0000
0000
3000
0002
,
0000
0000
0000
0000
,
0000
0000
0003
0000
,
0000
0000
0000
0001
,
0000
1000
0000
0010
,
0000
0000
0000
1000
,
0000
0001
0000
0100
,
0000
0000
0000
0010
,
0000
1000
0000
0100
,
0000
0000
0000
0010
,
0000
0002
0003
1000
,
0000
0000
0000
0001
,
0000
0000
0000
0100
,
0000
0000
0000
0010
,
0000
0000
0000
1000
;

//--------------- dance-single - Pandemonium X ----------------
#NOTES:
     dance-single:
     Pandemonium X:
     Easy:
     5:
     0,0,0,0,0:
0000
0000
0000
0000
,
0000
0000
0000
0000
,
1000
0001
0100
0000
,
0001
1000
0010
0000
,
1000
0100
0010
0000
,
0100
0010
0001
0000
,
1000
0001
0100
0000
,
0001
1000
0010
0000
,
0100
0001
0010
0100
,
1001
1000
0001
0100
,
0000
0010
1000
0100
,
0010
0001
0100
0010
,
0000
0100
0001
1000
,
0100
0010
0100
1000
,
0000
0100
0010
0001
,
0100
0001
1000
0010
,
0000
1000
0001
0100
,
0010
2000
0000
0001
,
0000
0002
0000
0000
,
3003
0002
0000
1000
,
0000
2000
0000
0000
,
3003
0020
0000
0100
,
0000
0200
0000
0000
,
0000
0330
0000
0001
,
0001
0001
1000
0001
,
0001
0010
0100
1000
,
1000
1000
0001
1000
,
1000
0100
0010
0001
,
0010
0001
0100
0001
,
1000
0001
2000
3010
,
0000
0000
0000
0100
,
0000
0001
0010
0002
,
0000
0100
0000
0010
,
0000
1003
0000
2000
,
0000
0100
0000
0010
,
0000
3001
0000
0002
,
0000
0100
0000
0010
,
0000
1003
0000
2000
,
0000
0100
0000
0010
,
0000
3001
0000
0110
,
0000
0000
0000
0001
,
1000
0010
0100
1001
,
0000
0000
0000
1000
,
0100
0010
0001
0101
,
0001
0100
0010
1000
,
0100
0010
0100
1100
,
0100
1000
0010
0100
,
0001
0020
0000
0130
,
0000
1000
0000
0001
,
0001
0001
0000
1000
,
0000
0001
0000
1000
,
1000
1000
0000
0110
;

//--------------- dance-single - Pandemonium X ----------------
#NOTES:
     dance-single:
     Pandemonium X:
     Medium:
     8:
     0,0,0,0,0:
0000
0000
0000
0000
,
0000
0000
0000
0000
,
1000
0000
0000
1000
0000
0000
1000
0000
0000
1000
0000
0000
1000
0000
0000
0000
,
0001
0000
0000
0001
0000
0000
0001
0000
0000
0001
0000
0000
0001
0000
1000
0000
,
0010
0000
0000
0010
0000
0000
0010
0000
0000
0010
0000
0000
0010
0000
0000
0000
,
0100
0000
0000
0100
0000
0000
0100
0000
0000
0100
0000
0000
0100
0000
0010
0000
,
1000
0000
0000
1000
0000
0000
1000
0000
0000
1000
0000
0000
1000
0000
0000
0000
,
0001
0000
0000
0001
0000
0000
0001
0000
0000
0001
0000
0000
0001
0000
0010
0000
,
0100
0000
0000
0100
0000
0000
0100
0000
0000
0100
0000
0000
0100
0000
0000
0000
,
1001
0000
0001
0100
0001
0000
1000
0000
,
0100
0000
0010
0100
1000
0000
0100
0000
,
1000
0000
0010
0100
0010
0000
0100
0000
,
0001
0000
0010
0001
1000
0000
0010
0000
,
0100
0000
0001
0100
1000
0000
0100
0000
,
0010
0000
1000
0010
0001
0000
0010
0000
,
0100
0000
0001
0010
1000
0000
0010
0000
,
0100
0000
0001
0100
1000
0000
0010
0000
,
1001
0002
0000
0203
,
0000
2300
0000
3020
,
0000
0032
0000
0203
,
0000
2300
0000
3020
,
0000
0032
0000
0203
,
0000
2300
0000
3020
,
0000
0031
0000
1000
,
1000
0000
1000
0000
1000
0001
0100
0000
,
0100
0000
0100
1000
0100
0001
0010
0000
,
0010
0000
0010
0000
0010
0100
1000
0000
,
1000
0000
1000
0100
0001
0100
1000
0000
,
0001
0000
0000
0100
0000
0000
0001
0000
0010
0000
0000
0000
0100
0000
0000
0000
,
0010
0000
0000
0100
0000
0000
1000
0000
0002
0000
0000
0000
0103
0000
0000
0100
,
0000
0100
0000
0000
0000
0010
0100
0000
,
0010
0000
1000
0001
0010
0000
1100
0000
,
1100
0011
0011
0101
,
0101
0000
0100
0010
1000
0000
1010
0000
,
1010
0011
0011
1100
,
1100
0000
1000
0100
0010
0000
0011
0000
,
0011
1100
1100
1010
,
1010
0000
0010
1000
0001
0000
1001
0000
,
1001
0110
0110
0101
,
0101
0000
0001
0100
0010
0000
1000
0000
,
0000
0000
0000
0000
0000
0000
0001
1000
,
0100
0000
0010
0100
1000
0000
0010
0000
,
0000
0000
0000
0100
,
0001
0000
0010
0000
0100
0000
0010
0010
,
0001
0000
1000
0000
0010
0000
0100
0100
,
0001
0000
1000
0000
0010
0000
1000
1000
,
0100
0000
0010
0010
0001
0000
0001
0010
,
0100
0000
1000
0000
0200
0000
0000
0000
0000
0000
0000
0000
0310
0000
0000
0010
,
0000
0001
1000
0000
0001
0000
0100
0000
,
0010
0000
0000
0000
1000
0000
0000
0000
0001
0000
0000
0000
1000
0000
0000
1000
,
0000
0010
0100
0000
0010
1000
0001
0000
,
0100
0000
0001
0000
1000
0001
0220
0000
,
0000
0330
0000
0000
;

//--------------- dance-single - Pandemonium X ----------------
#NOTES:
     dance-single:
     Pandemonium X:
     Hard:
     14:
     0,0,0,0,0:
0000
0000
0000
0000
,
0000
0000
0000
0000
,
0001
0000
0010
0000
0001
0000
1000
0100
0000
1000
0010
0000
1001
0000
0000
0000
,
1000
0000
0010
0000
1000
0000
0001
0010
0000
0001
1000
0000
0010
0000
0010
0000
,
1000
0000
0001
0000
0010
0000
0100
1000
0000
0100
0010
0000
0011
0000
0000
0000
,
0010
0000
0100
0000
1000
0000
0100
1000
0000
0100
0010
0000
0001
0000
0001
0000
,
1000
0000
0010
0000
0001
0000
0010
1000
0000
0001
0010
0000
1100
0000
0000
0000
,
1000
0000
0100
0000
0001
0000
0100
1000
0000
1000
0001
0000
0100
0000
0100
0000
,
0001
0000
1000
0000
0010
0000
0100
0001
0000
0010
0100
0000
1100
0000
0000
0000
,
1001
0000
0000
0000
0001
0000
1000
0000
0010
0000
1000
0001
0000
0001
0010
0000
,
0100
0000
0100
0000
0010
0000
0001
0000
0100
0000
0010
1000
0000
1000
0100
0000
,
0010
0000
0100
0000
1000
0000
0001
0000
1000
0000
0100
0010
0000
0100
1000
0000
,
0100
0000
0100
0000
1000
0000
0001
0000
0100
0000
0010
0100
0000
0010
1000
0000
,
0001
0000
0001
0000
1000
0000
0100
0000
0010
0000
0001
0010
0000
0100
1000
0000
,
0001
0000
0001
0000
1000
0000
0001
0000
0100
0000
0010
1000
0000
0001
0100
0000
,
0001
0000
1000
0000
0100
0000
1000
0000
0010
0000
0100
0001
0000
0010
0100
0000
,
1000
0000
1000
0000
0001
0000
1000
0000
0010
0000
0100
0001
0000
0010
0100
0000
,
1001
0000
0000
0000
0001
0100
0001
0100
0001
0100
0001
0100
0010
0100
0010
0100
,
0010
0100
0010
0100
0010
1000
0010
1000
0010
1000
0010
1000
0001
1000
0001
1000
,
0001
0000
0000
0000
1000
0010
1000
0010
1000
0010
1000
0010
0100
0010
0100
0010
,
0100
0010
0100
0010
0100
0001
0100
0001
0100
0001
0100
0001
1000
0001
1000
0001
,
1000
0000
0000
0000
0001
0010
0001
0010
0001
0010
0001
0010
0100
0010
0100
0010
,
0100
0010
0100
0010
0100
1000
0100
1000
0100
1000
0100
1000
0001
1000
0001
1000
,
0001
1000
0110
0000
0000
0000
0001
0000
,
0100
0000
1000
0000
0100
0001
0010
0000
,
1000
0000
0010
0010
0100
1000
0001
0000
,
0010
0000
1000
0000
0010
0001
0100
0000
,
1000
0000
0000
0000
0100
0000
0100
0000
0001
0000
1000
0000
1000
0100
0000
0100
,
0010
0000
0010
0001
0000
0001
0100
0000
0010
0000
0000
0000
1000
0010
0000
0010
,
0100
0000
0100
0001
0000
0001
1000
0000
0110
0000
0000
0000
0001
0000
0000
1000
,
0000
0000
0110
0000
0000
0000
0000
0000
0000
0000
1000
0000
0001
0000
0100
0001
,
0000
1000
0010
0000
1000
0000
0001
1000
0010
0000
0000
0000
1000
0000
0001
0000
,
0100
0000
0010
0000
1000
0000
0001
0000
0010
0000
0100
0000
1000
0001
1000
0001
,
1000
0001
1000
0001
1000
0001
1000
0001
1000
0000
0000
0000
0001
0000
1000
0000
,
0010
0000
1000
0000
0100
0000
0010
0000
0100
0000
1000
0000
0001
0100
0001
0100
,
0001
0100
0001
0100
0001
0100
0001
0100
0001
0000
0000
0000
0100
0000
0010
0000
,
1000
0000
0001
0000
0010
0000
0100
0000
0010
0000
0100
0000
1000
0100
1000
0100
,
1000
0100
1000
0100
1000
0100
1000
0100
1000
0000
0000
0000
0100
0000
1000
0000
,
0010
0000
0100
0000
0001
0000
1000
0000
0001
0000
0010
0000
0100
0010
0100
0010
,
0100
0010
0100
0010
0100
0010
0100
0010
0100
0000
0000
0000
1000
0000
0000
1000
,
0000
1000
0000
0001
1000
0000
1000
0010
,
0100
0000
0001
1000
0000
0100
0010
0000
0001
0000
0010
0000
0100
0000
0000
0100
,
0000
0100
0000
0010
0100
0000
0010
0001
,
0100
0000
0010
1000
0000
1000
0100
0000
0010
0000
0100
0000
1100
0000
0000
0011
,
0000
1100
0000
0010
1001
0000
1000
0001
,
0100
0000
0001
0100
0000
0001
0010
0000
0100
0000
1000
0000
1100
0000
0000
0011
,
0000
0000
1001
0000
0000
0000
0100
0000
1001
0000
0000
0000
1000
0000
0001
0100
,
0000
0100
0010
0000
1000
0000
0000
0000
0000
0000
0000
0000
0001
0000
0000
0010
,
0000
0000
1000
0000
0010
0000
0000
0000
0100
0000
1000
0000
0010
0000
1000
0001
,
0000
1000
0001
0000
1000
0001
0000
1000
0001
0000
1000
0000
0001
0000
0000
0100
,
0000
0000
1000
0000
0100
0000
0000
0000
0001
0000
0000
0000
1000
0000
0001
1000
,
0000
0001
1000
0000
0001
1000
0000
0001
1000
0000
0001
0000
0110
0000
0000
0000
;

//--------------- dance-single - Pandemonium X ----------------
#NOTES:
     dance-single:
     Pandemonium X:
     Challenge:
     16:
     0,0,0,0,0:
0000
0000
0000
0000
,
0000
0000
0000
0000
,
1000
0000
0100
0000
0010
0000
0001
0010
0000
0100
1000
0000
1001
0000
0000
0000
,
0001
0000
0100
0000
0010
0000
1000
0010
0000
0100
0001
0000
1001
0000
0110
0000
,
0001
0000
0010
0000
0100
0000
1000
0100
0000
0010
0001
0000
1001
0000
0000
0000
,
1000
0000
0010
0000
0100
0000
0001
0100
0000
0010
1000
0000
1001
0000
0110
0000
,
1001
0000
0001
0000
0010
0000
0100
1000
0000
0100
0010
0000
0011
0000
0000
0000
,
0001
0000
0010
0000
0100
0000
1000
0010
0000
0010
0100
0000
1001
0000
0110
0000
,
1001
0000
0001
0000
0100
0000
0010
1000
0000
0001
0100
0000
1001
0000
0110
0000
,
1001
0000
0000
0000
0101
0000
0101
0000
0101
0000
0001
0100
0000
0100
0010
0000
,
1010
0000
0000
0000
1100
0000
1100
0000
1100
0000
1000
0100
0000
0100
0010
0000
,
0100
1000
0001
0000
1001
0000
1001
0000
1001
0000
0001
0010
0000
0010
0100
0000
,
1100
0000
0000
0000
0011
0000
0011
0000
0011
0000
0001
0010
0000
0100
1000
0000
,
0001
0100
0010
0000
1010
0000
0101
0000
1010
0000
1000
0010
0000
0100
0001
0000
,
1001
0000
0000
0000
0011
0000
1100
0000
0011
0000
0001
0010
0000
0100
1000
0000
,
0001
1000
0001
0000
0101
0000
1010
0000
0101
0000
0001
0100
0000
0010
1000
0000
,
1001
0000
0000
0000
1100
0000
0011
0000
1100
0000
1000
0100
0000
0010
0001
0000
,
1001
0000
0000
0000
0010
0010
0010
0010
0010
0010
0010
0010
0010
0010
0010
0010
,
0010
0010
0010
0010
0010
0010
0010
0010
0010
0010
0010
0010
0010
0010
0010
0010
,
0010
0000
0000
0000
0100
0100
0100
0100
0100
0100
0100
0100
0100
0100
0100
0100
,
0100
0100
0100
0100
0100
0100
0100
0100
0100
0100
0100
0100
0100
0100
0100
0100
,
0100
0000
0000
0000
0010
0010
0010
0010
0010
0010
0010
0010
0010
0010
0010
0010
,
0010
0010
0010
0010
0010
0010
0010
0010
0010
0010
0010
0010
0010
0010
0010
0010
,
0010
0010
2002
0000
0000
3003
0201
0000
,
1000
0000
0301
0000
0001
0010
1000
0000
,
1010
0000
1000
0010
0001
1000
1020
0000
,
0001
0000
1030
0000
0001
0010
1020
0000
,
0031
0000
0000
0000
0000
0000
0000
0000
0010
0000
0000
0000
0100
0000
0000
0000
0001
0000
0000
0000
1000
0000
0000
0000
1000
0000
0020
0030
0000
0000
0020
0030
,
0001
0000
0000
0000
0001
0000
0020
0030
0000
0000
0020
0030
1000
0000
0000
0000
1001
0000
0000
0000
0000
0000
0000
0000
0001
0000
0200
0300
0000
0000
0200
0300
,
1000
0000
0000
0000
1000
0000
0200
0300
0000
0000
0200
0300
0001
0000
0000
0000
2002
0000
0000
0000
0000
0000
3003
0000
1010
0000
0000
0000
1000
0000
0100
0000
,
0000
0100
0020
0000
0030
0000
0000
0000
0000
0000
0010
0000
0001
0000
0010
0100
,
0000
0100
0010
0000
0001
0000
1000
0001
0010
0000
0000
0000
0100
0100
0100
0100
,
0100
0100
0100
0100
0100
0100
0100
0100
0100
0100
0100
0100
0100
0100
0100
0100
,
0100
0100
0100
0100
0100
0100
0100
0100
0100
0000
0000
0000
0010
0010
0010
0010
,
0010
0010
0010
0010
0010
0010
0010
0010
0010
0010
0010
0010
0010
0010
0010
0010
,
0010
0010
0010
0010
0010
0010
0010
0010
0010
0000
0000
0000
0100
0100
0100
0100
,
0100
0100
0100
0100
0100
0100
0100
0100
0100
0100
0100
0100
0100
0100
0100
0100
,
0100
0100
0100
0100
0100
0100
0100
0100
0100
0000
0000
0000
0010
0010
0010
0010
,
0010
0010
0010
0010
0010
0010
0010
0010
0010
0010
0010
0010
0010
0010
0010
0010
,
0010
0010
0010
0010
0010
0010
0010
0010
0010
0000
0000
0000
1010
0000
0000
0101
,
0000
0000
1010
0000
0000
0000
1010
0000
0101
0000
0000
0000
0001
1000
0010
1000
,
0001
0010
0100
0010
0001
1000
0010
0100
0010
1000
0100
0010
0011
0000
0000
1100
,
0000
0000
0011
0000
0000
0000
0011
0000
1100
0000
0000
0000
0100
1000
0010
0100
,
0010
0000
0001
0000
0010
0000
0100
0000
1000
0000
0100
0000
1000
0000
0010
0000
0100
0000
0010
0000
1000
0000
0001
0000
1000
0000
0000
0000
0001
0000
0020
0030
,
0000
0000
0020
0030
1000
0000
0000
0000
0001
0000
1000
0000
0010
0000
0000
0000
0022
0000
0000
0000
0033
0000
0000
0000
1000
0000
0010
0000
0100
0000
0001
0000
,
0010
0000
0100
0000
0010
0000
0001
0000
0100
0000
0010
0000
1000
0000
0001
0000
0010
0000
0100
0000
1000
0000
0001
0000
1000
0000
0000
0000
0001
0000
0020
0030
,
0000
0000
0020
0030
1000
0000
0000
0000
0010
0000
0100
0000
0001
0000
0000
0000
2200
0000
0000
0000
3300
0000
0000
0000
0100
0000
1000
0000
0010
0000
0100
0000
,
0001
0010
0100
1000
0020
0000
0000
0000
0000
0000
0000
0000
0130
0000
0001
0100
,
0001
0000
0100
0010
0100
0000
0000
0000
0010
0000
1000
0000
0001
0000
1000
0001
,
0000
0001
1000
0000
1000
0001
0000
0001
1000
0000
0001
0000
1000
0000
0010
1000
,
0100
0000
0100
0010
0001
0000
0000
0000
0010
0000
0100
0000
1000
0000
0001
1000
,
0000
1000
0001
0000
0001
1000
0000
1000
0001
0000
1000
0000
0220
0000
0000
0000
,
0000
0330
0000
0000
;
