#TITLE:Dawn (Perpetual Mix);
#SUBTITLE:;
#ARTIST:KaW;
#TITLETRANSLIT:;
#SUBTITLETRANSLIT:;
#ARTISTTRANSLIT:;
#GENRE:;
#CREDIT:;
#MUSIC:Dawn (Perpetual Mix).ogg;
#BANNER:Dawn (Perpetual Mix).png;
#BACKGROUND:Dawn (Perpetual Mix)-bg.png;
#CDTITLE:;
#SAMPLESTART:35.139;
#SAMPLELENGTH:11.234;
#SELECTABLE:YES;
#OFFSET:-0.056;
#BPMS:0.000=171.021;
#STOPS:32.000=1.053;
#BGCHANGES:;
#FGCHANGES:;

//--------------- dance-single - ----------------
#NOTES:
     dance-single:
     :
     Beginner:
     5:
     0,0,0,0,0:
0000
0000
0000
0000
,
0000
0000
0000
0000
,
0000
0000
0000
0000
,
0000
0000
0000
0000
,
0001
0000
0000
0000
,
0000
0000
0000
0000
,
0000
0000
0000
0000
,
1000
0000
0001
0000
,
0110
1000
0000
0000
,
0000
0010
0000
0000
,
0000
0100
0000
0000
,
0000
0001
0000
0010
,
0000
0100
0000
0000
,
0000
0010
0000
0000
,
0000
0001
0000
0000
,
0000
1001
1001
0000
,
0000
1000
0000
0001
,
0000
0100
0000
0001
,
0000
0010
0000
0001
,
0000
1000
1000
1000
,
0000
0001
0000
0100
,
0000
0001
0000
1000
,
0000
0100
0000
0010
,
0000
1001
0000
0000
,
0000
0001
0000
0000
,
1000
0010
0000
0000
,
0100
0001
0000
0000
,
0010
0100
0100
0010
,
0010
0001
0000
0000
,
1000
0010
0000
0000
,
0100
0010
0000
0000
,
0000
0001
0010
0001
,
1000
0010
0000
0000
,
0100
0001
0000
0000
,
0010
0100
0000
0000
,
0010
0001
1000
0010
,
1000
0100
0000
0000
,
0010
0100
0000
0000
,
1000
0010
0000
0000
,
0000
0100
0001
0010
,
0100
1001
0000
0000
,
0000
0000
0000
0000
,
0000
0000
0000
0000
,
0000
0000
0000
0000
,
0000
0001
0000
1000
,
0000
0010
0000
1000
,
0000
0100
0000
0010
,
0000
0110
0000
0000
,
0000
1000
0000
0001
,
0000
0100
0000
0001
,
0000
0010
0000
0001
,
0000
1000
0100
1000
,
0000
0001
0000
0100
,
0000
0010
0000
0100
,
0000
0001
0000
0010
,
0000
0100
1000
0100
,
0000
1000
0000
0010
,
0000
1000
0000
0100
,
0000
0010
0000
0001
,
0000
1001
0000
0000
,
0000
0110
0110
0000
,
0000
0000
1000
0000
0000
1000
0000
0000
,
0000
0000
0001
0000
0000
0001
0000
0000
,
0000
0000
0010
0000
0000
0010
0000
0000
,
0000
0100
0010
0001
,
1000
0000
0010
0000
0000
0010
0000
0000
,
0000
0000
0100
0000
0000
0100
0000
0000
,
0000
0000
0001
0000
0000
0001
0000
0000
,
0000
1000
0100
1000
,
0001
0000
0100
0000
0000
0100
0000
0000
,
0000
0000
0010
0000
0000
0010
0000
0000
,
0000
0000
1000
0000
0000
1000
0000
0000
,
0000
0001
0100
0010
,
0100
0000
0001
0000
0000
0001
0000
0000
,
0000
0000
0010
0000
0000
0010
0000
0000
,
0000
0000
0100
0000
0000
0100
0000
0000
,
0000
1000
0100
0010
,
0001
1001
0000
0000
;

//--------------- dance-single - ----------------
#NOTES:
     dance-single:
     :
     Easy:
     7:
     0,0,0,0,0:
0000
0000
0000
0000
,
0000
0000
0000
0000
,
0000
0000
0000
0000
,
0000
0000
0000
0000
,
0002
0000
0000
0000
,
0000
0000
0000
0000
,
0000
0000
0000
0003
,
2000
3000
0002
0003
,
0110
0001
0100
0001
,
0100
0010
0100
0010
,
0100
0010
1000
0010
,
1000
0200
0300
0020
,
0030
0001
1000
0001
,
1000
0010
1000
0010
,
1000
0010
0100
0010
,
0100
0110
0110
0000
,
0000
0001
0100
0001
,
1000
0100
0010
0100
,
1000
0010
0100
0001
,
0010
1000
0010
0100
,
0010
0001
0100
0001
,
1000
0100
0010
0100
,
1000
0001
0100
0010
,
1000
0100
0001
0100
,
1000
0000
0002
0000
0000
0203
0000
0000
,
0310
0000
2000
0000
0000
3200
0000
0000
,
0310
0000
0200
0000
0000
2300
0000
0000
,
3001
0000
0100
0000
0010
0000
1000
0001
,
1000
0000
0002
0000
0000
0023
0000
0000
,
0130
0000
0020
0000
0000
0032
0000
0000
,
0103
0000
0020
0000
0000
2030
0000
0000
,
3010
0000
0100
0001
0100
0000
0010
1000
,
0100
0000
2000
0000
0000
3002
0000
0000
,
0013
0000
0200
0000
0000
0320
0000
0000
,
0031
0000
0200
0000
0000
0320
0000
0000
,
1030
0000
0001
0000
0010
0000
0100
1000
,
0100
0000
2000
0000
0000
3002
0000
0000
,
0103
0000
0002
0000
0000
0023
0000
0000
,
0130
0000
0020
0000
0000
0032
0000
0000
,
1003
0000
0001
0100
0010
0000
0100
0010
,
1000
2002
0000
0000
,
3003
0000
0000
0000
,
0000
0000
0000
0000
,
0000
0000
0000
0000
,
0000
1000
1000
0001
,
0001
1000
0001
0100
,
0010
0100
0100
0010
,
0010
2002
0003
0002
,
3003
1000
0010
1000
,
0100
0010
0100
0010
,
0001
0100
0001
0100
,
0010
0100
1000
0100
,
0001
1000
0100
1000
,
0100
0010
0001
0010
,
0001
0100
0010
0100
,
0010
0100
1000
0100
,
0001
1000
0001
0010
,
0100
0010
0001
1000
,
0100
0010
0001
0010
,
0100
0001
0100
1000
,
0010
1001
2002
0000
,
3003
0000
0002
0000
0000
0023
0000
0000
,
0031
0000
2000
0000
0000
3200
0000
0000
,
0310
0000
0200
0000
0000
2300
0000
0000
,
3010
0000
0100
0000
0001
0000
1000
0010
,
1000
0000
0020
0000
0000
0230
0000
0000
,
0301
0000
0020
0000
0000
0230
0000
0000
,
0310
0000
0002
0000
0000
2003
0000
0000
,
3100
0000
1000
0010
1000
0000
0010
0100
,
0001
0000
2000
0000
0000
3002
0000
0000
,
0013
0000
0200
0000
0000
0320
0000
0000
,
0130
0000
2000
0000
0000
3002
0000
0000
,
0103
0000
0010
0000
0100
0000
0001
0100
,
0001
0000
0200
0000
0000
0302
0000
0000
,
0013
0000
0200
0000
0000
2300
0000
0000
,
3001
0000
2000
0000
0000
3020
0000
0000
,
0130
0000
0010
0100
0001
0000
0100
0010
,
1000
1001
0000
0000
;

//--------------- dance-single - ----------------
#NOTES:
     dance-single:
     :
     Medium:
     11:
     0,0,0,0,0:
0000
0000
0000
0000
,
0000
0000
0000
0000
,
0000
0000
0000
0000
,
0000
0000
0000
0000
,
0000
0001
0000
0001
0000
1000
0000
1000
,
0000
0010
0000
0010
0000
0100
0000
0100
,
0000
0010
0000
0100
0000
0001
0000
1000
,
0002
0000
0000
0000
2000
0000
0000
3003
,
0220
0330
0001
0000
1000
0000
0001
0010
,
0100
0000
0010
0000
0001
0000
1000
0100
,
0010
0000
0100
0000
1000
0000
0001
0100
,
0010
0200
0301
0002
,
0013
0100
0010
0000
0001
0000
0010
0001
,
1000
0000
0010
0000
0100
0000
0001
1000
,
0100
0000
0010
0000
0100
0000
0010
0001
,
0100
0000
0000
0000
1010
0000
0000
0000
1010
0000
0000
0000
0000
0000
0000
0001
,
0010
0000
0100
0000
0010
0000
0001
0000
0000
1000
0000
0000
0010
0000
0000
1000
,
0000
0000
0100
0000
0000
0000
0010
0000
0000
0100
0000
0000
0010
0000
0000
0001
,
0000
0000
0100
0000
0000
0000
0010
0000
0000
0100
0000
0000
0001
0000
0000
0010
,
0000
0000
0100
0000
0000
0000
0001
0000
0000
0100
0000
0000
1000
0000
0000
0010
,
0000
0000
0100
0000
0010
0000
0100
0000
0000
1000
0000
0000
0100
0000
0000
0001
,
0000
0000
0100
0000
0000
0000
0010
0000
0000
0001
0000
0000
0010
0000
0000
0100
,
0000
0000
0010
0000
0000
0000
0100
0000
0000
0001
0000
0000
0010
0000
0000
0100
,
0000
1000
1001
0000
0000
0000
0000
0000
,
0000
0000
2000
0000
0000
3020
0000
0130
,
0001
0010
0002
0000
0000
2003
0000
3010
,
1000
0100
2000
0000
0000
3002
0000
0103
,
0001
0010
0110
0000
1001
0000
0001
1000
,
0110
0000
0002
0000
0000
0203
0000
0310
,
1000
0100
0020
0000
0000
0230
0000
0310
,
0001
0010
0200
0000
0000
0320
0000
0130
,
0010
0001
1000
0001
0101
0000
1000
0100
,
0110
0000
0021
0000
0000
0230
0000
0310
,
0001
0100
0020
0000
0000
2030
0000
3010
,
0100
0001
2000
0000
0000
3200
0000
0310
,
0100
1000
1001
0000
0110
0000
0001
0100
,
0110
0000
0020
0000
0000
2030
0000
3100
,
0010
0100
2000
0000
0000
3200
0000
0310
,
0001
0010
0200
0000
0000
0320
0000
0031
,
0010
0100
0010
0001
0101
0000
0010
1000
,
1100
1001
0000
0000
,
0000
0000
0000
0000
,
0000
0000
0000
0000
,
0000
0000
0000
0000
,
0000
0001
0100
0001
,
0100
0010
0100
0010
,
0100
0010
0100
0000
0010
0000
1000
0000
,
0010
2020
0000
0000
,
3030
1000
0001
0010
,
1000
0010
0001
0100
,
1000
0100
0010
0100
,
0001
0000
0010
0000
1000
0000
0010
0100
,
0010
0001
0010
0000
0001
0000
0100
0000
,
1000
0100
0010
0100
,
0010
0001
0010
0100
,
0010
0000
0100
0010
0100
0000
1000
0100
,
0001
0010
1000
0010
0001
0000
0010
0000
,
1000
0010
0001
0010
,
0100
0010
0001
0010
,
0100
1001
0000
0000
,
0100
0000
1000
0000
2001
0000
0000
0000
0001
0000
0000
0000
0000
0000
0000
3010
,
0100
0001
0020
0000
0000
0130
0000
0010
,
0001
0100
0110
0000
0000
1010
0000
0010
,
0100
0001
0011
0000
0000
0110
0000
0010
,
0100
1000
1100
0000
0011
0000
0001
0010
,
0110
0000
0011
0000
0000
0101
0000
0100
,
0010
1000
1001
0000
0000
1100
0000
0100
,
1000
0010
0110
0000
0000
1010
0000
0100
,
0001
0010
0100
1000
0010
0000
0001
0010
,
1000
0000
0011
0000
0000
0101
0000
0010
,
0100
0001
1001
0000
0000
1100
0000
1000
,
0010
0100
0110
0000
0000
0101
0000
0001
,
0100
0010
1010
0000
0101
0000
0001
0100
,
1000
0000
1100
0000
0000
0101
0000
0001
,
0010
1000
1010
0000
0000
0011
0000
0001
,
0010
0100
1100
0000
0000
0011
0000
0001
,
0100
0010
1000
0100
0001
0000
0100
1000
,
0010
0101
0000
0000
;

//--------------- dance-single - ----------------
#NOTES:
     dance-single:
     :
     Hard:
     13:
     0,0,0,0,0:
0000
0000
0000
0000
,
0000
0000
0000
0000
,
0000
0000
0000
0000
,
0000
0000
0000
0000
,
1000
1000
0001
0001
,
0100
0100
0010
0010
,
0100
0010
1000
0001
,
2000
0000
0002
3003
,
0110
0000
0000
0000
1000
0000
0010
0000
0100
0010
0000
0000
1000
0000
0100
0000
,
0010
0100
0000
0000
0010
0000
0001
0000
0100
0010
0000
0000
0100
0000
0001
0000
,
1000
0100
0000
0000
0010
0000
0100
0000
1000
0010
0000
0000
0100
0000
0001
0000
,
0010
0100
0000
0000
0020
0000
0000
0000
0130
0000
0000
0000
2000
0000
0000
0000
,
3010
0000
1000
0000
0001
0000
0010
0000
0100
1000
0000
0000
0100
0000
1000
0000
,
0001
1000
0000
0000
0010
0000
1000
0000
0100
0010
0000
0000
0100
0000
0010
0000
,
0001
0100
0000
0000
0010
0000
0100
0000
0001
1000
0000
0000
0001
0000
1000
0000
,
0100
1000
0000
0000
1001
0000
0000
0000
1001
0000
0000
0000
0000
0000
0000
0001
,
1000
0000
1000
0000
0100
0000
0010
0000
0000
0001
0000
0100
0010
0000
0010
1000
,
0000
1000
0001
0000
0000
0000
1000
0000
0000
0100
0000
0010
0001
0000
0001
0010
,
0000
0010
0100
0000
0000
0000
0010
0000
0000
0001
0000
0100
0001
0000
0001
1000
,
0000
1000
0100
0000
0000
0000
0010
0000
0000
0100
0000
1000
0100
0000
0010
0100
,
0000
1000
0010
0000
0100
0000
0001
0000
0000
0010
0000
0100
0010
0000
0010
0100
,
0000
0100
1000
0000
0000
0000
0001
0000
0000
1000
0000
0100
0010
0000
0010
0001
,
0000
0001
1000
0000
0000
0000
0001
0000
0000
0100
0000
0010
1000
0000
1000
0001
,
0000
0001
0010
0000
2002
0000
0000
0000
0000
0000
0000
0000
3003
0000
0000
0000
,
0000
0000
0201
0000
0000
0320
0000
1030
,
0100
0010
0002
0000
0000
0203
0000
0310
,
0100
0001
2000
0000
0000
3002
0000
1003
,
0100
0010
0220
0330
2200
3300
1000
0001
,
1001
0000
0000
0000
2000
0000
0000
0000
0000
3000
0002
0000
0000
0000
0013
0000
,
0100
1000
0002
0000
0000
0023
0000
0130
,
0010
0001
2000
0000
0000
3020
0000
0130
,
0010
1000
0100
0010
0011
0000
0001
0010
,
0110
0000
0021
0000
0000
0230
0000
1300
,
0010
0100
0002
0000
0000
2003
0000
3100
,
0010
0001
0200
0000
0000
0320
0000
0130
,
0010
1000
2020
3030
2200
3300
1000
0001
,
1001
0000
0021
0000
0000
0032
0000
0103
,
0010
1000
1020
0000
0000
0230
0000
0310
,
1000
0100
0020
0000
0000
0230
0000
0310
,
0001
0100
0010
1000
0001
0000
0100
0010
,
1000
2001
0001
0001
,
3001
0002
1000
1000
,
1003
2000
0001
0001
,
3001
2000
0000
0002
,
0000
3003
1000
0000
0001
0000
0010
0100
,
1000
0000
0100
0000
0010
0000
0001
0100
,
0010
0000
0100
0000
0001
0000
0010
0001
,
1000
0000
0102
0000
0000
1000
0000
1000
,
0000
1003
0100
0010
0100
1000
0001
0100
,
0001
1000
0000
0100
0010
0100
1000
0001
,
1000
0100
0000
0010
0001
0100
0001
1000
,
0100
0000
0010
0000
0000
0000
0001
0000
0100
0000
0010
1000
0000
1000
0000
1000
,
0001
0010
0100
0010
0001
0100
0001
1000
,
0010
0100
0000
0010
1000
0010
0100
0001
,
0010
0001
0000
1000
0100
0010
0001
0010
,
0001
0000
0100
0000
0000
0000
0010
0000
0100
0000
0001
0010
0000
0010
0000
0010
,
0001
0000
1000
0000
0001
0000
0100
0000
0001
1000
0000
0100
0000
0010
0000
0001
,
1000
0000
1000
0000
0001
0000
0100
0000
0001
1000
0000
0100
0000
0010
0000
0001
,
1000
0000
1000
0000
0001
0000
0100
0000
0001
1000
0000
0100
0000
0010
0000
0001
,
1000
0000
1000
0000
2002
0000
0000
0000
0000
0000
0000
0000
0000
3003
0000
0000
,
1000
0001
1000
0001
0200
0000
0000
0000
0010
0000
0000
0000
0000
0000
0000
0301
,
1000
0100
1002
0000
0000
0023
0000
1030
,
0010
0001
0201
0000
0000
0320
0000
0031
,
0010
1000
2010
0000
0000
3200
0000
0301
,
0100
1000
1010
0000
0101
0000
0001
0010
,
1001
0000
2100
0000
0000
3020
0000
0130
,
0010
0001
0012
0000
0000
0023
0000
1030
,
0010
0100
0102
0000
0000
2003
0000
3100
,
0001
0100
1000
0001
1001
0000
0001
1000
,
0110
0000
2002
0000
3003
2200
0300
3100
,
0010
0001
0022
0000
0033
2200
0300
3100
,
0010
0001
2002
0000
3003
0202
0003
0301
,
0010
0100
2010
0000
3020
0000
0130
0001
,
1001
0000
0022
0000
0033
2200
3000
1300
,
0100
0010
0022
0000
0033
0202
0003
0301
,
0100
0010
2020
0000
3030
0202
0003
0301
,
0100
0010
1000
0100
0101
0000
0001
0100
,
1100
2002
0000
0000
,
3003
0000
0000
0000
;

//--------------- dance-single - ----------------
#NOTES:
     dance-single:
     :
     Challenge:
     16:
     0,0,0,0,0:
0000
0000
0000
0000
,
0000
0000
0000
0000
,
0000
0000
0000
0000
,
0000
0000
0000
0000
,
1000
0100
1000
0100
0010
0001
0010
0001
,
0010
0100
0010
0100
0010
0001
0100
0010
,
1000
0010
1000
0001
0100
0001
0100
0001
,
1000
0001
0010
0001
1000
0100
0010
0001
,
2002
0000
3003
0000
0001
0000
0100
0000
0010
0100
0001
0000
1000
0000
0100
0000
,
0010
0100
0000
0000
0010
0000
0001
0000
1000
0100
0010
0000
0100
0000
1000
0000
,
0001
0100
0000
0000
0001
0000
1000
0000
0010
0100
0001
0000
0010
0000
0100
0000
,
0010
0001
0000
0000
0021
0000
0000
0000
0130
0000
0000
0000
1020
0000
0000
0000
,
0100
0000
0130
0000
0001
0000
1000
0000
0010
1000
0100
0000
0010
0000
0001
0000
,
1000
0001
0000
0000
1000
0000
0010
0000
0100
0001
0010
0000
0100
0000
1000
0000
,
0001
1000
0000
0000
0001
0000
0100
0000
0001
1000
0010
0000
0100
0000
0001
0000
,
0010
0100
0000
0000
1001
0000
0000
0000
1001
0000
0000
0000
0000
0000
0000
0001
,
0100
0000
1000
0000
0100
0000
0001
0000
0010
0100
0000
0010
0001
0000
0100
0010
,
0000
1000
0100
0000
0010
0000
0100
0000
1000
0100
0000
0010
0001
0000
0100
0010
,
0000
1000
0001
0000
1000
0000
0001
0000
0100
0001
0000
0010
0100
0000
0010
0001
,
0000
0100
0001
0000
0000
0000
0001
0000
0100
1000
0000
0100
0001
0000
0010
1000
,
0000
0010
0001
0000
0001
0000
0100
0000
0001
1000
0000
0100
0010
0000
0100
1000
,
0000
0010
0100
0000
0001
0000
1000
0000
0100
1000
0000
0010
0100
0000
0001
0010
,
0000
0100
0010
0000
0001
0000
0100
0000
0010
1000
0000
0100
0010
0000
0001
0100
,
0000
0010
1000
0000
0201
0000
0010
0000
0000
0001
0000
0000
0010
0000
0001
1300
,
0000
0001
0010
0000
0021
0000
0000
0000
0000
0030
02M0
0000
0000
0000
0310
0000
,
0001
0000
0100
0000
0120
0000
0000
0000
0000
0030
02M0
0000
0000
0000
0310
0000
,
0100
0000
0001
0000
1002
0000
0000
0000
0000
0003
002M
0000
0000
0000
0130
0000
,
1000
0000
0010
0000
2020
0000
0000
3030
M2M2
0000
0000
0303
1MM1
0000
M11M
0000
,
1MM1
0000
0000
0000
1200
0000
0000
0000
0000
0300
0M20
0000
0000
0000
0130
0000
,
1000
0000
0010
0000
1020
0000
0000
0000
0000
0030
02M0
0000
0000
0000
0301
0000
,
1000
0000
0001
0000
0021
0000
0000
0000
0000
0030
00M2
0000
0000
0000
1003
0000
,
0001
0000
0100
0000
0002
0000
2003
0000
020M
0000
3000
M000
0320
0000
0032
0000
,
02M0
0000
0303
0000
2010
0000
0000
0000
0000
3000
M200
0000
0000
0000
0310
0000
,
0100
0000
1000
0000
1020
0000
0000
0000
0000
0030
02M0
0000
0000
0000
0310
0000
,
1000
0000
0001
0000
0021
0000
0000
0000
0000
0030
02M0
0000
0000
0000
0310
0000
,
0001
0100
0220
0330
2MM2
3003
M11M
1MM1
,
M11M
0000
0000
0000
0021
0000
0000
0000
0000
0030
02M0
0000
0000
0000
0310
0000
,
0100
0000
1000
0000
1020
0000
0000
0000
0000
0030
02M0
0000
0000
0000
0310
0000
,
1000
0000
0001
0000
2001
0000
0000
0000
0000
3000
M200
0000
0000
0000
0310
0000
,
0100
0000
1000
0000
0010
0000
0001
0000
0020
0000
0000
0030
01M0
0000
0001
0000
,
2000
0002
0000
0000
,
3003
0000
0000
0000
1000
0000
0001
0000
0010
0001
0000
0000
0001
0000
1000
0000
,
0010
1000
0000
0000
1000
0000
0001
0000
0010
0001
0000
0000
1000
0000
0001
0000
,
1000
0010
0000
0000
0200
0000
0000
0000
0000
0000
0000
0000
0020
0000
0000
0000
,
0000
0330
0000
0000
1000
0000
0001
0000
0010
0001
0010
0000
0001
0000
0100
0000
,
0010
1000
0010
0000
1000
0000
0001
0000
0100
0001
0100
0000
0010
0000
1000
0000
,
0100
1000
0100
0000
1000
0000
0001
0000
0010
0100
0010
0000
0001
0000
0100
0000
,
0010
0100
0010
0000
2001
0000
0000
0000
0000
0000
0010
0000
00M0
0000
0010
0000
,
00M0
0000
3010
0000
1000
0000
0100
0000
0010
0100
1000
0001
0000
0100
0000
0001
,
0010
0000
0100
0000
0000
0000
0010
0000
0001
0100
0001
0010
0000
0100
0000
0010
,
0100
0000
1000
0000
0000
0000
0100
0000
1000
0010
0100
0010
0000
1000
0000
0001
,
0010
0000
0001
0000
0000
0000
002M
0000
2030
0000
3020
0032
0000
0203
0000
2300
,
3200
0000
0302
0000
1003
0000
0010
0000
0100
0001
0010
0001
0000
0010
0000
0001
,
0100
0000
0010
0000
0100
0000
0001
0000
1000
0100
0010
0100
0000
1000
0000
0010
,
0100
0000
0001
0000
1000
0000
0001
0000
0100
0001
1000
0100
0000
0010
0000
0100
,
1000
0000
0010
0000
0000
0000
02M0
0000
2300
0000
3200
0302
0000
0023
0000
2030
,
3020
0000
0032
0000
1003
0000
0001
0000
0010
0100
1000
0001
0000
0001
0000
0001
,
0100
0000
0100
0000
0010
0000
1000
0000
0100
0010
0100
1000
0000
1000
0000
1000
,
0001
0000
0001
0000
0010
0000
0100
0000
0010
0001
0100
0010
0000
0010
0000
0100
,
0010
0000
0010
0000
1001
0000
0001
0000
1000
0100
0000
0010
0001
0000
1000
0010
,
0100
0001
0100
0001
0020
0000
0000
0000
0100
0000
0000
0000
0000
0000
0000
0130
,
0010
0000
0010
0000
1002
0000
0000
0000
0000
0003
020M
0000
0000
0000
1300
0000
,
0100
0000
0001
0000
0021
0000
0000
0000
0000
0030
20M0
0000
0000
0000
3010
0000
,
0001
0000
1000
0000
1020
0000
0000
0000
0000
0030
00M2
0000
0000
0000
0013
0000
,
1000
0100
2002
3003
M22M
0330
1MM1
M11M
,
1MM1
0000
0000
0000
1200
0000
0000
0000
0000
0300
0M02
0000
0000
0000
0103
0000
,
1000
0000
0010
0000
1020
0000
0000
0000
0000
0030
00M2
0000
0000
0000
0013
0000
,
0100
0000
0001
0000
2001
0000
0000
0000
0000
3000
M200
0000
0000
0000
0310
0000
,
0100
1000
2100
3200
M020
0330
0020
0032
,
02M0
0000
0303
0000
1001
0000
0001
0000
1000
0100
M001
0000
0100
0000
1000
0000
,
0001
0100
100M
0000
0100
0000
0001
0000
1000
0100
M001
0000
0100
0000
1000
0000
,
0001
0100
100M
0000
1001
0000
1000
0000
0001
0010
100M
0000
0010
0000
0001
0000
,
1000
0010
M001
0000
0010
0000
1000
0000
0001
0010
100M
0000
0011
0000
1100
0000
,
2002
0000
0000
3003
0011
0000
0100
0010
1000
0100
0002
0000
0000
0003
010M
0000
,
1000
0000
0001
0000
1001
0000
0001
0100
0001
0010
2000
0000
0000
3000
M010
0000
,
0001
0000
1000
0000
0011
0000
0010
0100
1000
0010
0002
0000
0000
0003
001M
0000
,
1000
0000
0001
0000
2000
0000
3200
0000
0002
0000
0300
0000
0023
0000
2000
0030
,
0002
0000
3000
M000
2000
0000
0000
0000
0000
0000
0000
0000
0000
0000
0000
0000
,
3003
0000
0000
0000
;
