#TITLE:Daisuke;
#SUBTITLE:;
#ARTIST:Y&Co.;
#TITLETRANSLIT:;
#SUBTITLETRANSLIT:;
#ARTISTTRANSLIT:;
#GENRE:;
#CREDIT:;
#MUSIC:Daisuke.ogg;
#BANNER:Daisuke-bn.png;
#BACKGROUND:Daisuke-bg.png;
#CDTITLE:;
#SAMPLESTART:50.739;
#SAMPLELENGTH:15.955;
#SELECTABLE:YES;
#OFFSET:0.476;
#BPMS:0.000=157.000;
#STOPS:175.750=1.529
,267.750=1.547
;
#BGCHANGES:;
#FGCHANGES:;

//--------------- dance-single - Pandemonium X ----------------
#NOTES:
     dance-single:
     Pandemonium X:
     Beginner:
     5:
     0,0,0,0,0:
0000
0000
0000
0000
,
0000
0000
0000
0000
,
0000
0000
0000
0000
,
0000
0000
0000
0000
,
0000
0000
0000
0000
,
0000
1001
0000
1000
,
0000
0001
0000
1000
,
0020
0000
0000
0000
,
0130
0000
0000
0000
,
0001
0001
0001
0000
,
1000
1000
1000
0000
,
0001
0001
0001
0000
,
0100
0000
0010
0000
,
0100
0100
0100
0000
,
0010
0010
0010
0000
,
0100
0100
0100
0000
,
1001
0000
0110
0000
,
0001
1000
0001
0000
,
0010
0001
0010
0000
,
0100
0000
1000
0000
,
1010
1010
1010
0000
,
0010
0010
0100
0000
,
0001
0001
0010
0000
,
0100
0100
1000
0000
,
1001
1001
1001
0000
,
0001
0000
1000
0000
,
0100
1000
0100
0000
,
1000
0000
0010
0000
,
0100
0000
0101
0101
,
0001
0001
0001
0000
,
1000
1000
1000
0000
,
0010
0000
0100
0000
,
0001
1000
0010
0100
,
0000
0000
0000
0000
,
0001
0001
1000
0000
,
0000
0000
0010
0100
,
0010
0000
0010
0000
0000
0000
0000
0100
,
0000
0000
0000
0010
0000
1000
0000
0000
,
0001
0001
1000
0100
,
1000
0000
0000
0000
0000
0000
0000
0001
,
0000
0000
0000
0000
0000
0000
0000
1000
,
0000
0000
0000
0000
0000
0000
0000
0010
,
0000
0000
0000
0100
0000
0000
0000
0001
,
0000
0000
0000
1000
0000
0000
0000
0000
,
0001
1000
0001
0000
,
0010
0001
0010
0000
,
0100
1000
0100
0000
,
1000
0000
1000
0000
,
0001
0100
0001
0000
,
1000
0010
1000
0000
,
0001
1000
0001
0000
,
0100
0000
0100
0000
,
0010
0000
0100
0000
,
0001
0001
0001
0000
,
1000
0000
0100
0000
,
0010
0000
0011
0011
,
0001
1000
0001
0000
,
1000
0010
1000
0000
,
0001
0000
0000
1000
0000
0000
0000
0000
,
0100
0000
0000
0010
0000
0200
0000
0000
,
0300
0000
0000
0000
,
1000
1000
0001
0000
,
0100
0000
0000
0000
0000
0000
0000
0010
,
0000
0000
0000
0000
0000
0000
0000
0100
,
0000
0000
0000
0000
0000
0000
0000
0001
,
0000
0000
0000
1000
0000
0000
0000
0100
,
0000
0100
0000
0100
0000
0000
0000
0000
,
0010
0100
1000
0000
,
0100
0010
0001
0000
,
0010
0001
0100
0000
,
0010
0010
1000
1000
,
0001
1000
0100
0000
,
1000
0001
0100
0000
,
0001
1000
0010
0000
,
1000
0001
0100
0010
,
1001
0000
0000
0000
;

//--------------- dance-single - Pandemonium X ----------------
#NOTES:
     dance-single:
     Pandemonium X:
     Easy:
     7:
     0,0,0,0,0:
0000
0000
0000
0000
,
0000
0000
0000
0000
,
0000
0000
0000
0000
,
0000
0000
0000
0000
,
0000
0000
0000
0000
,
0010
1001
1000
0001
,
0010
0001
0010
0001
,
0010
0100
1000
0010
,
0200
0000
0000
0300
,
0001
1000
0200
1300
,
0001
1000
0002
0103
,
0001
1000
0200
0310
,
0021
0130
1020
0130
,
0001
1000
0020
1030
,
0001
1000
0002
0013
,
0001
1000
0020
0130
,
0201
0310
1200
0310
,
0001
0010
0100
0010
,
0100
1000
0001
0100
,
0010
0100
0001
1000
,
1001
0000
1001
0000
0001
0100
0000
0100
,
0010
0100
0001
0010
,
0001
1000
0100
1000
,
0001
1000
0100
0010
,
0011
0000
0011
0000
0010
0100
0000
1000
,
0001
0100
0001
0010
,
0100
1000
1010
0000
,
1000
0001
0010
0100
,
0010
0001
0101
0011
,
0001
1000
0200
1300
,
0100
1000
0002
0103
,
0001
1000
0100
0010
,
0001
0100
0010
1000
,
0000
0000
0000
0000
,
0101
0101
0001
1000
,
0100
0010
0100
1000
,
1010
1010
0010
1000
,
0001
0010
0100
1000
,
1001
1001
0001
0100
,
0001
0000
0010
0000
0000
0100
1000
0200
,
0000
0000
0300
0000
0000
0010
0001
0020
,
0000
0000
0030
0000
0000
0001
0100
0001
,
0000
0100
0000
0010
0000
1000
0000
0100
,
0000
0000
0010
0000
0000
0000
0002
0000
0000
0000
0000
0000
0000
0000
0000
0003
,
1000
0001
0020
0031
,
0001
1000
0200
1300
,
0010
0100
0002
0013
,
2100
3010
0201
0310
,
1000
0010
0200
0301
,
0010
0100
2000
3001
,
0010
0001
0200
0310
,
0102
0013
2100
3010
,
0100
0000
0010
0000
,
1000
1000
1000
0000
,
0010
0000
0100
0000
,
0001
0001
0110
1001
,
1000
0010
1000
1001
,
0001
0100
0001
1001
,
1000
0001
0010
0100
,
1000
0001
0100
0020
,
1030
0000
0000
0000
,
0101
0101
0001
1000
,
0100
0000
0010
0000
0000
0001
0010
0002
,
0000
0000
0003
0000
0000
1000
0100
2000
,
0000
0000
3000
0000
0000
0010
1000
0010
,
0000
0100
0000
0001
0000
1000
0000
0001
,
0000
0000
0010
0000
0000
0000
0200
0000
0000
0000
0000
0000
0000
0000
0000
0300
,
1000
0010
0200
0301
,
0010
0100
2000
3010
,
0100
0001
0020
0130
,
0012
0103
2010
3100
,
0001
0100
0020
1030
,
0100
0010
0002
0103
,
0010
1000
0200
0310
,
2100
3010
0102
0013
,
1001
0000
0000
0000
;

//--------------- dance-single - Pandemonium X ----------------
#NOTES:
     dance-single:
     Pandemonium X:
     Medium:
     11:
     0,0,0,0,0:
0000
0000
0000
0000
,
0000
0000
0000
0000
,
0000
0000
0000
0000
,
0000
0000
0000
0000
,
0000
0000
0000
0000
,
0001
1001
1000
0010
,
1000
0001
0010
0001
,
1000
0100
0010
0001
,
2002
0000
0000
3003
,
1000
0010
0100
0000
0001
0000
0011
0000
,
0010
0100
1000
0000
0100
0000
1100
0000
,
1000
0001
0100
0000
0010
0000
1010
0000
,
1000
0001
0010
0001
1000
0010
1000
0001
,
0010
0100
1000
0000
0100
0000
0011
0000
,
0001
0100
0010
0000
1000
0000
0101
0000
,
0001
1000
0100
0000
0010
0000
1100
0000
,
1000
0001
0010
0001
1000
0010
1000
0001
,
1000
0100
1000
0010
0100
0001
0000
0010
,
0000
0100
0010
0001
1000
1000
0000
0001
,
0100
0000
0010
0000
1000
0000
0001
0010
0000
0100
0000
0010
0001
0000
0100
0000
,
0110
0000
0101
0000
1000
1001
0000
1001
,
0001
0100
0001
0010
0100
1000
0000
0010
,
0000
0100
0010
1000
0100
0100
0000
1000
,
0100
0000
0010
0000
0001
0000
1000
0010
0000
0100
0000
0010
1000
0000
0100
0000
,
0110
0000
1100
0000
0001
1001
0000
0201
,
0000
0310
0100
0001
0100
0010
0100
0001
,
0000
0010
0100
1000
0001
0000
0000
0000
,
1000
0010
0100
0010
1000
0010
0100
0010
,
0000
1000
0100
0010
0011
0000
1010
0000
,
1001
0001
1000
0010
1000
0000
1001
0000
,
1000
0001
0100
0001
1000
0000
1001
0000
,
0001
0010
0000
0100
0000
1000
0000
0100
,
1000
0010
0000
0001
0000
0010
0000
0000
,
1001
0000
0000
0000
,
0101
0000
0101
0000
0001
1000
0100
0010
,
0000
0011
0000
0000
0001
1000
0010
0100
,
0101
0000
0101
0000
0001
1000
1000
0100
,
0000
0110
0000
1100
0000
0110
0000
0000
,
0011
0000
0011
0000
0001
0010
0100
1000
,
0000
1100
0000
1010
0000
1000
0001
1000
,
0000
1000
0001
1000
0000
0001
1000
0001
,
0000
0001
1000
0001
0000
1000
0001
1000
,
0000
0001
0000
0100
0000
0010
0000
1000
,
0000
0000
0100
0000
0000
0000
0020
0000
0000
0000
0000
0000
0000
0000
0000
0030
,
0100
1000
0010
0000
0100
0000
0101
0000
,
0001
0010
0100
0000
0010
0000
1100
0000
,
0100
1000
0001
0000
0100
0000
1010
0000
,
1000
0001
0100
0001
1000
0100
1000
0001
,
0100
0010
1000
0000
0001
0000
0101
0000
,
0001
0010
0100
0000
0010
0000
0011
0000
,
0001
1000
0100
0000
0010
0000
1100
0000
,
1000
0001
0010
0001
1000
0010
1000
0001
,
0010
0100
1000
0100
,
1000
0000
0010
0200
0000
0301
0010
0100
,
2000
0000
0001
0000
0001
0000
3001
0100
,
0020
1030
0101
1010
,
1000
0000
0100
0020
0000
0031
0100
0010
,
0200
0000
0000
0302
0000
0000
0000
0000
,
2003
0000
3001
0200
0000
0000
0000
0310
,
0001
0010
1000
0002
0000
0020
0000
0000
,
0033
0000
0000
0000
,
1100
0000
1100
0000
0100
1000
0010
0100
,
0000
0010
0000
0000
0000
0100
0001
0010
,
0000
0100
1000
0010
0000
0100
0001
0010
,
0000
0100
1000
0010
0000
0100
0001
0010
,
0000
1100
0000
1000
0000
0101
0000
0011
,
0000
0000
0110
0000
0000
0000
2100
0000
0000
0000
0000
0000
0000
0000
0000
3000
,
0001
0100
0001
0010
0001
0000
0011
0000
,
1000
0100
0010
0100
1000
0000
1100
0000
,
1000
0001
0010
0001
1000
0000
1001
0000
,
1000
0001
0100
0001
1000
0010
1000
0001
,
1000
0100
0010
0100
1000
0000
1100
0000
,
0001
0010
0100
0010
0001
0000
0011
0000
,
0001
0100
0010
0100
0001
0000
0101
0000
,
0001
1000
0010
1000
0001
0100
0001
1000
,
1001
0000
0000
0000
;

//--------------- dance-single - Pandemonium X ----------------
#NOTES:
     dance-single:
     Pandemonium X:
     Hard:
     15:
     0,0,0,0,0:
0000
0000
0000
0000
,
0000
0000
0000
0000
,
0000
0000
0000
0000
,
0001
0000
0000
0100
0000
0001
0010
0000
,
1001
0000
0000
0000
0000
0000
1000
0001
1000
0000
0001
0000
1000
0000
0000
0000
,
0100
1000
1010
1000
0100
1000
0010
1000
,
0001
0100
0010
0100
0001
0010
0001
0100
,
0001
0010
0001
0010
0100
1000
0100
1000
0001
1000
0001
1000
0001
0100
0010
0100
,
0002
0000
0000
0003
,
1000
0010
0100
0010
1000
0000
0001
0000
1000
0100
0000
0100
0010
0000
0100
0000
,
1000
0100
1000
0010
0100
0000
0010
0000
0100
0001
0000
0001
0010
0000
0100
0000
,
1000
0001
0010
0001
0100
0000
0001
0000
0010
0001
0000
0001
1000
0000
0001
0000
,
0001
0100
0001
0100
0010
0000
0010
1000
0010
1000
0100
0000
0100
0010
0100
0010
,
0001
0100
0001
0010
0001
0000
0100
0000
0010
0100
0000
0100
0001
0000
1000
0000
,
0001
0010
0001
0100
0001
0000
0010
0000
0100
0010
0000
0010
0100
0000
1000
0000
,
0001
0010
0100
0010
0001
0000
0100
0000
0001
0100
0000
0100
0010
0000
1000
0000
,
0001
0100
0010
1000
0001
0000
0001
0100
0010
1000
0001
0000
0001
0100
0010
1000
,
0001
0100
0010
1000
0100
0010
0100
1000
,
0010
0100
0001
0010
0100
0010
0001
1000
,
0010
0000
1000
0000
0100
0000
0010
0001
0000
0001
0000
0001
1000
0000
0001
0000
,
1001
0000
1001
0000
1100
1010
0000
1001
,
1000
0001
1000
0100
1000
0001
0010
0001
,
1000
0010
1000
0100
1000
0001
0100
0001
,
0010
0000
0001
0000
0100
0000
0010
1000
0000
1000
0000
1000
0100
0000
0010
0000
,
1001
0000
1001
0000
0011
0101
0000
1020
,
0000
0130
1000
0100
0001
0010
0001
1000
,
0000
0001
0010
0200
0000
1300
0100
1200
,
0000
0301
0100
0010
0001
0100
0010
0100
,
0000
0001
1000
0100
0110
0000
1001
0000
,
0001
1000
0100
0010
0001
0000
1001
0000
,
0001
0010
0100
1000
0001
0000
1001
0000
,
1000
0010
1010
0000
0001
0100
0101
0000
,
1000
0100
1000
0100
0010
0001
0010
0001
0100
0001
0100
0001
1000
0010
1000
0010
,
0100
0000
0000
0000
,
1001
0000
1001
0000
1000
0100
1000
0001
,
0000
0011
0000
0000
0001
0100
0010
0100
,
0101
0000
0101
0000
1000
0010
0100
0201
,
0000
0010
0000
0302
0000
0020
0000
0033
,
1100
0000
1001
0000
0001
1000
0001
0100
,
0000
0021
0000
0130
0000
1000
0100
2000
,
0000
3001
0010
0002
0000
1003
0010
2000
,
0000
3001
0010
0002
0000
0013
0100
0110
,
0000
1001
0000
0101
0000
1010
0000
1001
,
0000
0000
1100
0000
0000
0000
1001
0000
1000
0010
1000
0010
0100
0010
0100
0001
,
1000
0100
0010
0100
1000
0000
0001
0000
1000
0010
0000
0010
0100
0000
0010
0000
,
1000
0010
1000
0100
0010
0000
0100
0000
0010
0001
0000
0001
0100
0000
0010
0000
,
1000
0001
0100
0001
0010
0000
0001
0000
0100
0001
0000
0001
0100
0000
0100
0000
,
0001
0010
0001
0010
0100
0000
0100
1000
0100
1000
0010
0000
0010
0100
0010
0100
,
0001
0010
0001
0100
0001
0000
0010
0000
0100
0010
0000
0010
0001
0000
1000
0000
,
0001
0100
0001
0010
0001
0000
0100
0000
0010
0100
0000
0100
0010
0000
1000
0000
,
0001
0100
0010
0100
0001
0000
0010
0000
0001
0010
0000
0010
0100
0000
1000
0000
,
0001
0010
0100
1000
0001
0000
0001
0010
0100
1000
0001
0000
0001
0010
0100
1000
,
0001
1000
0010
1000
0001
0100
0001
0010
,
0000
0010
0100
2000
0000
3001
0010
0001
,
0100
0001
0100
0001
0010
0001
0010
0100
,
0000
0100
1000
0010
1010
0000
1100
1000
,
0001
0010
0001
2000
0000
3010
0100
0001
,
0010
0100
0010
0002
0000
0103
0001
0010
,
0200
0000
1000
2000
0000
0000
0300
3100
,
0001
0100
1000
0020
0000
0200
0000
0000
,
0330
0000
0000
0000
,
1001
0000
1001
0000
0001
0100
0001
1000
,
0000
1100
0000
0000
0000
0001
0100
0002
,
0000
1003
0010
2000
0000
3001
0010
0002
,
0000
1003
0010
2000
0000
3010
0100
0110
,
0000
1001
0000
1100
0000
0011
0000
1001
,
0000
0000
0101
0000
0000
0000
1001
0000
0001
0010
0001
0010
0100
0010
0100
1000
,
0001
0100
0010
0100
0001
0000
1000
0000
0001
0010
0000
0010
0100
0000
0010
0000
,
0001
0010
0001
0100
0010
0000
0100
0000
0010
1000
0000
1000
0100
0000
0010
0000
,
0001
1000
0100
1000
0010
0000
1000
0000
0100
1000
0000
1000
0001
0000
0001
0000
,
1000
0010
1000
0010
0100
0000
0100
0001
0100
0001
0010
0000
0010
0100
0010
0100
,
1000
0010
1000
0100
1000
0000
0010
0000
0100
0010
0000
0010
1000
0000
0001
0000
,
1000
0100
1000
0010
1000
0000
0100
0000
0010
0100
0000
0100
0010
0000
0001
0000
,
1000
0100
0010
0100
1000
0000
0010
0000
1000
0010
0000
0010
0100
0000
0001
0000
,
1000
0010
0100
0001
1000
0000
1000
0010
0100
0001
1000
0000
1000
0010
0100
0001
,
0010
0000
0000
0000
;
