#TITLE:Cult Invitation;
#SUBTITLE:;
#ARTIST:BEMANI Sound Team "謎の勢力";
#TITLETRANSLIT:;
#SUBTITLETRANSLIT:;
#ARTISTTRANSLIT:;
#GENRE:;
#CREDIT:;
#MUSIC:Cult Invitation.ogg;
#BANNER:Cult Invitation.png;
#BACKGROUND:Cult Invitation-bg.png;
#CDTITLE:;
#SAMPLESTART:42.467;
#SAMPLELENGTH:11.761;
#SELECTABLE:YES;
#OFFSET:-0.028;
#BPMS:0.000=164.000
,232.000=82.000
,240.000=164.000
,312.000=82.000
,318.000=164.000
;
#STOPS:47.500=1.463;
#BGCHANGES:;
#FGCHANGES:;

//--------------- dance-single - Pandemonium X ----------------
#NOTES:
     dance-single:
     Pandemonium X:
     Beginner:
     6:
     0,0,0,0,0:
0000
0000
0000
0000
,
0000
0000
0000
0000
,
0000
0000
0000
0000
,
0000
0000
0000
0000
,
0000
0000
0000
0000
,
0001
0000
0000
0000
,
1000
0000
0000
0000
,
0001
0000
0000
0000
,
1000
0000
0010
0010
,
1000
0000
0000
0000
,
0001
0000
0000
0000
,
1000
0000
0000
0000
,
0001
0000
0100
0000
,
0001
0000
1000
0000
,
0100
0000
1000
0000
,
0001
0000
0100
0100
,
0010
0000
0100
0000
,
0001
0000
1000
0000
,
0100
0000
1000
0000
,
0010
0000
0000
0000
,
0100
0000
0000
0000
,
0010
0000
0000
0000
,
1000
0000
0001
0000
,
1001
0000
0000
0000
,
0001
0000
0000
0000
,
0010
0000
0000
0000
,
0100
0000
1000
0000
,
1001
0000
0000
0000
,
0110
0000
0010
0000
,
1000
0000
0001
0000
,
1100
0000
0101
0000
,
1100
0000
0101
0000
,
0001
0000
1000
0000
,
0010
0000
1000
0000
,
0011
0000
1010
0000
,
0011
0000
1010
0000
,
0001
0000
1000
0000
,
0100
0000
1000
0000
,
0101
0000
0011
0000
,
0101
0000
0011
0000
,
0001
0000
1000
0000
,
0100
0000
0010
0000
,
1100
0000
1010
0000
,
1100
0000
1010
0000
,
1000
0000
0000
1000
0000
0000
0000
0000
,
0001
0000
0000
0001
0000
0000
0000
0000
,
1000
0000
0000
1000
0000
0000
0000
0000
,
0001
0000
0000
0001
0000
0000
0000
0000
,
1001
0000
0001
0000
,
0100
0000
0010
0000
,
1000
0001
0010
0001
,
1000
0010
1000
0001
,
1000
0000
0001
0000
,
0010
0000
0100
0010
,
0001
0100
0001
1000
,
0100
0010
0001
1000
,
0000
0000
1001
0000
0110
0000
0000
1001
,
0000
0110
0000
1001
0000
0000
0000
0000
,
0002
0000
0000
0000
,
2000
0000
0000
0000
0000
0000
0000
3003
,
1001
0000
0001
1000
,
0001
0000
0010
0100
,
0010
0000
0001
0000
,
0100
0000
0010
1000
,
0001
0000
1000
0000
,
0100
0000
1000
0000
,
0010
0000
0100
0000
,
0010
0000
1000
0000
,
0001
0000
1000
0000
,
0100
0000
0010
0000
,
0011
0000
1100
0000
,
1010
0000
1001
0000
,
0101
0000
0000
0000
,
1100
0000
0000
0000
,
0011
0000
1100
0000
,
1010
0010
0110
0100
,
0000
0000
0101
0000
1010
0000
0000
1001
,
0000
0110
0000
1001
0000
0000
0000
0000
,
0110
0000
0000
0000
,
0000
0000
0001
1000
,
0010
0000
0000
0000
0000
0100
0000
0000
0000
0000
0000
0000
0000
0000
0000
0000
;

//--------------- dance-single - Pandemonium X ----------------
#NOTES:
     dance-single:
     Pandemonium X:
     Easy:
     10:
     0,0,0,0,0:
0000
0000
0000
0000
,
0000
0000
0000
0000
,
0000
0000
0000
0000
,
0000
0000
0000
0000
,
0000
0000
0000
0000
,
1000
0001
1000
0001
,
0100
0010
0100
0010
,
1000
0010
1000
0010
,
0100
0000
0001
0000
0100
0010
1000
0001
,
0010
0100
0010
0100
,
1000
0001
1000
0001
,
0100
0001
0100
0001
,
2000
3100
2000
3010
,
2000
0000
3001
0000
1000
0001
1000
0000
,
0002
0103
0002
1003
,
0002
0000
0013
0000
0100
0010
0100
1000
,
0020
0031
0020
1030
,
0020
0000
0130
0000
0010
0100
0010
0000
,
0200
1300
0200
0310
,
0200
0000
0000
0300
,
2001
3200
0310
0011
,
0002
0023
0130
1100
,
2000
3020
0130
0101
,
2002
0000
0000
0000
3003
0000
0001
0100
,
0020
2030
3100
0011
,
0002
0023
0130
1100
,
2000
3002
0103
1010
,
0202
0000
0000
0303
,
0002
0000
0000
0023
0000
0000
0230
0000
,
0320
0000
0000
0032
0000
0000
2003
0000
,
3001
0000
0000
0001
0000
0000
0100
0000
0010
0000
0000
0010
0000
0000
1000
0000
,
0100
0000
0000
0100
0000
0000
0010
0000
0100
0000
0000
0000
1000
0000
1000
0000
,
2000
0000
0000
3200
0000
0000
0320
0000
,
0230
0000
0000
2300
0000
0000
3002
0000
,
0103
0000
0000
0001
0000
0000
0010
0000
0100
0000
0000
1000
0000
0000
0100
0000
,
1000
0000
0000
1000
0000
0000
1000
0000
0001
0000
0000
0001
0000
0000
0001
0000
,
2001
0000
0000
3002
0000
0000
0203
0000
,
0320
0000
0000
2030
0000
0000
3200
0000
,
1300
0000
0100
1000
0001
0000
0100
0001
,
0010
0000
0100
0010
0001
0000
0010
0100
,
2000
0000
0000
3200
0000
0000
2300
0000
,
3020
0000
0000
0230
0000
0000
0302
0000
,
1003
0000
0100
1000
0010
0000
0100
0000
,
0010
0000
0100
0001
0010
0000
0100
0000
,
1000
1000
0000
0001
0001
0000
0000
0000
,
0100
0100
0000
0010
0010
0000
0000
0000
,
1000
1000
0000
0100
0100
0000
0000
0000
,
0010
0010
0000
0001
0001
0000
1001
0000
,
0001
0100
0010
1000
,
0100
0010
0001
0010
,
0100
0000
0000
0100
0000
0000
1000
0000
0010
0000
0000
0010
0000
0000
0100
0000
,
0001
0000
0000
0001
0000
0000
1000
0000
0100
0000
0000
0000
0010
0000
0100
0000
,
1000
0100
0010
0001
,
1001
0001
0010
0100
,
1000
0000
0000
0001
0000
0000
0100
0000
0001
0000
0000
0000
0010
0000
0000
0000
,
0100
0000
0000
1000
0000
0000
0100
0000
1000
0000
0000
0000
0010
0000
0000
0000
,
0000
0000
0100
0000
0010
0100
0001
1000
,
0000
0110
0000
2002
0000
0000
3003
0000
,
0102
0000
0000
0000
,
2000
0000
0000
3003
,
1100
0100
1000
0010
,
0100
0001
0010
0001
,
1000
0000
0001
0100
0010
0000
0100
0010
,
1000
0000
0100
0010
0001
0000
0010
0010
,
0100
0010
0001
1000
,
0010
1000
0100
0010
,
0100
0000
1000
0010
0100
0000
0001
0000
,
2000
0000
3001
0000
0010
0000
0100
1000
,
0010
0100
0001
1000
,
0100
1000
0010
0100
,
0001
0000
0010
0100
0010
0000
0100
1000
,
0100
0000
1000
0010
1000
0000
0010
0000
,
1001
0001
0100
0010
,
1001
1000
0010
0100
,
1001
0110
1001
0110
,
0001
0100
0010
1000
0001
0100
0010
1000
,
0000
0000
1001
0000
0001
0100
0010
1000
,
0000
0110
0000
2002
0000
0000
3003
0000
,
1020
0000
0000
0000
,
0000
0000
0230
0302
,
2003
3001
0000
0000
;

//--------------- dance-single - Pandemonium X ----------------
#NOTES:
     dance-single:
     Pandemonium X:
     Medium:
     14:
     0,0,0,0,0:
0000
0000
0000
0000
,
0000
0000
0000
0000
,
0000
0000
0000
0000
,
0000
0000
0000
0000
,
0000
0000
0000
0000
,
0001
0100
0010
1000
,
0100
0010
0001
1000
,
0001
0010
0100
1000
,
0001
0000
0000
0000
0100
0000
0000
0000
0010
1000
0010
1000
0001
1000
0100
0000
,
1100
0100
0010
0001
,
0010
0100
1000
0010
,
0100
0001
1000
0100
,
1000
0010
0100
0100
0001
0010
0100
0100
,
0010
0001
1000
1000
0001
0100
0010
0010
,
0100
0001
0010
0010
0100
1000
0010
0010
,
0100
0000
0001
0000
1000
0000
1000
0000
0001
0010
0001
0010
0100
1000
0001
0000
,
1000
0001
0100
0100
0001
1000
0010
0010
,
1000
0100
0010
0010
0001
0100
0001
0001
,
0100
0010
1000
1000
0100
0010
0100
0100
,
2000
0000
0000
3000
,
0001
0000
0000
0100
0000
0000
0010
0000
0000
1000
0000
0000
0010
0000
0100
0000
,
0001
0000
0000
0010
0000
0000
0001
0000
0000
1000
0000
0000
0100
0000
1000
0000
,
0010
0000
0000
0100
0000
0000
0001
0000
0000
1000
0000
0000
0100
0000
1000
0000
,
1002
0000
0000
0000
0000
0000
0000
0000
0103
0000
0001
0000
0010
0100
1000
0000
,
0001
0000
0000
1000
0000
0000
0100
0000
0000
0010
0000
0000
0100
0000
1000
0000
,
0001
0000
0000
0100
0000
0000
0001
0000
0000
0010
0000
0000
0001
0000
0100
0000
,
0010
0000
0000
1000
0010
0000
0000
1000
0010
0000
0000
1000
0010
0000
0100
0000
,
0002
0010
0100
1003
,
2001
0000
3100
2000
0000
3010
0200
0000
,
0302
0000
0013
0200
0000
0310
0002
0000
,
1003
0000
0001
0100
0000
0001
1000
0000
0100
0000
1000
0100
0000
1000
0100
0000
,
1000
0000
0001
0100
0000
0001
0100
0000
0010
0000
1000
0000
0100
0010
0100
0010
,
0001
0010
0001
0000
0010
0100
0010
0000
,
0100
1000
0100
0000
1000
0010
0001
0010
,
0100
0000
0000
0001
0100
0000
0010
0000
1000
0000
0000
0100
0010
0000
0001
1000
,
0002
0000
0000
0103
0000
0000
0010
0000
2000
0000
0000
3100
0000
0000
0010
0000
,
0001
1100
0001
0110
,
1000
0000
0011
0000
0100
0000
1001
0001
,
0100
0000
0000
0010
1000
0000
0100
0000
0010
0000
0000
0100
0010
0000
0001
0000
,
1000
0000
0000
0001
1000
0000
0100
0000
1000
0000
0000
0001
0010
0000
0010
0000
,
0100
1100
1000
0101
,
0001
0000
1100
0000
1000
0001
0100
0001
,
0010
1000
0010
0001
0100
1000
0100
0010
,
1000
0001
0010
1000
0010
0100
0010
0001
,
2000
0100
3100
0020
0001
0031
0010
0100
,
0020
0001
0031
0200
0010
0310
0100
0001
,
2000
0100
3100
2000
0010
3010
0100
0001
,
0020
0001
0031
0020
0100
0130
1001
0000
,
0001
0100
0010
0000
0100
0010
1000
0000
,
0100
0010
0001
0000
0010
0100
1000
0000
,
0001
0100
0010
0010
1000
0001
0010
0010
,
0001
1000
0010
0010
1000
0001
0010
0010
,
1001
1000
0001
0010
,
1100
0000
1000
0000
0100
1000
1000
0001
,
1000
0100
1000
0001
0100
0001
1000
0001
,
1000
0010
1000
0001
0010
0001
1000
0001
,
0000
0000
0101
0000
0001
0100
1000
0010
,
0000
0000
0001
0000
0000
0000
1001
0000
0000
0000
0010
0100
0010
0000
0000
0000
,
2001
0000
0000
0000
3100
0000
0000
0000
1002
0000
0000
0000
0103
0000
0000
0001
,
1000
0000
0000
0001
1000
0000
0000
0001
1000
0010
1000
0001
0100
0001
0010
0000
,
0100
0000
0000
1000
0100
0000
1000
0000
0000
0010
0100
0000
0001
0000
0010
0000
,
0100
0000
0000
0010
0001
0000
0100
0000
0000
0001
1000
0000
0001
0000
0010
0000
,
0100
0010
1000
0010
0001
0010
0001
0010
,
1000
0100
0001
0100
1000
0010
0001
0010
,
0100
0000
0000
0001
0000
0000
0010
0000
0000
0100
0000
0000
0010
0000
0001
0000
,
0100
0000
0000
0010
0000
0000
1000
0000
0000
0001
0000
0000
1000
0000
0100
0000
,
0010
0000
0100
1000
0100
0000
1000
0000
0010
0000
0100
0000
0001
0000
0010
0000
,
0100
0000
0010
0001
0010
0000
0001
0000
1000
0000
0010
1000
0010
0000
0100
0000
,
0001
0000
0000
1000
0000
0000
0100
0000
0000
1000
0000
0000
0010
0000
0100
0000
,
0001
0000
0000
0010
0000
0000
0100
0000
0000
0010
0000
0000
0001
0000
0100
0000
,
0010
0000
1000
0010
0000
0010
0100
0000
0010
0000
0100
0001
0000
0001
0010
0000
,
0100
0000
0010
0001
0000
0001
1000
0000
0010
0000
0010
1000
0000
1000
0100
0000
,
0020
0000
0000
0100
0000
0000
0032
0000
0000
1003
0100
0000
1000
0000
0010
0000
,
0200
0000
0000
1000
0000
0000
0320
0000
0000
1030
0001
0000
0010
0000
0100
0000
,
1000
0000
0001
1000
0001
0000
1000
0001
1000
0000
0001
1000
0001
0000
1000
0001
,
1000
0001
0100
0010
1000
0001
0100
0010
,
1000
0000
1001
0000
1000
0100
0001
0010
,
0000
0000
1000
0000
0000
0000
1001
0000
0000
0000
0010
0100
0010
0000
0000
0000
,
1002
0000
0000
0000
0000
0000
0000
1000
,
2000
0000
0000
0000
0000
0000
0003
0000
3001
0010
0001
0010
0100
1000
0100
1000
,
0010
1000
0010
1000
0010
0100
0000
0000
0000
0000
0000
0000
0000
0000
0000
0000
;

//--------------- dance-single - Pandemonium X ----------------
#NOTES:
     dance-single:
     Pandemonium X:
     Hard:
     16:
     0,0,0,0,0:
0000
0000
0000
0000
,
0000
0000
0000
0000
,
0000
0000
0000
0000
,
0000
0000
0000
0000
,
0000
0000
0000
0000
,
0001
0100
0001
0100
0010
0100
0010
0100
,
0010
1000
0010
1000
0001
1000
0001
1000
,
0001
0010
0001
0010
0100
1000
0100
1000
,
0010
0000
1000
0000
0010
0000
1000
0000
0001
0100
0001
0100
0010
1000
0002
0000
,
0013
0100
0010
0100
1000
0100
1000
0100
,
1000
0010
1000
0010
0100
0010
0100
0010
,
0100
0001
0100
0001
1000
0001
1000
0001
,
1000
0100
0000
1000
0010
0000
0100
0000
0001
0010
0000
0001
0100
0000
0001
0000
,
1000
0001
0000
0010
0001
0000
1000
0000
0001
1000
0000
0010
1000
0000
0100
0000
,
0010
0100
0000
0010
0001
0000
1000
0000
0010
0100
0000
0010
1000
0000
0100
0000
,
0010
0100
0000
0010
0001
0000
1000
0000
0010
1000
0010
1000
0010
0100
0002
0000
,
0013
0100
0000
0010
0001
0000
1000
0000
0001
0100
0000
0010
0100
0000
0001
0000
,
1000
0100
0000
0010
0001
0000
1000
0000
0001
0010
0000
0100
1000
0000
0001
0000
,
0100
0001
0000
0010
0100
0000
0010
0000
0100
1000
0000
0100
0010
0000
0100
0000
,
2000
0000
0000
0000
,
3002
0000
0000
0000
0010
0000
0023
0000
0000
0130
0010
0000
0100
1000
0010
0100
,
0020
0000
0000
0000
1000
0000
2030
0000
0000
3100
1000
0000
0100
0010
0001
0100
,
0002
0000
1000
2003
0000
3100
1000
0010
,
0200
0000
0000
0000
0000
0000
0000
0000
0301
1000
0001
1000
0001
1000
0001
1000
,
0002
0000
0000
0000
0010
0000
0023
0000
0000
0130
0010
0000
0001
0010
0100
0010
,
0002
0000
0000
0000
0100
0000
0203
0000
0000
0310
0100
0000
0010
0100
0001
1000
,
0100
0000
0000
0100
0010
0000
0000
0010
0001
0000
1000
0000
0010
0100
0010
0100
,
0002
0000
0000
0000
,
1003
0100
1000
0010
0100
0001
0010
0100
,
0010
0000
0001
0000
0100
0000
0010
0000
1000
0000
0001
0000
0010
0000
0100
1000
,
0100
0000
1000
0010
0000
0100
0001
0000
0010
0000
0100
0010
0000
0001
1000
0001
,
1000
0000
0100
0010
0100
1000
0010
0000
0100
0000
0001
1000
0010
0001
0010
1000
,
0001
0010
0001
0100
0010
1000
0001
0010
,
0100
0000
0010
0000
0001
0000
0100
0000
0010
0000
1000
0010
1000
0010
1000
0010
,
2000
0000
0000
3100
0010
0000
0001
0100
0020
0000
0000
0130
0010
0000
1000
0000
,
0200
0000
0000
0320
0000
0000
0032
0000
0203
0000
0000
0320
0000
0000
2030
0000
,
3001
0010
0001
0100
0010
1000
0100
0010
,
0100
0000
1000
0000
0001
0000
0100
0000
0010
0000
1000
0000
0100
0000
0010
0001
,
0010
0000
0001
0100
1000
0100
0001
1000
0100
0000
0100
0010
0001
0010
1000
0010
,
0100
0000
1000
0001
0100
0000
1000
0100
0001
0000
0010
0100
1000
0100
0001
0100
,
1000
0100
0010
0001
0100
0010
1000
0001
,
0010
0000
0100
0000
0010
0000
0001
0000
0100
0000
0010
1000
0010
0100
0010
0100
,
0001
0000
1000
0100
1000
0100
0010
0000
0001
0100
0001
1000
0001
0000
1000
0000
,
0100
0000
0010
0000
0100
0000
1000
0001
0100
0000
0010
0000
1000
0001
0010
0001
,
0200
0000
0010
0000
0310
0000
0200
0000
0001
0000
0301
0000
1000
0000
1000
0001
,
2000
0000
0100
0000
3100
0000
0020
0000
0001
0000
0031
1000
0100
0010
0001
1000
,
0002
0000
0100
0000
0103
0000
0002
0000
1000
0000
1003
0000
0010
1000
0200
0000
,
0010
0320
0001
0032
1003
2000
3020
0000
,
0130
0001
0010
0001
0100
0010
1000
0001
,
0010
0000
0100
0000
0010
0000
0001
0000
1000
0000
0010
0000
1000
0000
0100
0010
,
0100
0000
0010
0001
0100
0001
1000
0100
0010
0000
0100
1000
0001
0100
0001
0010
,
0100
0000
0010
0001
0100
0010
1000
0100
0010
0000
0100
1000
0001
0100
0001
0100
,
0001
1000
0100
1000
0010
0100
0001
0010
,
0100
0000
0010
0000
0001
0000
0100
0000
0010
1000
0100
0010
0100
0010
0001
0010
,
0001
0000
0010
0100
0010
0001
1000
0000
0001
0000
0100
0001
0010
0000
0001
0000
,
0100
0000
0001
0000
1000
0000
0100
1000
0001
0000
0100
0000
0001
0010
0100
1000
,
0000
0000
0201
0000
1300
0100
0001
1001
,
0000
0011
0000
1200
0000
0310
1001
0000
,
0001
0000
0100
0000
1000
0000
0000
0000
0100
0000
0010
0000
1000
0000
0000
1000
,
0001
0000
0000
0001
0100
0000
0000
0100
0010
1000
0001
0010
0100
1000
0001
1000
,
0100
0010
0000
0010
0001
0000
1000
0000
0001
0000
0100
0000
0001
0000
0010
0000
,
0100
1000
0000
1000
0010
0000
0100
0000
0001
0000
1000
0000
0100
0000
1000
0010
,
1000
0000
0010
0100
0001
0010
0001
1000
0001
0000
1000
0010
1000
0001
0010
0100
,
1000
0000
0100
0010
0100
1000
0001
1000
0010
0100
0010
0100
0001
1000
0010
1000
,
0200
0000
0000
0320
0000
0000
0032
0000
0000
0203
0000
0000
0310
1000
0100
0010
,
0200
0000
0000
2300
0000
0000
3020
0000
0000
0230
0000
0000
0301
0100
0001
0100
,
0010
0000
0100
0001
0010
0001
1000
0001
1000
0000
0100
1000
0100
0000
0010
0000
,
0200
0000
0000
0000
1300
0000
0100
0010
0001
0000
1000
0000
0100
0010
0001
1000
,
0002
0000
0000
2003
0000
0000
3200
0000
0000
0320
0000
0000
0130
1000
0001
0100
,
0002
0000
0000
2003
0000
0000
3200
0000
0000
2300
0000
0000
3010
1000
0100
1000
,
0001
0000
0100
0001
0000
0010
0100
0000
0010
0000
0001
0010
0000
0100
1000
0000
,
0001
0000
0100
0010
0000
1000
0100
0000
0010
0000
0100
1000
0001
0100
0001
0100
,
0020
0000
0000
2030
0000
0000
3002
0000
0013
0001
0100
0001
0020
0000
0230
0000
,
2300
0000
0000
3200
0000
0000
0310
0000
0100
1000
0100
0010
0100
1000
0010
0100
,
0001
0000
1000
0001
0010
0000
0001
1000
0010
0000
1000
0001
0010
0000
0001
1000
,
0010
0100
0010
0100
0010
0100
0010
0100
0010
0100
0010
0100
0010
0100
0010
0100
,
0000
0000
1020
0000
0031
0010
1000
1100
,
0000
0011
0000
1002
0000
1003
1001
0000
,
0201
0000
0000
0000
0000
0000
0000
0010
,
0020
0000
0000
0000
0000
0000
0000
0300
1030
0010
0100
0001
0010
0001
1000
0010
,
0100
0001
0010
0001
1000
0010
0000
0000
0000
0000
0000
0000
0000
0000
0000
0000
;

//--------------- dance-single - Pankyo Los Xgeles ----------------
#NOTES:
     dance-single:
     Pankyo Los Xgeles:
     Challenge:
     18:
     0,0,0,0,0:
0000
0000
0000
0000
,
0000
0000
0000
0000
,
0000
0000
0000
0000
,
0000
0000
0000
0000
,
0000
0000
0000
0000
,
1000
0010
1000
0010
0100
0001
0100
0001
,
1000
0001
1000
0001
0010
0100
0010
0100
,
1000
0100
1000
0100
0010
0001
0010
0001
,
0100
0000
0001
0000
0100
0000
0001
0000
2000
3020
0230
0320
2030
3002
2003
0000
,
3001
0100
0010
0100
0001
1000
0100
0010
,
0100
1000
0010
0100
0010
1000
0001
0100
,
0010
1000
0100
0010
0001
0100
0001
1000
,
0001
0100
0001
0100
0001
0000
0010
0000
0100
1000
0100
1000
0100
0000
0010
0000
,
0001
1000
0001
1000
0001
0000
0100
0000
0010
1000
0010
1000
0010
0000
0100
0000
,
0001
0010
0001
0010
0001
0000
1000
0000
0010
1000
0010
1000
0010
0000
1000
0000
,
0010
0100
0010
0100
0010
0000
0100
0000
0002
0203
0302
0203
0310
1000
0200
0000
,
0310
0001
0100
0001
0010
0000
0100
0000
1000
0010
0100
0010
1000
0000
0100
0000
,
0010
0001
1000
0010
0100
0000
0010
0000
0100
0001
0010
0100
1000
0000
0010
0000
,
1000
0100
0010
0100
1000
0000
0100
0000
0010
0001
0100
0010
1000
0000
0100
0000
,
1000
0001
1000
0010
1000
0000
1001
0000
0001
1000
0001
0010
0001
0000
1001
0000
,
1000
0010
0000
0100
0001
0000
0010
0000
0100
0010
0100
0010
0100
0010
0001
1000
,
0010
0100
0000
0010
1000
0000
0001
0000
0010
0100
0010
0100
0010
0100
1000
0010
,
0100
0010
0000
0100
0001
0000
1000
0000
0001
1000
0001
0000
0010
0100
0010
0100
,
2000
0000
0000
0000
0000
0000
0000
0000
3001
0100
0010
1000
0002
0203
0320
0000
,
1030
0010
0000
0100
0001
0000
0010
0000
0100
0010
0001
0000
0010
0100
1000
0010
,
0100
0010
0000
0100
0001
0000
1000
0000
0001
0100
0000
0100
0001
1000
0100
0010
,
0100
0010
0000
0100
1000
0000
0001
0000
0100
0001
0010
0000
0100
0010
0001
0100
,
0010
0000
0000
0010
0100
0000
0000
0100
0001
0000
0000
0001
1000
0000
0001
0000
,
1000
0100
1000
0100
0010
0100
0010
0001
,
0100
0000
0001
0000
0100
0000
0010
0000
0100
0000
0010
0000
1000
0000
0001
0100
,
1000
0000
0100
0001
0000
1000
0100
0000
0001
0000
0100
1000
0000
0001
0100
1000
,
0100
0000
0001
1000
0100
0001
0100
0000
1000
0000
0001
0100
0020
2030
3020
2030
,
3001
0100
0001
0100
0010
0100
0010
1000
,
0100
0000
0010
0000
0100
0000
0010
0000
0001
0000
1000
0002
2003
3020
2030
3002
,
1003
0000
1000
0100
0001
0100
1000
0001
0100
0000
1000
0100
0001
0000
2000
3200
,
0320
0000
0000
0100
0000
0000
0031
0000
0200
0000
0000
0310
0100
0000
0001
0000
,
1000
0010
1000
0010
0100
0010
0100
0001
,
0010
0000
0100
0000
0010
0000
0100
0000
1000
0000
0100
0000
1000
0000
0001
0010
,
1000
0000
0010
0002
2003
3002
2003
3002
2003
3000
0010
0001
0020
2030
3020
0031
,
1000
0000
0001
0010
2000
3010
0200
2300
3001
0000
1000
0010
0200
0302
0203
0302
,
1003
0010
1000
0010
0100
0010
0100
0001
,
0010
0000
0100
0000
0010
0000
0100
0000
1000
0000
0200
0320
0230
0310
0001
0010
,
0001
0000
0200
0320
0230
0320
2030
3100
0010
0100
0020
0032
0103
0000
0020
0000
,
0130
0000
0001
1000
0100
0000
0002
0203
1300
0000
2000
0000
3020
0230
0302
0003
,
0021
0000
0100
0000
0031
0000
0201
0000
0010
0000
0301
0000
1000
0000
0001
1000
,
0020
0000
0100
0000
1030
0000
1200
0000
0010
0000
2300
3200
0320
0032
0023
0032
,
0203
0000
0010
0000
0301
0000
1020
0000
0100
0000
1030
0000
0001
1000
0100
1000
,
0020
0100
1030
0210
0001
0310
1001
0000
,
1000
0000
0100
1000
0100
0000
0100
0010
0100
0000
0010
0001
0010
0000
0010
0100
,
0010
0000
0100
1000
0100
0000
0010
0001
0010
0000
0001
0100
0001
0000
0001
0010
,
1000
0000
0010
0002
0203
0320
0230
0320
1030
0000
0100
0001
0200
2300
3020
0230
,
1300
0000
0100
0001
2000
3000
0200
0320
0031
0000
0010
1000
0020
0032
0023
0031
,
1001
0000
0010
0001
0010
0000
0010
0100
0010
0000
0100
1000
0100
0000
0100
0010
,
0100
0000
0010
0001
0010
0000
0100
1000
0100
0010
0002
0203
2300
3200
0302
2003
,
3001
0000
0002
0203
2300
3200
0320
2030
3200
0302
0203
2300
3002
0000
2003
0000
,
3200
0000
2300
3200
0320
0030
0020
0032
2003
3000
0002
0203
0320
2030
3002
2003
,
3000
0000
1001
0000
1100
0011
0110
1100
,
0000
0000
1001
0000
0000
0000
0021
0000
0000
0000
0130
0010
0110
0000
0000
0000
,
2001
0000
0001
0000
0010
0000
3100
1000
0020
0000
0100
0000
1030
0000
0010
0100
,
0110
0000
0000
0000
0000
0000
0001
0000
1001
0000
0000
0000
0000
0000
1000
0100
1000
0010
1000
0010
0100
0010
1000
0010
1000
0001
0010
0100
1000
0100
0010
0001
,
1000
0001
0000
0100
0001
0000
0010
0000
0100
1000
0100
0000
0100
0010
0100
0000
,
0010
0100
0000
0100
1000
0000
0010
0000
0100
0001
0100
0000
0100
0010
0100
0001
,
0010
0000
1000
0010
0002
0203
0320
0230
0301
0000
1000
0010
0200
0320
2030
3200
,
0310
0000
0100
0001
0200
0300
0020
0032
0103
0010
0100
0010
0200
0320
0230
0320
,
1030
0010
0000
0010
0100
0000
0001
0000
1000
0100
0000
0100
0010
0000
0001
0000
,
1000
0010
0000
0010
0100
0000
0001
0000
1000
0100
0000
0100
0010
0100
0010
0100
,
1000
0000
0200
0320
0032
0203
0320
0230
0301
0000
2000
3020
0230
0300
0020
0000
,
1030
0000
0100
1000
0100
0000
0100
0010
0100
0000
0020
0030
0200
0320
0032
2003
,
3001
0100
0000
0001
0010
0000
0100
0010
0000
0100
1000
0000
0001
0100
0010
0100
,
0001
1000
0000
0100
0010
0000
0100
1000
0000
0010
0100
0000
0020
2030
3200
0310
,
0100
0000
1000
0200
0320
0230
0320
0031
0100
0000
1000
0100
0002
2003
3200
2300
,
3020
0030
1000
0100
0020
0030
0002
0023
1030
0000
0010
0000
0002
2003
3002
2003
,
3100
0000
0000
1100
0000
0000
1010
0000
0000
0001
0100
0010
1000
0100
0020
0230
,
1300
0000
0000
0011
0000
0000
1001
0000
0002
0203
0320
0230
0302
2003
3200
2300
,
3001
0000
2000
3200
0020
0330
0200
0320
0002
0033
0020
0230
2000
3300
0200
0320
,
0032
0203
0310
0001
0010
0000
1000
0100
0020
0032
2003
3002
0203
0320
0230
0320
,
0030
0000
1001
0000
0011
0110
1100
1001
,
0000
0000
0110
0000
0000
0000
1001
0000
0000
0000
0001
1000
1001
0000
0000
0000
,
0102
0000
0000
0000
0000
0000
0000
1000
,
2000
0000
0000
0000
0000
0000
0000
0000
0000
0000
0000
0000
0000
0000
0000
0000
0000
0000
0000
0000
0000
0000
0000
0000
0000
0000
0000
0000
0000
0000
0000
0000
0000
0000
0000
0000
0000
0000
0000
0000
0000
0000
0000
0000
0000
0000
0000
0000
0000
0000
0000
0000
0000
0000
0000
0000
0000
0000
0000
0000
0000
0000
0000
0000
0000
0000
0000
0000
0000
0000
0000
0000
0000
0000
0000
0000
0000
0000
0000
0000
0000
0000
0000
0000
3003
0000
0000
0000
0000
0000
0000
0000
0000
0000
0000
0000
0001
0000
0000
0000
0000
0000
0000
0000
0000
0000
0010
0000
0000
0000
0000
0000
0000
0000
0000
0001
0000
0000
0000
0000
0000
0000
0000
0000
0000
0010
0000
0000
0000
0000
0000
0000
0000
0000
0001
0000
0000
0000
0000
0000
0000
0000
0000
0000
1000
0000
0000
0000
0000
0000
0000
0000
0000
0000
0001
0000
0000
0000
0000
0000
0000
0000
0000
1000
0000
0000
0000
0000
0000
0000
0000
0000
0000
0001
0000
0000
0000
0000
0000
0000
0000
0000
1000
0000
0000
0000
0000
0000
0000
0000
0000
0000
,
0010
0000
0000
0000
0000
0000
0000
0000
0000
0000
1000
0000
0000
0000
0000
0000
0000
0000
0000
0010
0000
0000
0000
0000
0000
0000
0000
0000
0000
1000
0000
0000
0000
0000
0000
0000
0000
0000
0010
0000
0000
0000
0000
0000
0000
0000
0000
0000
0100
0000
0000
0000
0000
0000
0000
0000
0000
0000
0002
0000
0000
0000
0000
0000
0000
0000
0000
0000
0000
0000
0000
0000
0000
0000
0000
0000
0000
0000
0000
0000
0000
0000
0000
0000
0000
0000
0000
0000
0000
0000
0000
0000
0000
0000
0000
0000
0000
0000
0000
0000
0000
0000
0000
0000
0000
0000
0000
0000
0000
0000
0000
0000
0000
0000
0000
0000
0000
0000
0000
0000
0000
0000
0000
0000
0000
0000
0000
0000
0000
0000
0000
0000
0000
0000
0000
0000
0000
0000
0000
0000
0000
0000
0000
0000
0000
0000
0000
0000
0000
0000
0000
0000
0000
0000
0000
0000
0000
0000
0000
0000
0000
0000
0000
0000
0000
0000
0000
0000
0000
0000
0000
0000
0000
0000
0000
0000
0000
0000
0000
0000
0000
0000
0000
0000
0000
0000
0000
0000
0000
0000
0000
0000
,
0000
0000
0000
0003
;
