#TITLE:Colorful Cookie;
#SUBTITLE:;
#ARTIST:Lucky Vacuum;
#TITLETRANSLIT:;
#SUBTITLETRANSLIT:;
#ARTISTTRANSLIT:;
#GENRE:;
#CREDIT:;
#MUSIC:Colorful Cookie.ogg;
#BANNER:Colorful Cookie-bn.png;
#BACKGROUND:Colorful Cookie-bg.png;
#CDTITLE:;
#SAMPLESTART:79.038;
#SAMPLELENGTH:10.652;
#SELECTABLE:YES;
#OFFSET:0.955;
#BPMS:0.000=180.011;
#STOPS:;
#BGCHANGES:;
#FGCHANGES:;

//--------------- dance-single - Pandemonium X ----------------
#NOTES:
     dance-single:
     Pandemonium X:
     Beginner:
     4:
     0,0,0,0,0:
0000
0000
0000
0000
,
0000
0000
0000
0000
,
0000
0000
0000
0000
,
0000
0000
0000
0000
,
0000
0000
0000
0000
,
0000
0000
0000
0000
,
0000
0000
0000
0000
,
0000
0000
0000
0000
,
0000
0000
0000
0000
,
0001
0000
0001
0000
,
0001
0001
0001
0000
,
1000
0000
1000
0000
,
1000
1000
1000
0000
,
0001
0000
1000
0000
,
0010
0010
0010
0000
,
1000
0000
0001
0000
,
0100
0000
0010
0010
,
1001
0000
0000
0000
,
1000
0000
0000
0000
,
0001
0000
0000
0000
,
0100
0000
0000
0000
,
0010
0000
0100
0100
,
0010
0000
0000
0000
,
1000
0000
0000
0000
,
0002
0000
0000
0000
,
1003
0000
0000
0000
,
0001
0000
0001
0000
,
0001
0000
0000
0000
,
1000
0000
1000
0000
,
1000
0000
0000
0000
,
0010
0000
0010
0000
,
0010
0000
0000
0000
,
0100
0000
0100
0000
,
0100
0100
0100
0000
,
0001
0000
1000
0000
,
0100
0000
0000
0000
,
0010
0000
0001
0000
,
0100
0000
0000
0000
,
0010
0000
0100
0000
,
0001
0000
0000
0000
,
1000
0000
0001
0000
,
0100
0000
0010
0000
,
2002
0000
0000
0000
,
3003
0000
0000
0000
,
0001
0000
0000
0000
,
1000
0000
0000
0000
,
0010
0000
0000
0000
,
0100
0000
0000
0000
,
0010
0000
0000
0000
,
1000
0000
0000
0000
,
0001
0001
0001
0000
,
0000
0000
0000
0000
,
1000
1000
1000
0000
,
0000
0000
0000
0000
,
0010
0000
0010
0000
,
0100
0000
0100
0000
,
0010
0000
0100
0000
,
0001
0000
1000
0000
,
1001
0000
0000
0000
,
0000
0000
0000
0000
,
1000
0000
0001
0000
,
0010
0010
0010
0000
,
0001
0000
1000
0000
,
0010
0010
0010
0000
,
1000
0000
0001
0000
,
0100
0100
0100
0000
,
0001
0000
1000
0000
,
0100
0100
0100
0000
,
1000
0000
0100
0000
,
0010
0001
0010
0000
,
0001
0000
0100
0000
,
0010
1000
0010
0000
,
1000
0000
0001
0000
,
0010
0001
0100
0000
,
0010
0000
1000
0000
,
0100
1000
0010
0100
,
1001
0000
0000
0000
,
0000
0000
0000
0000
,
0001
0000
0000
0000
,
0000
0000
0000
0000
,
1000
0000
0000
0000
,
0000
0000
0000
0000
,
0001
0000
0000
0000
,
1000
0000
0010
0010
;

//--------------- dance-single - Pandemonium X ----------------
#NOTES:
     dance-single:
     Pandemonium X:
     Easy:
     7:
     0,0,0,0,0:
0000
0000
0000
0000
,
0000
0000
0000
0000
,
0000
0000
0000
0000
,
0000
0000
0000
0000
,
0000
0000
0000
0000
,
0000
0000
0000
0000
,
0000
0000
0000
0000
,
0000
0000
0000
0000
,
0000
0000
0000
0000
,
0001
1000
0001
1000
,
1000
0001
1000
0001
,
1000
0001
1000
0001
,
0001
1000
0001
1000
,
0001
0100
0010
1000
,
0010
0100
0001
0010
,
0100
0001
0100
1000
,
0010
0100
1000
0100
,
0202
0000
0000
0303
,
0001
1000
0000
0100
,
0000
1000
0000
0010
,
0000
0100
0000
0010
,
0000
0100
0001
1000
,
0100
0010
0000
0100
,
0000
1000
0000
0010
,
0200
0000
0000
0000
,
0310
0000
0000
0000
,
1000
0001
0010
0000
,
0001
1000
0100
0000
,
1000
0001
0100
0000
,
0001
1000
0010
1000
,
0100
0010
0001
0000
,
0010
0001
0100
0000
,
0010
0100
0001
0010
,
1000
0010
0100
1100
,
1000
0001
0100
0001
,
0010
0010
0010
0000
,
0100
1000
0001
1000
,
0100
0100
0100
0000
,
0010
0001
0100
0010
,
1000
1000
1000
0000
,
0001
1000
0100
0010
,
1000
0010
0001
0100
,
2010
0000
0000
0000
,
3001
0000
1000
0000
,
0100
0000
1000
0000
,
0001
0000
0100
0001
,
0010
0000
0100
0000
,
1000
0000
0100
0000
,
1000
0000
0010
0000
,
0100
0000
0010
0000
,
1000
0000
0001
0000
1000
0000
0000
0001
,
0000
0010
0000
0001
0000
0000
0000
0000
,
1000
0000
0001
0000
1000
0000
0000
0010
,
0000
1000
0000
0010
0000
0000
0000
0000
,
1000
0100
0010
0001
,
1000
0100
0010
0001
,
1000
0100
1000
0100
,
1000
1000
0001
0001
,
1001
0000
0000
0000
,
0000
0000
0000
0000
,
1000
0010
0100
1000
,
0100
0001
1000
0100
,
0000
0010
0001
0010
,
1000
0010
0100
1000
,
0000
0100
1000
0010
,
0100
1000
0100
0010
,
1000
0001
0010
1000
,
0010
0100
0010
0001
,
1000
0001
0100
0001
,
0010
0100
1000
1000
,
0001
1000
0100
0010
,
0100
1000
0001
0001
,
1000
0001
0100
0010
,
1000
0010
0100
0001
,
0010
1000
0010
0001
,
0100
1000
0100
0001
,
1000
0001
0010
0000
,
0001
1000
0010
0000
,
1000
0001
0100
0000
,
0001
1000
0100
0000
,
1000
0001
1000
0000
,
0001
1000
0001
0000
,
1000
0100
0010
1000
,
0010
0001
0100
0010
;

//--------------- dance-single - Pandemonium X ----------------
#NOTES:
     dance-single:
     Pandemonium X:
     Medium:
     11:
     0,0,0,0,0:
0000
0000
0000
0000
,
0000
0000
0000
0000
,
0000
0000
0000
0000
,
0000
0000
0000
0000
,
0000
0000
0000
0000
,
0000
0000
0000
0000
,
0000
0000
0000
0000
,
0000
0000
0000
0000
,
0000
0000
0000
0000
,
0001
0100
0010
1000
,
0100
0100
0100
0010
,
0001
1000
0100
0100
,
0010
0010
0010
0001
,
1001
0001
0101
0100
,
0110
0010
1010
1000
,
1100
0000
0011
0000
1100
0000
0001
0100
,
0000
0010
1000
0000
0100
0000
0010
0000
,
1002
0000
0000
0003
,
0000
0100
0001
0100
0000
0100
0010
0100
,
0000
0100
0001
0100
0000
0100
0010
0100
,
0000
0100
0001
0100
0000
0100
0010
0100
,
0000
0100
0001
0100
0010
1000
0001
0000
,
1000
0100
0010
0100
0000
0100
1000
0100
,
0000
0100
0010
0100
0000
0100
1000
0100
,
0000
0100
0010
0100
0000
0100
1000
0100
,
0020
0030
0000
0000
,
0001
0000
0010
0000
0100
0000
1000
0100
,
0000
0010
0000
0100
1000
0000
0001
0000
,
0100
0000
0001
0000
0010
0000
0001
0100
,
0000
0010
0000
0100
0001
0000
1001
0000
,
0001
0000
1000
0000
0100
0000
1000
0010
,
0000
0100
0000
0001
0000
0010
0100
1000
,
0001
0000
0010
0000
1000
0000
0010
0001
,
0000
0100
1000
0000
0100
0000
0001
0000
,
1001
0000
1001
0000
0101
0000
0001
0100
,
0000
0110
0000
1010
0000
1000
0100
0010
,
0100
0000
0011
0000
1100
0000
0001
1000
,
0000
0101
0000
1001
0000
0001
1000
0100
,
0010
0000
0110
0000
1100
0000
0100
1000
,
0000
1010
0000
1100
0000
1000
0100
0010
,
0011
0000
0110
0000
1100
0000
0001
1001
,
0000
1000
1001
0000
0101
0000
1100
0000
,
1001
0001
1000
1000
,
0001
1000
0001
0001
,
1000
0001
1000
1000
,
0001
1000
0001
0001
,
0000
0000
1000
0000
1000
0000
0000
0000
0100
0000
0000
0100
0000
0000
0100
0000
,
0000
0000
0010
0000
0010
0000
0000
0000
0001
0000
0000
0001
0000
0000
0001
0000
,
0000
0000
0010
0000
0010
0000
0000
0000
0100
0000
0000
0100
0000
0000
0100
0000
,
0000
0000
1000
0000
1000
0000
0000
0000
0010
0000
0000
0010
0000
0000
0010
0000
,
1001
0001
1000
0001
,
0010
0010
0010
0001
,
1000
0001
1000
0001
,
0010
0010
0010
0001
,
1001
0010
1001
0010
,
1001
0010
1001
0010
,
1001
1001
1001
1001
,
0001
1000
0001
1000
0010
0100
0010
0100
,
0002
0000
0000
0000
,
2000
0000
0000
0003
,
3100
0010
0100
0000
1000
0000
0010
0000
,
0001
0000
0010
0100
0000
0110
0000
1001
,
0000
0001
0010
0000
0100
0000
0010
0000
,
1000
0000
0010
0001
0000
0101
0000
0101
,
0000
0001
1000
0000
0100
0000
0001
0000
,
0100
0100
0000
1001
0000
0000
0101
0000
,
0001
0000
1000
0000
0001
0000
0010
1000
,
0000
0010
0000
0100
0000
0010
0100
1000
,
0000
0001
0100
0001
0010
0100
1000
0000
,
0100
0000
1000
0010
0000
1010
0000
1001
,
0000
0001
1000
0100
0010
0001
1000
0001
,
0100
0000
0010
1000
0000
1010
0000
1001
,
0000
0001
0100
0010
0100
0001
0010
0001
,
0100
0000
0010
1000
0000
0100
0010
0001
,
0010
1000
0010
0001
0000
0001
0100
1000
,
0100
0010
1000
0001
0010
1000
0010
0001
,
0100
0000
0010
0000
0100
0000
0010
0100
,
0000
0010
0000
0100
0010
0000
0100
0000
,
0001
0000
1000
0000
0001
0000
1000
0001
,
0000
1000
0000
0001
1000
0000
0110
0000
,
1000
0000
0001
0000
1000
0000
0001
1000
,
0000
1000
0000
0001
0000
1000
0100
0010
,
0001
0000
0010
0000
0100
0000
1000
0100
,
0000
0010
0100
0000
1000
0000
0001
0000
;

//--------------- dance-single - Pandemonium X ----------------
#NOTES:
     dance-single:
     Pandemonium X:
     Hard:
     14:
     0,0,0,0,0:
0000
0000
0000
0000
,
0000
0000
0000
0000
,
0000
0000
0000
0000
,
0000
0000
0000
0000
,
0000
0000
0000
0000
,
0000
0000
0000
0000
,
0000
0000
0000
0000
,
0000
0000
0000
0000
,
0000
0000
0000
0000
,
0001
0000
0000
0000
0001
0000
0000
0000
0001
0000
0000
0000
0001
0000
1000
0001
,
1000
0000
0000
0000
1000
0000
0000
0000
1000
0000
0000
0000
1000
0000
0001
1000
,
0001
0000
0000
0000
0001
0000
0000
0000
0001
0000
0000
0000
0001
0000
1000
0001
,
1000
0000
0000
0000
1000
0000
0000
0000
1000
0000
0000
0000
1000
0000
0001
1000
,
0001
0010
0001
0100
0010
1000
0001
0010
,
0100
0010
0001
0100
0001
1000
0100
0010
,
0011
0000
1100
0000
1010
0000
0001
0101
,
0000
1000
1100
0000
0101
0000
0110
0000
,
2002
0000
0000
3000
,
1003
0000
0001
0100
0001
0000
0010
0000
0000
0000
0100
1000
0100
0000
0010
0000
,
0000
0000
0001
0100
0001
0000
0010
0000
0000
0000
0100
1000
0100
0000
0010
0000
,
0001
0000
0100
0010
0100
0000
0001
0000
0000
0000
0010
0100
0010
0000
0001
0000
,
0000
0000
0010
0100
0010
0000
0001
0000
1000
0000
1000
0100
0010
0000
0010
0000
,
1001
0000
0001
1000
0001
0000
0100
0000
0000
0000
0001
0100
0001
0000
0010
0000
,
0000
0000
0100
1000
0100
0000
1000
0000
0000
0000
1000
0001
1000
0000
0001
0000
,
0010
0000
0100
1000
0100
0000
0010
0000
0000
0000
0100
0010
0100
0000
1000
0000
,
1001
0000
0000
0000
0000
0000
0000
0000
0001
0100
0010
1000
0001
0100
0010
1000
,
0001
0010
0001
0100
0010
1000
0100
0010
,
0100
1000
0001
0100
0101
0000
0011
0000
,
0010
0100
0010
0001
0100
0010
1000
0001
,
0010
0001
0100
0010
1010
0000
0101
0000
,
0001
1000
0010
1000
0001
0010
0100
0010
,
0001
0010
0100
1000
0000
1000
0100
0010
,
0001
0010
0001
0100
0010
0100
0001
1001
,
0000
0100
0101
0000
1010
0000
0011
0000
,
1001
0000
0101
0000
2001
0000
3100
0021
,
0000
0230
0000
2300
0000
3100
0010
0001
,
0101
0000
1010
0000
1002
0000
1003
2100
,
0000
3200
0000
0320
0000
0130
1000
0001
,
0101
0000
1001
0000
0011
0000
0010
0021
,
0000
0001
0000
0130
0000
0100
0010
0001
,
1001
0000
0101
0000
1001
0000
1000
1200
,
0000
1300
0020
0000
0032
0000
0203
0000
,
0301
0000
1000
0000
1000
0000
0100
0000
0010
0000
0010
0001
0000
0010
0001
0000
,
0000
0000
0100
0000
0100
0000
0010
0000
1000
0000
1000
0100
0000
1000
0100
0000
,
0000
0000
1000
0000
1000
0000
0001
0000
0100
0000
0100
0010
0000
0100
0010
0000
,
0000
0000
0100
0000
0100
0000
0001
0000
0010
0000
0010
0100
0000
0100
1000
0000
,
1000
0000
0001
0000
0001
0000
0100
0000
0010
0000
0010
1000
0000
0010
1000
0000
,
0000
0000
0010
0000
0010
0000
0100
0000
0001
0000
0001
1000
0000
0001
1000
0000
,
0000
0000
0100
0000
0100
0000
0010
0000
0001
0000
0001
0100
0000
0001
0100
0000
,
0000
0000
0010
0000
0010
0000
1000
0000
0100
0000
0100
0010
0000
0100
0010
0000
,
0001
0000
0000
0000
0010
0000
0000
0000
0100
0000
0000
0000
1000
0000
0010
0100
,
0010
0000
0100
0000
0001
0000
1000
0100
,
0010
0000
0000
0000
0100
0000
0000
0000
1000
0000
0000
0000
0001
0000
0010
0100
,
0010
0000
0010
0000
0100
0000
0100
1000
,
1020
0130
0021
0130
,
1020
0130
0021
0130
,
1001
0000
0000
1000
0001
0000
0000
0001
1000
0000
0000
1000
0001
0000
0000
0001
,
1000
1000
1000
1000
0001
0001
0001
0001
,
2002
3003
0000
0000
,
0200
0010
0010
0310
,
1001
0000
0001
0000
0010
0000
0100
0000
0010
0000
0001
0010
0000
0010
0100
0000
,
0000
0000
0010
0000
0001
0000
0100
0000
0010
0000
0100
0010
0000
0010
1000
0000
,
0000
0000
0100
0000
1000
0000
0010
0000
0100
0000
0010
1000
0000
1000
0100
0000
,
0000
0000
1000
0000
0001
0000
0010
0000
0100
0000
1000
0100
0000
0010
0100
0000
,
1000
0000
0001
0000
0100
0000
0001
0000
0010
0000
0100
0010
0000
0010
0001
0000
,
1001
1001
0000
0101
0000
0000
1010
0000
,
0201
0000
0302
0000
0023
0000
1030
0020
,
0000
0001
0000
0100
0000
0031
0010
0100
,
1000
0100
1000
0010
0100
1000
0100
0001
,
1000
0100
0010
0001
0000
0011
0000
0101
,
0000
0001
0010
0100
0001
0100
1000
0010
,
0001
0010
0100
0001
0000
1001
0000
1100
,
0000
1000
0010
0100
1000
0100
0001
0010
,
1000
0010
0001
0100
0000
0010
0100
0001
,
0010
1000
0010
0001
0000
0010
0100
0001
,
0100
0000
1000
0000
0010
0000
0001
0000
0010
0000
0100
0010
1000
0000
0001
0000
,
1001
0000
1000
0000
0010
0000
1000
0001
,
0000
1000
0000
0001
1000
0000
0010
0000
,
1000
0000
0001
0000
1000
0000
0001
1000
,
0000
0001
0000
1000
0001
0000
0100
0000
,
0010
0000
1000
0000
0001
0000
1000
0001
,
0000
0001
0000
1000
0000
0001
0010
0100
,
0010
0000
0001
0000
1000
0000
1000
0001
,
0000
0001
1000
0000
0001
0000
1000
0000
,
0001
0000
0000
0000
;
