#TITLE:Circuit Surfer;
#SUBTITLE:;
#ARTIST:kors k;
#TITLETRANSLIT:;
#SUBTITLETRANSLIT:;
#ARTISTTRANSLIT:;
#GENRE:;
#CREDIT:;
#MUSIC:Circuit Surfer.ogg;
#BANNER:Circuit Surfer-bn.png;
#BACKGROUND:Circuit Surfer-bg.png;
#CDTITLE:;
#SAMPLESTART:42.244;
#SAMPLELENGTH:16.739;
#SELECTABLE:YES;
#OFFSET:0.539;
#BPMS:0.000=230.000;
#STOPS:105.750=0.522
,119.750=0.522
,156.000=0.783
,452.500=0.261
;
#BGCHANGES:;
#FGCHANGES:;

//--------------- dance-single - Pandemonium X ----------------
#NOTES:
     dance-single:
     Pandemonium X:
     Beginner:
     7:
     0,0,0,0,0:
0000
0000
0000
0000
,
0000
0000
0000
0000
,
0000
0000
0000
0000
,
0000
0000
0000
0000
,
0000
0000
0000
0000
,
0000
0000
0000
0000
,
0000
0000
0000
0000
,
0000
0000
0000
0000
,
0000
0000
0000
0000
,
0001
0001
0000
0000
,
1000
0000
0000
0000
,
0001
0000
0001
0000
0000
1000
0000
0000
,
0001
0000
0000
0000
,
1000
1000
0000
0000
,
0001
0000
1001
0000
,
0001
0000
1000
0000
,
0010
0000
0100
0000
,
0010
0010
0000
0000
,
0100
0000
0000
0000
,
0010
0000
0010
0000
0000
0100
0000
0000
,
0010
0000
0000
0000
,
0100
0100
0000
0000
,
0010
0000
1001
0000
,
1000
0000
0001
0000
,
0010
0000
0001
0000
,
1001
0000
0000
0000
,
0110
0000
1001
0000
,
0000
0000
0110
0000
,
0001
0000
1001
0000
,
0000
0000
0110
0000
,
1001
0000
0000
0000
,
2000
0000
0000
3000
,
0010
0000
0000
0000
,
0100
0000
0000
0000
,
0001
0000
0000
0000
,
0010
0000
0000
0000
,
0100
0000
0100
0000
,
1000
0000
1000
0000
,
0001
0000
1000
0000
,
0000
0010
0000
0000
,
0000
0100
0000
0000
,
0000
0001
0000
0000
,
0000
1000
1000
1000
,
0000
0001
0000
0000
,
0000
1000
0000
0000
,
0000
0100
0000
0000
,
0000
0020
0000
0000
,
0000
0130
0000
0000
,
0000
1000
0000
0000
,
0000
0001
0000
0000
,
0000
0100
0000
0001
,
0000
0010
0000
0000
,
0000
0100
0000
0000
,
0000
1000
0000
0000
,
0000
0002
0000
0000
,
0000
1003
0000
0000
,
0000
0010
0010
0010
,
0000
0100
0000
0000
,
0000
0001
0001
0001
,
0000
0010
0000
0000
,
0000
0100
0100
0100
,
0000
1000
0000
1000
,
0000
0001
0000
0001
,
0000
1000
0000
0000
,
0000
0010
0010
0010
,
0000
0100
0000
0000
,
0000
0001
0001
0001
,
0000
1000
0000
0000
,
0000
0100
0100
0100
,
0000
0010
0000
0100
,
0000
1000
0000
0000
,
0000
0001
0000
1000
,
0000
0000
0000
0001
,
0000
0000
0000
0100
,
0000
0000
0000
0010
,
0000
0000
0000
1000
,
0000
0000
0000
0001
,
0000
0010
0000
0001
,
0000
1000
0000
0010
,
0000
1001
0000
0000
,
0000
0000
0000
0000
,
0000
0001
0000
0000
,
0000
0000
0000
0000
,
0000
1000
0000
0000
,
0000
0000
0000
0000
,
0000
0010
0000
0010
,
0000
0100
0000
0100
,
0000
1001
0000
0000
,
0000
0001
0001
0001
,
0001
0000
0000
0000
,
0000
1000
1000
1000
,
1000
0010
0000
0100
,
0000
0001
0000
1000
,
0000
0100
0000
0010
,
0000
0001
0001
0001
,
0000
1001
0000
0000
,
0000
0001
0100
0001
,
0100
0001
0000
0000
,
0000
1000
0100
1000
,
0100
1000
0000
0000
,
0000
0010
1000
0010
,
1000
0001
0000
0010
,
0000
0001
0000
1000
,
0000
0010
0000
0000
,
0000
1000
0100
1000
,
0100
1000
0000
0100
,
0000
0010
0010
0001
,
0010
0001
0000
1000
,
0000
0001
0100
0001
,
0000
0100
0000
0010
,
0000
1000
0000
0001
,
0000
1000
0000
0001
,
0000
1000
0000
0001
,
0000
0120
0000
0000
,
0000
0000
0000
0000
,
0000
0000
0030
0000
;

//--------------- dance-single - Pandemonium X ----------------
#NOTES:
     dance-single:
     Pandemonium X:
     Easy:
     11:
     0,0,0,0,0:
0000
0000
0000
0000
,
0000
0000
0000
0000
,
0000
0000
0000
0000
,
0000
0000
0000
0000
,
0000
0000
0000
0000
,
0000
0000
0000
0000
,
0000
0000
0000
0000
,
0000
0000
0000
0000
,
0000
0000
0000
0000
,
0001
0000
0000
0020
0000
0000
0000
0000
,
0130
0010
0001
0100
,
0010
0000
0000
0200
0000
0000
0000
0000
,
0310
1000
0001
0010
,
0100
0000
0000
0020
0000
0000
0000
0000
,
0130
0010
1001
0000
,
0001
0100
0010
0000
,
0100
0010
1000
0000
,
0001
0000
0000
2000
0000
0000
0000
0000
,
3100
1000
0010
0100
,
0001
0000
0000
0020
0000
0000
0000
0000
,
0130
0100
0010
0001
,
1000
0000
0000
0002
0000
0000
0000
0000
,
0103
0001
1001
0000
,
1000
0100
1000
0001
,
0100
0001
1000
0001
,
1000
0000
0000
0001
0000
0000
0100
0000
,
0010
0000
0000
1001
0001
0000
0000
0010
,
0000
0000
0001
0000
1000
0000
0000
0010
,
0000
0000
0000
0000
0100
0000
0000
0010
,
0000
0000
1000
0000
0100
0000
0000
1001
,
0001
0000
0000
0010
0000
0000
0001
0000
,
0200
0302
0023
0130
,
1000
0000
1000
0000
,
0001
0000
0001
0000
,
0100
0000
0100
0000
,
0010
0000
0010
0000
,
1000
0010
1000
0010
,
0100
0001
0100
0001
,
0010
0100
1000
0001
,
0000
1001
0001
1000
,
0001
0100
0001
0100
,
0001
0010
0001
0010
,
0001
0010
0100
1001
,
0000
1000
0010
1000
,
0010
0100
0010
0100
,
0010
0100
0001
0100
,
0001
2000
3200
0320
,
0032
0013
0100
1000
,
0010
0100
0001
1000
,
0010
1000
0001
0100
,
0010
0100
0001
1001
,
0000
0001
0001
0010
,
0010
0100
0100
1000
,
1000
0100
0010
0001
,
1000
0002
0023
0230
,
2300
0000
3010
0000
0000
0100
0000
0100
,
0000
0001
0001
0001
,
0000
0000
0010
0000
0000
0100
0000
0100
,
0000
1000
1000
1000
,
0000
0000
0001
0000
0000
1000
0000
1000
,
0000
0100
0100
0100
,
0010
0001
0001
0001
,
0010
0100
0100
0100
,
1000
0000
0001
0000
0000
1000
0000
0010
,
0000
0100
0001
0010
,
0100
0000
0010
0000
0000
0001
0000
1000
,
0000
0100
1000
0010
,
0100
0000
0001
0000
0000
0010
0000
0001
,
0000
0100
0001
0010
,
0100
1000
1000
1000
,
1000
0000
0000
0001
0000
0001
0000
0001
,
0000
1000
0000
0001
,
0000
0100
0000
0001
,
0000
0010
0000
0100
,
0000
1000
1000
1000
,
0000
0001
0000
1000
,
0000
0100
0000
1000
,
0000
0010
0000
0100
,
0000
0001
0000
1000
,
0000
1001
0000
0000
,
0000
0001
0000
0000
,
0000
1000
0000
0000
,
0000
0010
0000
0000
,
0000
0100
0000
0000
,
0000
0010
0000
0000
,
0000
1000
0010
0100
,
0001
0010
0010
0010
,
0010
0001
0210
0000
,
0000
0010
0010
0010
,
0310
0100
0120
0000
,
0000
0100
0100
0100
,
0130
0110
1001
1000
,
0010
0110
1001
1000
,
0100
1000
1000
0001
,
0001
0100
0010
1000
,
0001
0000
1001
0000
0000
0002
0000
0000
,
0000
0103
0001
0010
,
0100
0000
1000
0000
0000
0200
0000
0000
,
0000
0310
0010
0100
,
1000
0000
0001
0000
0000
0200
0000
0000
,
0000
0301
1000
0100
,
0010
0100
1000
0010
,
0010
0100
0001
0010
,
0010
0000
0100
0000
0000
0020
0000
0000
,
0000
0130
1000
0010
,
0100
0000
0001
0000
0000
2000
0000
0000
,
0000
3100
0100
0010
,
0001
0000
1000
0000
0000
0200
0000
0000
,
0000
1300
0010
0100
,
0001
1000
0001
0010
,
0010
0001
1000
1010
,
0000
1100
0000
0110
,
0000
0011
0000
0101
,
0000
2002
0000
0000
,
0000
0000
0000
0000
,
0000
0000
3003
0000
;

//--------------- dance-single - Pandemonium X ----------------
#NOTES:
     dance-single:
     Pandemonium X:
     Medium:
     15:
     0,0,0,0,0:
0000
0000
0000
0000
,
0000
0000
0000
0000
,
0000
0000
0000
0000
,
0000
0000
0000
0000
,
0000
0000
0000
0000
,
0000
0000
0000
0000
,
0000
0000
0000
0000
,
0000
0000
0000
0000
,
0000
0000
0000
0000
,
0101
0101
0000
0000
,
1010
0000
0000
0000
,
1100
0000
1100
0000
0000
0011
0000
0000
,
1100
0000
0000
0000
,
1001
1001
0000
0000
,
0101
0000
1001
0000
,
0001
1000
0010
0000
1000
0000
0001
0000
,
0010
0100
1000
0000
0100
0000
0010
0000
,
0011
1100
0000
0000
,
1001
0000
0000
0000
,
0101
0000
1010
0000
0000
1100
0000
0000
,
0011
0000
0000
0000
,
1001
1001
0000
0000
,
1100
0000
1001
0000
,
0001
0100
0001
0000
0100
0000
0010
0000
,
1000
0010
1000
0000
0010
0000
1000
0000
,
0001
1000
0010
1000
0000
1000
0001
0010
,
0100
0010
0001
0100
0010
1000
0100
0010
,
0000
0010
0001
0100
0010
1000
0100
0010
,
0200
0000
0000
0000
1300
0001
0010
0100
,
0000
0100
0010
0001
0100
0010
1000
0100
,
0010
0001
0100
0010
0000
0010
0100
0001
,
1000
0000
1000
0001
0000
0001
0100
0000
0010
1000
0000
0000
,
0100
1000
0010
0100
,
1000
0100
0101
0101
,
0001
0100
0010
0001
,
0010
0100
0101
0011
,
0001
0010
0001
0000
0010
0100
0010
0000
,
0100
1000
0100
0000
1000
0001
1000
0000
,
0001
0100
0010
1000
0001
0100
0010
1000
,
0000
0000
0000
0000
0001
0000
0100
0000
0010
0000
0000
0100
0000
0100
0000
0000
,
0010
0000
1000
0000
0001
0000
0010
0000
0001
0000
0000
0100
0000
0100
0000
0000
,
0010
0000
0100
0000
0001
0000
1000
0000
0100
0000
0000
0010
0000
0010
0000
0000
,
0100
0000
1000
0000
0001
0000
1000
0000
0010
0000
0000
0010
0200
0000
0000
0000
,
0001
0000
0000
0000
0301
0000
0010
0000
0100
0000
0000
1000
0000
1000
0000
0000
,
0010
0000
1000
0000
0100
0000
0010
0000
0100
0000
0000
0010
0000
0010
0000
0000
,
0100
0000
1000
0000
0001
0000
0100
0000
0001
0000
0000
0010
0000
0010
0000
0000
,
0001
1000
1000
0100
0010
0001
1000
0100
,
0010
0000
0001
0000
1000
0000
0010
0000
0100
0000
0000
0001
0000
0010
0000
0000
,
0100
0000
1000
0000
0001
0000
1000
0000
0010
0000
0000
1000
0000
0100
0000
0000
,
0010
0000
0100
0000
1000
0000
0001
0000
0100
0000
0000
0010
0000
0100
0000
0000
,
0010
0000
1000
0000
0100
0000
0010
0000
0001
0000
0000
0001
0200
0000
0000
0000
,
0001
0000
0000
0000
0310
0000
1000
0000
0100
0000
0000
0010
0000
0100
0000
0000
,
0010
0000
0001
0000
1000
0000
0001
0000
0100
0000
0000
0010
0000
0100
0000
0000
,
0010
0000
1000
0000
0100
0000
0010
0000
0100
0000
0000
1000
0000
0001
0000
0000
,
0010
0001
0001
0010
0100
1000
0001
0010
,
0100
1000
0001
0100
0000
0010
0000
0010
,
0000
0101
0101
0101
,
1001
0000
1000
0010
0000
0100
0000
0100
,
0000
0000
1010
0000
1010
0000
1000
0010
,
0100
0001
0010
0100
0000
0010
0000
0010
,
0000
1100
1100
1100
,
1001
0101
0101
0101
,
0010
0000
1001
0000
1001
0000
1000
0100
,
0010
0001
1000
0100
0000
0001
0000
0100
,
0000
1000
0010
0000
0001
0000
0010
0000
,
0100
0000
0001
0010
0000
1000
0000
0010
,
0000
0001
0100
0000
1000
0000
0100
0001
,
1000
0100
0010
0100
0000
0010
0000
0100
,
0010
0001
1000
0000
0010
0000
0010
0100
,
0001
0010
0100
0000
0100
0000
0100
0000
,
0100
0010
0000
0110
0000
0110
0000
1000
,
1001
0001
0000
0100
,
0000
0010
1000
0100
,
0000
0010
0000
0001
,
0000
0100
0001
0010
,
0000
0100
0000
0010
,
0000
0001
0000
1000
,
0000
0001
0100
0010
,
1000
0000
0001
0000
0010
0000
0100
0010
,
0001
1000
0020
0000
0000
0000
1000
0000
,
0000
0100
0000
1030
,
0000
0200
0000
0010
,
0000
1000
0000
0310
,
0000
0100
0000
0010
,
0000
0100
0000
1000
,
0000
0000
1000
0100
1000
0010
0100
0001
,
0010
0100
0010
0001
0100
0010
1000
0100
,
0010
0001
0100
0000
0001
0010
0001
0100
,
0001
0010
0001
0100
0001
0010
0001
0100
,
0001
0000
1001
0000
1000
0010
0100
0010
,
1000
0010
0100
0010
1000
0010
0100
0010
,
1000
0000
0001
0100
0010
0100
0001
1000
,
0100
1000
0010
0100
0010
1000
0100
1000
,
0001
0010
0100
0010
0001
0100
0010
1000
,
0001
0010
0100
0010
0001
0100
0010
1000
,
0001
0010
0001
0000
1000
0020
0000
0000
,
0000
0000
0130
1000
0100
0001
1000
0100
,
0010
0001
1000
0000
0001
0200
0000
0000
,
0000
0000
0310
0000
1001
0000
0001
0010
,
0100
0010
0001
0000
1000
0020
0000
0000
,
0000
0000
0130
0001
0010
0100
1000
0010
,
1000
0000
0001
0000
1000
0000
0100
0000
1000
0000
0001
0000
0100
0000
0000
0001
,
0000
0000
0010
0000
0100
0000
0010
0000
0001
0000
1000
0000
0010
0000
0000
1000
,
0000
0100
0010
0000
0100
2000
0000
0000
,
0000
3010
0001
0010
0100
0001
1000
0100
,
0010
0100
1000
0000
0001
0200
0000
0000
,
0000
0000
0310
0000
1001
0000
0001
0100
,
0010
1000
0100
0000
0010
0200
0000
0000
,
0000
0000
0310
0100
1000
0010
0100
0001
,
1000
0000
0000
0000
0001
0000
0010
0000
0100
0000
0010
0000
0001
0000
0000
1000
,
0000
0000
0100
0000
1000
0000
0100
0000
0010
0000
0100
0000
1000
0000
0000
1000
,
0000
0000
1000
0000
0001
0000
0000
0001
0000
0000
0001
0000
0100
0000
0000
0100
,
0000
0000
0100
0000
0010
0000
0000
0010
0000
0000
0010
0000
1000
0000
0000
0001
,
0000
1000
2002
0000
0000
0000
0000
0000
,
0000
0000
0000
0000
,
0000
0000
3003
0000
;

//--------------- dance-single - Pandemonium X 1/20/25 ----------------
#NOTES:
     dance-single:
     Pandemonium X:
     Hard:
     18:
     0,0,0,0,0:
0000
0000
0000
0000
,
0000
0000
0000
0000
,
0000
0000
0000
0000
,
0000
0000
0000
0000
,
0000
0000
0000
0000
,
0000
0000
0000
0000
,
0000
0000
0000
0000
,
0000
0000
0000
0000
,
0000
0000
0000
0000
,
0001
0000
0000
0000
1000
0000
0020
0000
0000
0000
0000
0000
0000
0000
0130
0001
,
0100
0000
0000
0000
0001
0010
0001
0000
0010
0000
0100
0000
0010
0000
0001
0000
,
1000
0000
0000
0000
0001
0000
0020
0000
0000
0000
0000
0000
0000
0000
0130
1000
,
0100
0000
0000
0000
1000
0010
1000
0000
0001
0000
0010
0000
0100
0000
1000
0000
,
0001
0000
0000
0000
0100
0000
0002
0000
0000
0000
0000
0000
0000
0000
1003
0100
,
1000
0000
0000
0000
0100
1000
0100
0000
2000
0000
0000
0000
3000
0000
0000
0000
,
0001
0000
1000
0000
0100
0000
1000
0000
0001
0000
1000
0100
0000
1000
0001
0000
,
1000
0000
0001
0000
0100
0000
0001
0000
1000
0000
0001
0100
0000
0001
1000
0000
,
0100
0000
0000
0000
0010
0000
0002
0000
0000
0000
0000
0000
0000
0000
0103
0010
,
0100
0000
0000
0000
0010
0100
0010
0000
0100
0000
0010
0000
0100
0000
0001
0000
,
0010
0000
0000
0000
0100
0000
2000
0000
0000
0000
0000
0000
0000
0000
3100
0010
,
0100
0000
0000
0000
0010
0100
0010
0000
0100
0000
1000
0000
0001
0000
1000
0000
,
0010
0000
0000
0000
1000
0000
0200
0000
0000
0000
0000
0000
0000
0000
0310
0001
,
0010
0000
0000
0000
0001
0010
0001
0000
0002
0000
0000
0000
0003
0000
0000
0000
,
1000
0000
0100
0000
0010
0000
0100
0000
1000
0000
0100
0010
0000
0100
1000
0000
,
0001
0000
1000
0000
0100
0000
0010
0000
0001
0000
0100
0001
0000
0100
0010
0000
,
1000
0010
1000
0000
0001
0000
0010
0100
0000
0000
1000
0010
1000
0000
0001
0000
,
0010
0001
0010
0000
0001
0000
1000
0001
1000
0100
1000
0000
0001
0000
0100
0010
,
0000
0000
0100
0001
0100
0000
0010
0000
1000
0100
1000
0000
0001
0000
1000
0002
,
0000
0000
0000
0000
0000
0000
0000
0000
1003
0100
1000
0000
0001
0000
0100
0010
,
0000
0000
1000
0100
1000
0000
0001
0000
0100
0001
0100
0000
0001
0000
1000
0001
,
1000
0010
1000
0000
0001
0000
0010
0100
0000
0000
0010
0100
0010
0000
0100
0000
,
1000
0100
1000
0100
0010
0100
0010
0001
0010
0100
0000
0000
,
1000
0100
1000
0001
,
0100
0001
0011
0101
,
0001
1000
0010
0100
,
0010
1000
1100
1010
,
1000
1001
0001
0011
,
0010
0110
0100
1100
,
0001
0010
0001
1000
0100
1000
0001
0010
,
0000
0000
0000
0000
0001
0000
0100
0000
0001
0000
0010
0001
0000
0010
0100
0000
,
1000
0000
0001
0000
0010
0000
0100
0000
1000
0000
0010
0100
0000
0010
1000
0000
,
0001
0000
0010
0000
0100
0000
0010
0000
0001
0000
0100
0001
0000
0010
0100
0000
,
0010
0000
0001
0000
1000
0000
0010
0000
0100
0000
0000
0010
2000
0000
0000
0000
,
3001
0000
0010
0000
0100
0000
1000
0000
0100
0000
1000
0100
0000
0010
0100
0000
,
0010
0000
0001
0000
0100
0000
0001
0000
1000
0000
0010
0100
0000
0010
1000
0000
,
0100
0000
0010
0000
0001
0000
1000
0000
0001
0000
0010
0100
0000
0010
0001
0000
,
1000
0010
2000
3100
0020
0130
2000
3100
,
0020
0000
0130
0000
1000
0000
0010
0000
0100
0000
0010
0100
0000
0001
0010
0000
,
0100
0000
0010
0000
0100
0000
1000
0000
0001
0000
0010
0100
0000
0010
0001
0000
,
0100
0000
0010
0000
1000
0000
0001
0000
0010
0000
0100
0010
0000
0100
1000
0000
,
0001
0100
0010
0100
0001
1000
0200
0000
,
0310
0000
0100
0000
1000
0000
0001
0000
0010
0000
0100
1000
0000
0010
0100
0000
,
0001
0000
0010
0000
0001
0000
0010
0000
0100
0000
0010
0001
0000
0010
0100
0000
,
0010
0000
0001
0000
0100
0000
0010
0000
1000
0000
0001
1000
0000
0010
0100
0000
,
0001
1000
0002
0013
0200
1300
0002
0013
,
0200
1300
0001
0100
0000
0010
0000
0010
,
0000
0000
0000
0000
0001
0000
0000
0000
0010
0000
0000
0000
1000
0000
0001
1000
,
0001
1000
0001
0100
0000
0010
0000
0001
,
0000
0000
0100
0000
1000
0000
0000
0000
0100
0000
0000
0000
0100
0000
0010
0100
,
0010
0100
0001
1000
0000
0010
0000
0100
,
0000
0010
1000
0000
0010
0000
0100
0000
,
0001
0010
0010
0010
,
0001
0000
0000
0000
1000
0000
0000
0000
1000
0000
0000
0000
1000
0000
0010
0100
,
0010
0100
0001
0010
0000
0110
0000
0011
,
0000
0000
0001
0000
0021
0000
0000
0000
0100
0000
0000
0000
0031
0000
1000
0001
,
1000
0001
0010
0100
0000
1100
0000
1010
,
0000
0000
1000
0000
1200
0000
0000
0000
0010
0000
0000
0000
1300
0000
0001
1000
,
0001
1000
0010
0100
0000
1001
0000
0001
,
1000
0000
0010
0000
1020
0000
0000
0000
0100
0000
0000
0000
1030
0000
0001
1000
,
0001
0010
0200
0000
1000
0000
0310
0000
,
0100
0000
2100
0000
0000
0000
0001
0000
0000
0000
3010
0100
0010
0000
0100
0000
,
0101
0000
2010
0000
0000
3100
1000
0010
,
0100
0010
1000
0001
0010
0100
0010
0001
,
1000
0001
0020
0000
0000
0130
0010
0001
,
0100
0010
1000
0001
1000
0001
1000
0001
,
1000
0001
0010
0100
0000
1000
0000
1100
,
0000
0000
1000
0010
0000
0100
0000
0101
,
0000
0000
0001
0100
0000
0100
0010
1000
,
0000
0000
1000
0000
0100
0000
0010
0000
0001
0000
1000
0000
0010
0100
0010
0100
,
0010
0100
0010
0100
0020
0000
0000
0000
0000
0000
0000
0000
1030
0000
0000
0000
,
0100
1000
0001
0100
,
0001
0020
0000
0130
,
0010
0000
0001
1000
0001
1000
0001
1000
,
0100
0010
0000
0100
,
0000
1000
0000
0001
,
0000
0000
0000
0000
1000
0010
1000
0010
1000
0010
1000
0010
1000
0010
1000
0010
,
1000
0010
1000
0010
1000
0000
0001
0000
1000
0100
0010
0001
1000
0001
1000
0001
,
1000
0010
0100
0001
1000
0000
0000
0000
0001
0010
0001
0010
0001
0010
0001
0010
,
0001
0010
0001
0010
0001
0010
0100
0000
0100
1000
0010
0000
0010
0100
0001
0000
,
0001
1000
0100
0000
1000
0000
0001
0000
1000
0100
1000
0100
1000
0100
1000
0100
,
1000
0100
1000
0100
1000
0100
0010
0000
0010
0001
0100
0000
0100
0010
1000
0000
,
1000
0010
0100
0000
0001
0010
0001
0010
0001
0010
0001
0010
0001
0010
0001
0010
,
0001
0000
0100
0000
0010
1000
0010
1000
0010
1000
0010
1000
0010
1000
0010
1000
,
0010
0000
0100
0000
0001
1000
0001
0000
1000
0010
1000
0000
0001
0100
0001
0000
,
0010
0100
0010
0000
0100
1000
0100
0010
0001
0010
0001
0100
0001
0100
0010
1000
,
0010
0100
0001
0010
0001
0000
0000
0000
1000
0000
0020
0000
0000
0000
0000
0000
,
0000
0000
0130
0001
0010
0100
1000
0100
1000
0100
1000
0100
1000
0100
1000
0100
,
1000
0000
1001
0000
0001
0200
0000
0000
,
0000
0000
0310
1000
0100
0010
0000
0000
0010
0001
0000
0000
0010
0000
0100
0000
,
1100
0000
0001
0000
1000
0002
0000
0000
,
0000
0000
1003
0100
0010
0100
0010
0100
0010
0100
0010
0100
0010
0100
0010
0100
,
0010
0000
0000
0000
0100
0000
1000
0000
0001
0000
1000
0000
0100
0000
0010
0001
,
0000
0010
0100
0000
0010
0000
0001
0000
0100
0000
0010
0000
1000
0000
0100
0010
,
0000
0100
1000
0000
0001
0000
0000
0000
1000
0000
0020
0000
0000
0000
0000
0000
,
0000
0000
0130
0010
1000
0100
1000
0100
1000
0100
1000
0100
1000
0100
1000
0100
,
1000
0000
0001
0000
1000
0020
0000
0000
,
0000
0000
0000
0000
1030
0001
0000
0000
0010
0100
0000
0000
0010
0000
0001
0000
,
0101
0000
1001
0000
0001
0200
0000
0000
,
0000
0000
0310
1000
0100
0010
0100
0010
0100
0010
0100
0010
0100
0010
0100
0010
,
0100
0000
0000
0000
1000
0000
0001
0000
0100
0000
0010
0000
1000
0000
0100
0010
,
0000
0100
1000
0000
0010
0000
0100
0000
0001
0000
0010
0000
0001
0000
1000
0010
,
0000
0100
0001
0000
1000
0000
0001
0010
0000
0100
1000
0000
0001
0000
1000
0010
,
0000
0100
0001
0000
1000
0000
0001
0010
0000
0100
1000
0000
0001
0000
1000
0010
,
0000
0100
0001
0000
2002
0000
0000
0000
0000
0000
0000
0000
0000
0000
0000
0000
,
0000
0000
0000
0000
,
0000
0000
3003
0000
;
