#TITLE:Caesar;
#SUBTITLE:;
#ARTIST:Abel & WONDERTRAVELER Project;
#TITLETRANSLIT:;
#SUBTITLETRANSLIT:;
#ARTISTTRANSLIT:;
#GENRE:;
#CREDIT:;
#MUSIC:Caesar.ogg;
#BANNER:Caesar.png;
#BACKGROUND:Caesar-bg.png;
#CDTITLE:;
#SAMPLESTART:17.451;
#SAMPLELENGTH:10.681;
#SELECTABLE:YES;
#OFFSET:-0.106;
#BPMS:0.000=180.000;
#STOPS:;
#BGCHANGES:4.000=Ceasar.mp4=1.000=1=0=1===CrossFade==,
99999.000=-nosongbg-=1.000=0=0=0=StretchNoLoop====
;
#FGCHANGES:;

//--------------- dance-single - Pandemonium X ----------------
#NOTES:
     dance-single:
     Pandemonium X:
     Beginner:
     6:
     0,0,0,0,0:
0000
0000
0000
0000
,
0000
0000
0000
0000
,
0000
0000
0000
0000
,
0000
0000
0000
0000
,
0000
0000
0000
0000
,
0000
0000
0000
0000
,
0000
0000
0000
0000
,
0000
0000
0000
0000
,
0000
0000
0000
0000
,
0220
0000
0000
0000
,
0000
0000
0000
0330
,
0001
0000
1000
0000
,
0001
0000
0010
0000
,
0200
0300
0010
0000
,
0002
0003
1000
0000
,
0020
0030
0100
0000
,
0002
0003
1000
0100
,
2000
3000
0010
0000
,
0200
0300
0001
0000
,
0020
0030
0100
0000
,
0010
0010
0002
0003
,
1001
0000
0001
0000
,
0100
0100
0100
0000
,
1001
0000
0001
0000
,
1000
0000
0100
0000
,
0110
0000
0000
0000
,
1001
0000
0000
0000
,
0001
0000
1000
0000
,
0010
1000
0001
0100
,
0010
0000
0000
0000
,
0100
0000
0000
0000
,
0001
0000
1000
0000
,
0220
0000
0000
0330
,
1001
0000
0000
0000
,
0000
0000
0001
0100
,
0010
0000
0000
0000
,
0000
0000
0100
0010
,
1000
0000
0000
0000
,
0001
0000
1000
0000
,
0100
0000
0010
0000
,
0001
0010
0100
1000
,
1001
0000
0000
0000
,
0000
0000
0001
1000
,
0010
0000
0000
0000
,
0000
0000
1000
0100
,
0010
0000
0000
0000
,
0100
0000
0010
0000
,
0001
0000
1000
0000
,
0010
0100
0010
0000
,
2000
0000
0000
3000
,
0002
0000
0000
0003
,
0020
0000
0000
0030
,
0200
0000
0000
0300
,
0020
0000
0000
0030
,
0002
0000
0000
0003
,
2000
0000
0000
3000
,
0020
0000
0000
0030
,
1001
0000
0001
0000
,
1000
0000
0010
0000
,
1000
0000
0001
0000
,
1000
0100
1000
0000
,
0001
0000
0000
0000
,
0100
0000
0010
0000
,
1000
0000
0001
0000
,
0010
0000
0000
0100
,
1001
0000
0000
0000
,
0110
0000
0000
0000
,
1001
0000
0110
0000
,
1001
0000
0110
0000
,
1001
0000
0001
0100
,
0001
0000
1000
0010
,
1000
0000
0001
0100
,
0001
0000
1000
0000
,
1001
0000
1000
0100
,
1000
0000
0100
0010
,
0100
0000
0010
0001
,
0010
0010
0010
0000
,
0002
0000
0000
0003
,
1001
0000
0000
0100
,
1001
0000
0001
0000
,
2000
0000
3000
0010
,
1001
0000
0001
0000
,
1000
0100
1000
0001
,
0101
0000
1010
0000
,
0101
0000
1010
0000
,
1001
0000
0110
0000
,
2000
0000
0000
3000
,
0001
0001
1000
1000
,
0010
0010
0100
0100
,
0001
1000
0001
1000
,
0001
1000
0001
1000
;

//--------------- dance-single - Pandemonium X ----------------
#NOTES:
     dance-single:
     Pandemonium X:
     Easy:
     9:
     0,0,0,0,0:
0000
0000
0000
0000
,
0000
0000
0000
0000
,
0000
0000
0000
0000
,
0000
0000
0000
0000
,
0000
0000
0000
0000
,
1000
0100
0010
0100
,
2000
0000
3100
0010
,
0001
0010
0100
0010
,
0002
0000
0003
1000
,
0220
0000
0000
0000
,
0000
0000
0000
0330
,
1010
0000
0101
0000
,
0011
1100
1001
0000
,
0201
0300
0001
1000
,
0200
0300
1000
0001
,
0200
0300
0001
1000
,
0020
0030
1000
0010
,
0102
0003
0010
0001
,
2000
3000
0100
0010
,
0002
0003
0010
0100
,
1001
0110
1001
0000
,
0101
0000
0001
0000
,
1000
0100
1000
0001
,
0011
0000
0001
0100
,
0010
0000
1000
0000
,
0001
0100
0020
0030
,
1000
0100
0020
0230
,
1300
0000
0001
1000
,
1010
0001
0011
1100
,
1002
0000
2003
0000
,
3002
0000
0203
0000
,
0302
0000
0023
0000
,
0230
2000
0000
3300
,
0011
0001
1000
0010
,
1000
0001
0200
0302
,
0023
0130
0010
0001
,
1000
0010
0200
0320
,
2030
3001
1000
0010
,
0200
0301
1000
0100
,
0110
0010
0011
0001
,
1000
0001
0100
0001
1000
0010
1000
0000
,
0101
0000
0000
1000
0000
1000
0000
1000
,
0000
1000
0000
1000
0200
0000
0320
0000
,
0032
0000
0003
0010
0000
0010
0000
0010
,
0000
0010
0000
0010
0002
0000
0203
0000
,
0320
0030
0100
0001
,
2000
3000
0001
1000
,
1100
1000
1001
0001
,
0101
1010
2001
3000
,
0002
0003
2000
3000
,
0200
0300
0020
0030
,
0002
0003
0020
0030
,
0200
0300
0020
0030
,
0002
0003
2000
3000
,
0020
0030
2000
3000
,
0200
0300
0020
0030
,
0200
0000
0020
0330
,
1001
0000
1000
0001
,
0011
0000
0100
0000
,
1010
0000
1000
0010
,
0110
0110
1001
0002
,
1003
0000
0100
0000
,
0110
0010
0011
0001
,
0201
0300
0101
1000
,
2020
0000
3030
0010
,
1001
0000
0000
0000
,
0110
0000
0000
0000
,
1001
0000
0110
0000
,
2002
3003
0220
0330
,
2001
3000
0001
1000
,
0020
0030
0100
0001
,
0020
0030
0100
0010
,
0002
0003
0010
0100
,
2100
3000
0100
1000
,
0020
0030
0100
0001
,
2000
3000
0001
1000
,
1100
0110
0011
0000
,
1200
0300
1000
0001
,
0101
1010
0101
0002
,
0023
0030
0100
0010
,
0011
1100
0011
2000
,
3001
0000
1100
0000
,
0011
0001
0101
0100
,
0110
0000
1010
0000
,
0101
0000
0011
1001
,
1100
0011
1100
1001
,
0020
0000
0000
0030
,
1001
0110
1001
0110
,
0101
1010
0101
0110
,
1100
0110
0011
0110
,
1100
0011
0101
1010
,
1001
0000
0000
0000
;

//--------------- dance-single - Pandemonium X ----------------
#NOTES:
     dance-single:
     Pandemonium X:
     Medium:
     12:
     0,0,0,0,0:
0000
0000
0000
0000
,
0000
0000
0000
0000
,
0000
0000
0000
0000
,
0000
0000
0000
0000
,
0000
0000
0000
0000
,
0001
0100
0001
0010
,
0200
0000
0310
0001
,
1000
0100
0010
0001
,
2000
0000
3000
0010
,
0202
0000
0000
0000
,
0000
0000
0000
0300
,
1003
0000
0000
1000
0000
0000
1000
0000
0010
0000
0000
0010
0000
0000
0010
0000
,
0100
0000
0000
0010
0000
0000
1000
0000
1001
0000
0000
0000
0000
0000
0000
0000
,
0201
0000
0000
0000
0300
0000
0001
0000
0010
0000
0000
0010
0000
0000
0100
0000
,
2000
0000
0000
0000
3000
0000
0100
0000
0010
0000
0000
0010
0000
0000
0001
0000
,
2000
0000
0000
0000
3000
0000
0001
0000
0100
0000
0000
0100
0000
0000
0001
0000
,
0020
0000
0030
0001
0010
0100
0010
0001
,
2001
0000
0000
0000
3000
0000
0001
0000
0100
0000
0000
0100
0000
0000
0010
0000
,
1020
0000
0000
0000
0030
0000
0100
0000
0010
0000
0000
0010
0000
0000
1000
0000
,
2100
0000
3000
0100
0010
0100
1000
0010
,
0100
0000
0000
0100
0000
0000
0100
0000
0002
0000
0000
0000
0003
0000
0000
0000
,
1100
0000
0000
0000
0000
0000
0100
0000
1000
0000
0000
1000
0000
0000
1000
0000
,
0001
0000
0000
0001
0000
0000
0001
0000
0100
0000
0000
0000
0001
0000
0000
0000
,
1010
0000
0000
1000
0000
0000
1000
0000
0010
0000
0000
0000
0100
0000
0000
0000
,
0001
0000
0000
1000
0200
0000
0300
0000
,
0011
0000
0000
0001
0000
0000
0100
0000
0020
0000
0000
0000
0030
0000
0000
0000
,
0110
0000
0000
0100
0000
0000
0010
0000
1000
0000
0000
0000
0001
0000
0000
0000
,
1001
0000
0000
0000
0000
0000
0001
0000
1000
0000
0000
0010
0000
0000
1000
0000
,
0001
0011
0100
1100
,
2002
0000
0000
0000
3003
0000
0000
0000
1000
0000
0000
0100
0000
0000
0010
0000
,
0022
0000
0000
0000
0033
0000
0000
0000
0001
0000
0000
0100
0000
0000
0010
0000
,
1020
0000
0000
1030
0000
0000
0010
0000
0201
0000
0000
0301
0000
0000
0010
0000
,
0021
0200
0000
0330
,
1001
0000
1000
0010
1000
0000
0001
0100
,
0001
0000
0000
0000
1000
0000
0010
0000
1000
0000
0000
0001
0000
0000
0010
0000
,
0200
0000
0310
0001
0010
0000
0010
0100
,
0010
0000
0000
0000
0010
0000
0001
0000
0010
0000
0000
0100
0000
0000
1000
0000
,
0002
0000
1003
0010
0100
0000
0010
0100
,
0002
0000
0000
0000
0103
0000
0010
0000
1000
0000
0000
0001
0000
0000
0010
0000
,
0100
0000
0000
0100
0000
0000
0100
0000
0010
0000
0001
0000
1000
0000
0001
0000
,
0100
1000
0100
0010
1000
0001
0010
0100
,
1100
0000
0000
1001
0000
0101
0000
1001
,
0000
0000
1100
0000
0000
0000
1000
0000
0001
0000
0000
0001
0000
0000
0100
0000
,
0110
0000
0000
1010
0000
1001
0000
0011
,
0000
0000
1001
0000
0000
0000
1010
0000
0010
0000
0000
0100
0000
0000
0001
0000
,
1001
0000
1000
0100
0010
0000
0001
0010
,
0110
0000
0000
0000
0100
0000
1000
0000
0010
0000
0000
0010
0000
0000
0010
0000
,
0100
0000
0000
0001
0000
0000
1000
0000
0010
0000
0000
1000
0000
0000
0100
0000
,
0110
0000
0000
0010
0000
0000
0011
0000
1001
0000
0000
0000
0000
0000
0000
0000
,
1020
0000
0230
0000
,
0302
0000
0023
0000
,
2030
0000
3020
0000
,
0230
0000
2300
0000
,
3002
0000
0203
0000
,
2300
0000
3200
0000
,
0320
0000
2030
0000
,
3002
0000
2000
3003
,
0110
0000
0000
0000
0000
0000
1000
0000
0001
0000
0000
0010
0000
0000
1000
0000
,
0020
0000
0000
0130
2000
0000
3000
0010
,
0200
0000
0000
0000
0300
0000
0010
0000
1000
0000
0000
1000
0000
0000
0001
0000
,
1001
0000
0101
0000
1001
0000
1000
0100
,
0020
0000
0000
0000
0030
0000
0100
0000
1000
0000
0000
0010
0000
0000
0100
0000
,
0101
1010
1100
0011
,
2001
0000
0000
0000
0000
0000
3001
0000
0100
0000
0000
0001
0000
0000
1000
0000
,
2200
0000
3300
0010
,
1001
0000
0000
1000
0001
0000
0000
0001
0100
0000
0000
0100
0010
0000
1000
0000
,
0100
0000
0000
0010
0001
0000
0000
0001
0100
0000
0000
0100
0010
0000
1000
0000
,
0100
0000
0000
0010
0100
0000
0000
0100
1000
0000
0000
1000
0010
0000
0100
0000
,
0201
0001
0310
0000
1020
1000
0130
0000
,
2002
0000
0000
0000
3003
0000
1000
0000
0100
0000
0000
0100
0000
0000
1000
0000
,
0020
0000
0000
0000
0030
0000
0100
0000
0001
0000
0000
0001
0000
0000
0010
0000
,
0200
0000
0000
0000
0300
0000
0010
0000
0001
0000
0000
0001
0000
0000
1000
0000
,
0002
0000
0003
0100
1000
0100
0001
1000
,
1200
0000
0000
0000
0300
0000
0010
0000
0100
0000
0000
0100
0000
0000
1000
0000
,
1002
0000
0000
0000
0003
0000
0100
0000
0001
0000
0000
0001
0000
0000
0010
0000
,
0210
0000
0300
0010
0001
0010
0100
1000
,
1100
0000
0000
0110
0000
0000
1100
0000
2010
0000
0000
0000
0000
0000
0000
0000
,
3002
0000
0000
0000
0003
0000
1000
0000
0010
0000
0000
0010
0000
0000
0100
0000
,
0101
0000
0000
0011
0000
0000
1100
0000
1001
0000
0000
1000
0100
0000
1000
0000
,
0002
0000
0000
0000
0003
0000
1000
0000
0010
0000
0000
0010
0000
0000
0100
0000
,
0101
0000
0000
1010
0000
0000
1100
0000
1001
0000
0000
0000
1000
0000
0100
0000
,
0020
0000
0000
0000
0030
0000
0100
0000
1000
0000
0000
0100
0000
0000
1000
0000
,
1001
0000
0000
0001
0000
0000
0100
0000
0110
0000
0000
0000
1010
0000
0000
0000
,
0201
0000
0300
0010
2000
0000
3000
0001
,
0200
0000
0300
0010
2000
0000
3002
0000
,
1003
0000
0000
0100
0000
0000
0010
0000
0011
0000
0000
0000
1100
0000
0000
0000
,
0120
0000
0000
0030
,
1001
0101
1001
1100
,
1010
0101
0011
0110
,
1000
0100
1000
0100
0010
0001
0010
0001
,
1000
0100
0010
0001
1000
0100
0010
0001
,
0200
0000
0000
0000
,
0000
0000
0000
0000
,
0300
0000
0000
0000
;

//--------------- dance-single - Pandemonium X ----------------
#NOTES:
     dance-single:
     Pandemonium X:
     Hard:
     15:
     0.69487,0.989767,0.66221,0.480891,0.520308,617,533,84,61,0,0,0.69487,0.989767,0.66221,0.480891,0.520308,617,533,84,61,0,0:
0000
0000
0000
0000
,
0000
0000
0000
0000
,
0000
0000
0000
0000
,
0000
0000
0000
0000
,
0000
0000
0000
1000
,
0001
0100
0001
0010
,
0200
0000
0310
0001
,
1000
0010
0100
1000
,
0200
0000
0000
0310
,
2002
0000
0000
0000
,
0000
0000
0000
3003
,
0101
0000
0000
0001
0000
0000
0001
0000
0011
0000
0000
0010
0000
0000
0010
0000
,
0110
0000
0000
1001
0000
0000
0110
0000
1001
0000
0000
0000
0000
0000
0000
0000
,
1001
0000
0000
0000
0000
0000
0001
0100
0001
0000
0000
1000
0000
0000
0100
0000
,
0020
0000
0000
0000
0030
0000
0100
1000
0100
0000
0000
0010
0000
0000
0001
0000
,
2000
0000
0000
0000
3000
0000
0010
0100
0010
0000
0000
1000
0000
0000
0001
0000
,
0020
0000
0000
0000
0030
0000
0100
0010
0001
0000
1000
0000
0010
0000
0100
0001
,
0020
0000
0000
0000
0030
0000
0100
1000
0100
0000
0000
1000
0000
0000
0001
0000
,
0200
0000
0000
0000
0300
0000
0010
1000
0010
0000
0000
0100
0000
0000
0001
0000
,
0020
0000
0000
0000
0030
0000
0100
0010
0100
0000
0010
0000
0001
0000
1000
0000
,
1010
0000
0000
0101
0000
0000
0001
1000
0200
0000
0000
0000
0300
0000
0000
0000
,
0011
0000
0000
0000
0000
0000
0010
0001
1000
0000
0000
1000
0000
0000
0001
0000
,
1000
0000
0000
0010
0000
0000
1000
0000
0001
0000
0000
0000
1010
0000
0000
0000
,
0110
0000
0000
0100
0000
0000
0010
0000
1000
0000
0000
0000
0100
0000
0000
0000
,
0010
0000
0000
0000
0000
0000
0010
0100
2000
0000
0000
0000
3000
0000
0000
0000
,
1001
0000
0000
1000
0000
0000
0001
0000
0020
0000
0000
0000
0030
0000
0000
0000
,
1001
0000
0000
1000
0000
0000
0001
0000
0200
0000
0000
0000
0302
0000
0000
0000
,
0013
0000
0100
0000
1000
0000
0001
0100
0001
0000
0100
0010
0000
0100
0001
0000
,
0101
1010
0101
1100
,
1001
0000
0000
0000
0000
0000
0000
0000
2001
0000
0000
0001
0000
0000
3010
0000
,
0220
0000
0000
0000
0330
0000
0000
0000
0102
0000
0000
1000
0000
0000
0013
0000
,
1001
0000
0000
1000
0000
0000
0001
0000
1001
0000
0000
0001
0000
0000
1000
0000
,
1001
0000
0010
0100
0010
0100
0010
0100
0020
0000
0000
0000
0030
0000
0000
0000
,
1001
0000
1000
0100
1000
0010
1000
0001
,
0100
0000
0001
0000
0010
0000
0001
0000
1000
0000
0000
1000
0000
0000
0001
0000
,
0010
0000
0001
0100
0001
0010
0001
0100
,
0001
0000
1000
0000
0010
0000
1000
0000
0100
0000
0000
0100
0000
0000
0010
0000
,
0001
0000
0100
0010
1000
0010
0100
0001
,
0011
0000
0000
0000
1000
0000
0001
1000
0100
0000
0000
1000
0000
0000
0001
0000
,
0101
0000
0000
0011
0000
0000
1100
0000
1010
0000
1010
0000
0110
0000
0010
1000
,
0001
0010
0001
0000
1000
0100
1000
0000
0010
0100
0001
0000
0010
0100
1000
0000
,
0002
0000
1003
0010
0100
0010
1000
0001
,
0010
0000
0100
0000
0010
0000
0001
0000
1001
0000
0000
0101
0000
0000
1001
0000
,
2100
0000
3001
0100
0001
0010
0100
0010
,
0001
0000
1000
0000
0010
0000
1000
0000
1010
0000
0000
1100
0000
0000
1001
0000
,
0201
0000
0000
0000
0310
0000
1000
0000
0100
0000
1000
0000
0001
0000
0010
0100
,
2000
0000
0000
0000
3010
0000
0000
0000
0101
0000
0000
0011
0000
0000
0001
0000
,
1001
0000
0000
1100
0000
0000
1000
0000
1001
0000
0000
0011
0000
0000
0001
0000
,
1001
0000
0000
0101
0000
0000
0001
1000
0020
0000
0000
0000
0100
0000
0000
0000
,
2030
0000
0000
0000
0000
0000
0000
0000
3001
0000
0000
0010
0000
0000
0001
0000
,
1000
0000
0000
1000
0000
0000
0001
0000
0100
0000
0000
0000
0020
0000
0000
0000
,
1030
0000
0000
0100
0000
0000
0010
0000
0200
0000
0000
0000
2300
0000
0000
0000
,
3002
0000
0000
0000
0000
0000
1003
0010
0200
0000
0000
0000
0000
0000
0000
0000
,
0310
1000
0010
0100
0000
0000
0010
0100
0001
0010
0000
0000
,
0100
0010
0001
1000
0000
0000
0001
0010
0100
1000
0000
0000
,
0002
0000
0000
0000
0000
0000
1003
0010
0100
0000
0000
0001
0000
0000
0010
0000
,
0012
0000
2000
3003
,
1020
0000
0000
0000
0000
0000
0130
0001
0010
0000
0000
0010
0000
0000
0100
0000
,
1200
0000
0000
0000
0000
0000
1300
0010
0200
0000
0000
0000
0000
0000
0310
1000
,
0002
0000
0000
0000
0000
0000
1003
0010
0100
0000
0000
0100
0000
0000
0010
0000
,
0110
0000
0000
0000
1001
0000
0000
0000
0110
0000
0000
0000
0001
0100
0010
1000
,
0002
0000
0000
0000
0000
0000
1003
0100
0010
0000
0000
0010
0000
0000
0100
0000
,
2100
3200
0310
1001
,
0201
0000
0000
0000
0300
0000
0001
0100
0010
0000
0000
1010
0000
0000
0100
0000
,
2002
0000
3003
0110
,
1001
0000
0001
0100
0001
0000
0100
0010
0100
0000
0010
1000
0010
0000
1000
0000
,
0001
0000
0010
0001
0010
0000
0001
0100
0001
0000
0100
0010
0100
0000
0010
0000
,
1000
0000
0010
1000
0010
0000
1000
0100
1000
0000
0001
0010
0001
0000
0001
1000
,
0020
0000
0000
0000
0000
0000
0130
0001
2000
0000
0000
0000
0000
0000
3000
0000
,
1001
0000
0000
0000
0000
0000
1000
0010
1000
0000
0000
0001
0000
0000
0010
0000
,
0210
0000
0000
0000
0300
0000
0010
0001
0010
0000
0000
0100
0000
0000
1000
0000
,
1002
0000
0000
0000
0003
0000
0100
0010
0100
0000
0000
0001
0000
0000
1000
0000
,
1200
0000
0000
0000
0300
0000
0010
0100
1000
0000
0001
0000
0100
0000
0010
1000
,
0200
0000
0000
0000
0300
0000
0010
0001
0010
0000
0000
0001
0000
0000
1000
0000
,
1020
0000
0000
0000
0030
0000
0100
0001
0100
0000
0000
0010
0000
0000
1000
0000
,
1200
0000
0000
0000
0300
0000
0010
0100
0010
0000
0100
0000
1000
0000
0001
0000
,
0101
0000
0000
1010
0000
0000
1000
0001
0020
0000
0000
0000
0030
0000
0000
0000
,
0001
0000
1000
0000
0100
0000
0010
0000
0001
0010
0001
0010
0100
1000
0100
1000
,
0001
0000
0000
1010
0000
0000
1000
0000
0021
0000
0000
0130
0010
0001
0010
0100
,
2000
0000
0000
0000
0000
0000
3001
0100
0010
0000
0000
0010
0000
0000
1000
0000
,
1100
0000
0000
0011
0000
0000
0101
0000
1001
0000
0000
1000
0100
0010
0001
0010
,
0200
0000
0000
0000
0310
0000
0100
1000
0001
0000
0000
1000
0000
0000
0001
0000
,
0101
0000
0000
0001
0100
0000
0010
0000
1010
0000
0000
1000
0100
0000
0010
0000
,
0012
0000
0000
0000
0000
0000
0013
0100
2000
0000
0000
0000
0000
0000
3001
0100
,
0020
0000
0000
0000
0000
0000
0130
0001
2000
0000
0000
0000
3001
0000
0000
0000
,
1010
0000
0000
0101
0000
0000
0011
0000
1100
0000
0000
0000
1001
0000
0000
0000
,
0120
0000
0000
0030
,
1001
0001
1000
1000
0010
0010
0100
0100
,
1000
1000
0100
0100
0001
0001
0010
0010
,
0100
0100
0010
0010
0001
0001
1000
1000
,
0001
1000
0001
0000
0100
0010
0100
0000
0010
1000
0010
0000
0100
0001
0100
0000
,
0020
0000
0000
0000
,
0000
0000
0000
0000
,
0030
0000
0000
0000
;

//--------------- dance-single - Pandemonium X ----------------
#NOTES:
     dance-single:
     Pandemonium X:
     Challenge:
     17:
     0,0,0,0,0:
0000
0000
0000
0000
,
0000
0000
0000
0000
,
0000
0000
0000
0000
,
0000
0000
0000
0000
,
0000
0000
0000
0002
,
2003
3002
0203
2300
,
3020
0000
0032
1003
,
2000
3200
0302
0023
,
2030
0000
0000
3001
,
0220
0000
0000
0300
,
1030
0001
1000
0001
1000
0001
1000
0001
1000
0001
1000
0001
1000
0001
1000
0001
,
2000
0000
0000
3010
0000
0000
0001
1000
0002
0000
0000
0013
0000
0000
1000
0001
,
2000
0000
0000
3100
0000
0000
1000
0001
0200
0000
0000
0000
0302
0000
0000
0000
,
2003
0000
0000
0000
3000
0000
0100
0010
0001
0000
0000
0011
0000
0000
0001
0000
,
2001
0000
0000
0000
3000
0000
0001
0010
0100
0000
0000
1000
0000
0000
0100
0000
,
2100
0000
0000
0000
3000
0000
0010
1000
0001
0000
0000
1000
0000
0000
0100
0000
,
1002
0000
0000
0000
0003
0000
1000
0100
0010
0000
0001
0000
0010
0000
0100
1000
,
0020
0000
0000
0000
0030
0000
0100
0001
0010
0000
0000
0110
0000
0000
0100
0000
,
1002
0000
0000
0000
0003
0000
1000
0010
0100
0000
0000
0101
0000
0000
0001
1000
,
0100
0000
0100
0000
0010
0000
0010
0001
0100
0000
0100
0000
0010
0000
0100
0001
,
1000
0000
0000
1000
0000
0000
0001
0100
0020
0000
0000
0000
1030
0000
0100
0000
,
0021
0000
0000
0000
0000
0000
0031
0100
1000
0000
0000
0100
0000
0000
0001
0000
,
1000
0000
0000
0100
0000
0000
0001
0000
0100
0000
0000
0000
1000
0000
0000
0000
,
1001
0000
0000
1000
0000
0000
0010
0000
0001
0000
0000
0000
0010
0000
0000
0000
,
2000
0000
0000
0000
3000
0000
0001
0100
0020
0000
0000
0000
0030
0000
0000
0000
,
1001
0000
1000
0010
0000
0010
0100
0000
0202
0000
0000
0000
0303
0000
0000
0000
,
1001
0000
0001
0010
0000
0010
0100
0000
1100
0000
0000
0000
0011
0000
0000
0000
,
1001
0000
1000
0000
0001
0010
0100
0010
0001
0000
0010
0001
0000
0001
1000
0000
,
1100
0000
1000
0010
0100
0000
0100
0010
1000
0000
1000
0001
0010
0000
0010
0001
,
2000
0000
0000
0000
3000
0000
0000
0000
0101
0000
0000
0110
0000
0000
1010
0000
,
2002
0000
0000
0000
3003
0000
0000
0000
1100
0000
0000
0110
0000
0000
0011
0000
,
0110
0000
0000
1100
0000
0000
1010
0000
0101
0000
0000
1001
0000
0000
0110
0000
,
1002
0000
0000
0013
0100
0010
0100
0010
0200
0000
0000
0000
0320
0000
0000
0031
,
1000
0000
0000
0000
0001
0100
0001
0000
0100
0010
0100
0000
0010
1000
0010
0000
,
1000
0001
1000
0000
0100
0010
0100
0000
0011
0000
0010
0100
0000
0100
1000
0000
,
2010
0000
0000
0000
3010
0100
0010
0000
0100
0001
0100
0000
0001
0010
0001
0000
,
0010
0100
0010
0000
0100
1000
0100
0000
1100
0000
0100
0010
0000
0010
0001
0000
,
0021
0000
0000
0000
0031
0100
0001
0000
1000
0010
1000
0000
0010
0100
0010
0000
,
2010
0000
0000
0000
3001
0010
0001
1000
0100
0000
1000
0010
0000
0010
0100
0000
,
0102
0000
0000
0013
0000
0000
0001
0000
2001
0000
3010
0000
1002
0000
0013
0000
,
0001
0100
0010
1000
0001
0010
0100
1000
0001
0100
0001
1000
0100
0010
0100
1000
,
0020
0000
0000
0000
1030
0001
0010
0000
0100
0010
0001
0000
0010
0100
1000
0000
,
0100
1000
0010
0000
0100
0001
1000
0000
1001
0000
0001
0010
0000
0010
0100
0000
,
1200
0000
0000
0000
0310
0000
0011
0000
0001
1000
0100
0000
0010
0100
1000
0000
,
0100
1000
0001
0000
0100
0001
0010
0000
0100
0000
1000
0010
0000
0010
0100
0000
,
0102
0000
0000
0000
1003
0010
0100
0000
0010
1000
0001
0000
0010
0100
1000
0100
,
2000
0000
0000
0000
3100
0000
0000
0000
0011
0000
0000
1001
0000
0001
0010
0000
,
1100
0000
0000
0011
0000
0000
0101
0000
1010
0000
0000
1001
0000
0000
0110
0000
,
0001
0100
0010
1000
0001
0100
0010
1000
0001
0010
0100
1000
0001
0010
0001
0100
,
0020
0000
0000
0000
0000
0000
0000
0000
0230
0000
0000
2300
0000
0000
3200
0000
,
0302
0000
0000
0023
0000
0000
2030
0000
3020
0000
0000
0000
0230
0000
0000
0000
,
2300
0000
0000
3200
0000
0000
0302
0000
0203
0000
0000
0000
2300
0000
0000
0000
,
3020
0000
0000
0000
0000
0000
0130
0002
2000
0000
0000
0000
3003
0000
0000
0000
,
0001
0100
0010
0001
0010
1000
0100
0001
0100
0010
0100
0010
,
0001
0100
1000
0100
0010
1000
0010
0100
0010
1000
0001
0010
,
0100
1000
0100
0001
0100
0010
0001
0100
0010
1000
0010
0100
,
0002
0000
0000
0000
0000
0000
0000
0000
1003
0100
0010
0001
1000
0100
0010
0001
,
2000
0000
0000
0000
3000
0000
0001
0100
0001
0000
0000
1000
0000
0000
0010
0000
,
1002
0000
0000
0000
0003
0000
1000
0100
2000
0000
0000
0000
3000
0000
0010
0001
,
0200
0000
0000
0000
0300
0000
0001
0100
0010
0000
0000
1000
0000
0000
0001
0000
,
1001
0000
0000
0000
0110
0000
0000
0000
1001
0000
0000
0000
0001
0100
0010
1000
,
0020
0000
0000
0000
0030
0000
1000
0010
0100
0000
0000
0001
0000
0000
0100
0000
,
0201
0310
2010
3100
,
2002
0000
0000
0000
3003
0000
0001
0100
0020
0000
0000
1030
0000
0000
0100
0000
,
0022
0000
0033
1100
,
0001
1000
0001
0100
0010
0100
0010
1000
0010
0100
0001
0100
0001
0010
0001
1000
,
0100
1000
0010
0100
0010
0100
0001
0100
0010
0100
0010
1000
0010
1000
0001
1000
,
0001
1000
0100
1000
0001
0100
0010
0100
0001
1000
0010
1000
0100
0010
0001
0010
,
2000
0000
0000
0000
3010
0001
0100
1000
0200
0000
0000
0000
0310
0100
0010
1000
,
0002
0000
0000
0000
0003
0000
1000
0010
0100
0000
0000
0101
0000
0000
0001
0000
,
0021
0000
0000
0000
0030
0000
0100
1000
0100
0000
0000
1001
0000
0000
1000
0000
,
2001
0000
0000
0000
3000
0000
0001
0100
0010
0000
0000
1010
0000
0000
1000
0000
,
1002
0000
0000
0000
0003
0000
0010
0100
1000
0000
0100
0000
0001
0000
0100
0010
,
0002
0000
0000
0000
0003
0000
1000
0100
0010
0000
0000
1001
0000
0000
0001
0000
,
2001
0000
0000
0000
3000
0000
0100
1000
0010
0000
0000
0110
0000
0000
0001
0100
,
0001
0000
0001
0000
1000
0000
1000
0010
0100
0000
0100
0000
0001
0000
0001
0000
,
1001
0000
0000
0000
0000
0000
0000
0000
0000
1010
0000
0000
0000
0000
0000
0000
0000
0000
1000
0000
0000
0001
0000
0000
0010
0000
0000
0000
0000
0000
0100
0000
1000
0000
0100
0000
1000
0000
0000
0100
0000
0000
0010
0000
0000
0001
0000
0000
,
1000
0010
0100
0001
1000
0100
0010
0001
1000
0010
0100
0001
1000
0100
0010
0001
,
1001
0000
0000
0101
0000
0000
1001
0000
1100
0000
0000
1000
0100
0001
0100
0010
,
0002
0000
0000
0000
0003
0000
0010
0100
1000
0000
0000
0011
0000
0000
0001
0000
,
0101
0000
0000
1010
0000
0000
0010
0000
1001
0000
0000
1000
0100
0001
0100
1000
,
0020
0000
0000
0000
0030
0000
0100
0001
0100
0000
0000
1010
0000
0000
1000
0000
,
1100
0000
0000
0011
0000
0000
0101
0000
1001
0000
0000
0000
0110
0000
0000
0000
,
1001
0000
0000
1000
0100
1000
0100
0000
0000
0010
0001
0010
0001
0000
0000
0100
0001
0100
0001
0000
0000
1000
0010
1000
,
0010
0000
0000
1000
0001
1000
0100
0000
0000
0010
0001
0010
0100
0000
0000
1000
0010
1000
0100
0000
0000
0010
0001
0010
,
0100
0000
0000
1001
0000
0000
0001
0000
0021
0000
0000
0000
0230
0000
0000
0000
,
1300
0100
0010
0001
1000
0100
0010
0001
0010
0100
1000
0001
1000
0000
0000
0000
,
2001
3010
1002
0013
2001
3100
1002
0103
,
0201
0310
2010
3100
1200
0310
0021
0130
,
1000
0100
1000
0010
0100
0001
0010
0100
0010
0001
0100
0010
1000
0001
0010
0100
,
1000
0100
0010
0001
0010
0100
1000
0010
0100
0001
0100
0010
1000
0001
1000
0002
,
0020
0000
0000
0000
,
0000
0000
0000
0000
,
0033
0000
0000
0000
;
