#TITLE:CONTRACT;
#SUBTITLE:;
#ARTIST:朱雀;
#TITLETRANSLIT:;
#SUBTITLETRANSLIT:;
#ARTISTTRANSLIT:;
#GENRE:;
#CREDIT:;
#MUSIC:CONTRACT.ogg;
#BANNER:CONTRACT-bn.png;
#BACKGROUND:CONTRACT-bg.png;
#CDTITLE:;
#SAMPLESTART:91.423;
#SAMPLELENGTH:10.688;
#SELECTABLE:YES;
#OFFSET:0.577;
#BPMS:0.000=180.000
,100.000=90.000
,128.000=180.000
;
#STOPS:;
#BGCHANGES:;
#FGCHANGES:;

//--------------- dance-single - Pandemonium X ----------------
#NOTES:
     dance-single:
     Pandemonium X:
     Beginner:
     8:
     0,0,0,0,0:
0000
0000
0000
0000
,
0000
0000
0000
0000
,
0000
0000
0000
0000
,
0020
0000
0000
0030
,
0000
0000
0000
0000
,
1001
0000
0000
0000
,
0000
0000
0000
0000
,
0200
0000
0000
0000
,
0000
0000
0000
0300
,
1001
0000
0001
0000
,
1000
0000
0010
0000
,
1000
0000
0100
0000
,
0010
0000
0100
0100
,
1000
0000
0001
0000
,
0010
0000
0001
0000
,
0100
0000
0010
0000
,
1000
1000
1001
0110
,
0001
0000
0100
0010
,
1000
0000
0100
0010
,
0001
0000
0010
0001
,
0100
0100
0010
0010
,
1000
0000
0001
1000
,
0100
0000
1000
0001
,
0100
0100
0100
0100
,
0010
0000
0100
0000
0001
1000
0001
1000
,
0001
0000
1000
0000
,
0100
0000
0010
0000
,
0001
0000
0100
0000
,
0010
0000
1000
0000
,
0001
1000
0100
1000
,
0010
1000
0001
1000
,
0001
0010
0001
0100
,
0010
0010
0010
0010
,
0100
0000
0100
0000
0001
1000
0001
1000
,
0001
0000
0000
1000
0000
0000
0010
0000
,
0000
1000
0000
0000
0001
0000
1000
0000
,
0001
0000
0000
0010
0000
0000
0001
0000
,
0000
1000
0000
0000
0001
0000
1000
0000
,
0001
0000
0000
0100
0000
0000
0001
0000
,
0000
1000
0000
0000
0100
0000
1000
0000
,
0001
0001
0001
0001
,
1000
0000
1000
0000
0001
0100
0010
1000
,
0002
0000
0000
0000
,
0003
0000
0000
0000
,
0000
0000
0000
0000
,
0000
0000
0000
0000
,
1000
0000
0001
0000
,
0100
0001
0010
0000
,
0100
0000
0010
0000
,
0001
0010
0100
1000
,
0001
0000
1000
0000
,
0010
1000
0100
0000
,
0010
0010
0010
0010
,
0001
0000
1000
0000
0001
1000
0001
1000
,
0001
0100
0001
1000
,
0100
1000
0001
0001
,
1000
0010
0100
0001
,
0010
0100
0010
0001
,
1000
0100
0010
0100
,
0010
0001
0100
0010
,
1000
1000
1000
1000
,
0001
0000
0100
0000
0010
1000
0010
1000
,
0010
0000
0000
0100
0000
0000
0001
0000
,
0000
1000
0000
0000
1001
0000
0110
0000
,
1001
0000
0000
0001
0000
0000
1000
0000
,
0000
0100
0000
0000
1001
0000
0110
0000
,
1001
0000
0000
0001
0000
0000
0010
0000
,
0000
0001
0000
0000
1001
0000
0110
0000
,
0001
0001
1000
1000
,
0010
0000
0100
0000
0001
0100
0010
1000
,
0002
0000
0000
0000
,
0003
0000
0000
0000
;

//--------------- dance-single - Pandemonium X ----------------
#NOTES:
     dance-single:
     Pandemonium X:
     Easy:
     10:
     0,0,0,0,0:
0000
0000
0000
0000
,
0000
0000
0000
0000
,
0000
0000
0000
0000
,
0220
0000
0000
0330
,
0000
0000
0000
0000
,
2002
0000
0000
3003
,
0000
0000
0000
0000
,
0001
0100
0001
0100
,
0010
1000
0010
0100
,
0001
1000
0100
0100
,
1000
0001
0010
0010
,
0001
1000
0100
0100
,
1000
0010
1010
0011
,
1001
0001
0100
0100
,
0001
1000
0010
0010
,
1000
0001
0100
0100
,
0001
1000
0001
1000
0002
0000
0203
0000
,
0310
1000
0001
0010
,
0001
1000
0100
0010
,
0100
1000
0010
0100
,
0001
0000
0001
0000
0001
0100
0010
1000
,
0100
0010
0100
1000
,
1001
0001
0100
0010
,
1001
1001
1001
1001
,
0001
0100
0010
1000
0001
0100
0010
1000
,
0001
0000
1000
0000
,
0100
0000
1000
0000
,
0010
0000
0100
0000
,
0001
0000
0010
0000
,
0100
0000
0010
0000
0001
1000
0100
0000
,
1000
0000
0010
0000
0100
0010
1000
0000
,
0001
0000
1000
0000
0100
0010
0001
0000
,
0100
0100
0100
0100
,
0010
0000
1000
0000
0001
0100
0010
1000
,
0002
0000
0000
1003
0000
0000
0100
0000
,
0000
0010
0000
0000
0100
0000
1000
0000
,
0010
0000
0000
0100
0000
0000
0001
0000
,
0000
0010
0000
0000
0100
0000
0010
0000
,
0001
0000
0000
1000
0000
0000
0010
0000
,
0000
1000
0000
0000
0001
0000
1000
0000
,
0001
0100
0010
1000
,
0001
0100
0010
1000
0001
0001
1000
1000
,
0220
0000
0000
0000
,
0330
0000
0000
0000
,
0000
0000
0000
0000
,
0000
0000
0000
0000
,
1000
0100
0001
0100
,
0100
1000
0010
0100
,
0010
0001
0010
1000
,
0001
1000
0100
0010
,
0001
0010
1000
0010
,
0010
0100
0001
0100
,
1000
1000
1000
1000
,
0001
0000
0100
0000
0010
0100
0010
0100
,
0001
1000
0100
0010
,
0100
1000
0010
0100
,
0001
0010
0100
0010
,
0001
1000
0010
0100
,
0001
1000
0100
0010
,
0100
1000
0010
0100
,
0001
0001
0001
0001
,
1000
0000
0001
0000
0100
0010
1000
0001
,
0020
0000
0000
0130
0000
0000
1000
0000
,
0000
0100
0000
0000
1000
0000
0010
0000
,
0100
0000
0000
0001
0000
0000
0010
0000
,
0000
0100
0000
0000
0010
0000
0001
0000
,
1000
0000
0000
0001
0000
0000
0100
0000
,
0000
0010
0000
0000
1000
0000
0001
0000
,
1000
0100
0010
0001
1000
0100
0010
0001
,
1000
0000
1000
0000
0001
0000
0001
0000
0100
0010
0100
0010
1000
0001
1000
0001
,
0020
0000
0000
0000
,
0030
0000
0000
0000
;

//--------------- dance-single - Pandemonium X ----------------
#NOTES:
     dance-single:
     Pandemonium X:
     Medium:
     15:
     0,0,0,0,0:
0000
0000
0000
0000
,
0000
0000
0000
0000
,
0000
0000
0000
0000
,
0220
0000
0000
0000
,
0330
0000
0000
0000
,
2001
0000
0000
3001
0000
0000
1000
0000
,
0000
0010
0000
0000
1000
0000
0001
0000
,
0010
0001
0100
0010
1000
0001
0010
0100
,
1000
0001
1000
0001
1000
0001
1000
0001
1000
0001
1000
0001
1000
0001
1000
0001
,
1000
0100
1000
0010
0100
0010
1000
0010
,
0100
0001
0010
0001
0100
0010
0100
0001
,
1000
0001
0010
0001
1000
0010
0100
0001
,
0010
0001
1000
0100
0010
0010
0010
0000
,
1001
0001
0010
0001
0100
0010
0100
0001
,
1000
0010
0100
0010
1000
0010
0100
0010
,
1000
0001
0100
0001
1000
0100
0010
0100
,
0010
0000
0010
0000
0010
0000
0010
0000
0010
0001
0010
0001
1000
0100
1000
0100
,
0010
0001
0100
0010
1000
0100
0010
0001
,
1000
0010
0100
0001
1000
0100
0010
0001
,
1000
0010
1000
0001
1000
0100
0010
0001
,
1000
0001
1000
0000
0001
0100
0001
0000
0100
0010
0100
0010
1000
0010
0100
0010
,
1000
0001
0010
0100
0010
0001
1000
0100
,
0010
0100
1000
0010
0100
0001
0010
0100
,
1000
0100
1000
0000
0001
0010
0001
0000
1000
0100
1000
0000
0001
0010
0001
0000
,
1000
0000
1000
0000
1000
0000
1000
0000
1000
0010
0100
0010
1000
0001
0010
0100
,
1000
0001
0010
0000
0100
1000
0010
0000
,
0100
0001
0010
0000
0100
1000
0001
0000
,
1000
0001
0100
0000
0010
0100
0001
0000
,
0010
0100
1000
0000
0100
1000
0010
0000
,
0100
0010
1000
0001
0010
0000
0100
0000
0010
0000
0001
0010
0100
0010
0001
0000
,
0010
0001
0100
0010
1000
0001
0010
0100
0010
0000
0100
0010
0001
0001
0100
0010
,
1000
0001
0010
0001
1000
0000
0010
0000
0100
0000
0010
1000
0001
0010
0100
0000
,
1000
0100
1000
0000
0001
0010
0001
0000
1000
0100
1000
0000
0001
0010
0001
0000
,
0100
0000
0100
0000
0100
0000
0100
0000
0010
0100
0010
0100
0001
0100
0001
0010
,
0100
0000
0000
0110
0000
0000
1100
0000
,
0000
1010
0000
0000
0101
0000
0011
0000
,
0110
0000
0000
1100
0000
0000
1010
0000
,
0000
0101
0000
0000
1001
0000
0110
0000
,
1010
0000
0000
0101
0000
0000
0011
0000
,
0000
0110
0000
0000
1100
0000
0110
0000
,
1000
1000
0001
0001
0100
0100
0010
0010
,
1010
0000
1010
0000
1010
0000
1010
0000
1000
0010
0100
0001
1000
0010
0100
0001
,
0020
0000
0000
0000
,
0030
0000
0000
0000
,
0000
0000
0000
0000
,
0000
0000
0000
0000
,
0011
0010
0001
0100
0001
0000
0100
0000
,
0010
0000
0100
0010
1000
0010
0100
0000
,
0001
0001
1000
0100
0010
0010
0100
1000
,
0001
0000
1000
0100
0001
0100
1000
0010
,
0100
0100
0010
1000
0100
0000
0010
0000
,
0100
0000
0010
0010
0001
0100
0010
0000
,
1000
0001
1000
0000
0001
0100
0001
0000
0100
0010
0100
0000
0010
1000
0010
0000
,
0100
0000
0100
0000
0100
0000
0100
0000
0100
0010
0100
0010
1000
0010
1000
0001
,
1000
0100
0001
0100
1000
0000
1100
0000
,
1010
0000
0010
0001
0010
0100
0001
0000
,
0100
0100
0001
0010
0100
0100
0010
0001
,
1000
0000
0001
0100
1000
0100
0001
1000
,
0001
0001
0010
0100
0110
0000
1100
0000
,
0110
0000
1000
0100
0010
0001
1000
0000
,
0001
0010
0001
0000
1000
0100
1000
0000
0001
0010
0001
0000
1000
0100
1000
0000
,
0001
0000
0001
0000
0001
0000
0001
0000
0001
0100
0001
0100
0010
1000
0010
0100
,
0010
0000
0000
1010
0000
0000
0101
0000
,
0000
0011
0000
0000
0110
0000
1100
0000
,
1001
0000
0000
0101
0000
0000
0011
0000
,
0000
1001
0000
0000
1010
0000
0110
0000
,
0101
0000
0000
0011
0000
0000
1100
0000
,
0000
1010
0000
0000
0101
0000
1001
0000
,
0001
0100
0010
0000
0100
0010
1000
0000
0001
0010
0100
0000
0010
0100
1000
0000
,
1001
0000
1001
0000
1001
0000
1001
0000
0001
0100
0010
1000
0001
0010
0100
1000
,
0020
0000
0000
0000
,
0030
0000
0000
0000
;

//--------------- dance-single - Pandemonium X ----------------
#NOTES:
     dance-single:
     Pandemonium X:
     Hard:
     17:
     0,0,0,0,0:
0000
0000
0000
0000
,
0000
0000
0000
0000
,
0000
0000
0000
0000
,
0220
0000
0000
0000
,
0330
0000
0000
0000
,
1001
0000
0000
0001
1000
0000
0000
1000
0001
0000
0000
0001
1000
0000
0010
0000
,
0100
0000
0000
0010
0100
0000
0000
0100
0010
0000
0000
0010
0100
0000
0001
0000
,
1000
0100
1000
0100
0010
0001
0010
0001
0100
0001
0100
0001
1000
0010
1000
0010
,
1000
0001
1000
0001
1000
0001
1000
0001
1000
0001
1000
0001
1000
0001
1000
0001
,
0010
0001
0010
0001
1000
0100
0001
0100
,
1000
0010
1000
0010
1000
0010
0001
0010
,
1000
0100
1000
0100
0001
0100
1000
0100
,
0010
0100
1000
0001
1001
0000
1010
0000
,
0101
0001
0100
0010
1000
0100
0001
0100
,
1000
0010
1000
0100
1000
0010
0001
0010
,
1000
0010
0100
0001
0100
1000
0100
0001
,
0101
0000
0101
0000
0101
0000
0101
0000
0001
0100
0010
1000
0001
0010
0100
1000
,
0001
0000
1000
0010
1000
0000
0010
0100
0001
0100
0001
0100
0010
0100
0010
1000
,
0000
0000
1000
0001
0010
0000
0001
0100
0010
1000
0010
1000
0001
1000
0001
0010
,
0000
0000
0010
0001
0010
0000
0001
0100
0010
1000
0010
1000
0001
0010
0001
1000
,
0001
0010
0100
0000
0010
0100
1000
0000
1000
0100
0001
0100
1000
0010
0100
0001
,
0000
0000
0001
0100
0001
0000
1000
0100
1000
0010
1000
0010
0100
0010
0100
0001
,
0010
0000
0100
1000
0100
0000
1000
0010
0100
0001
0100
0001
1000
0001
1000
0100
,
0010
0100
1000
0000
0100
0010
0001
0000
0010
0100
1000
0000
0100
0010
0001
0000
,
0110
0000
1001
0000
0110
0000
1001
0000
0001
0100
1000
0100
0010
1000
0001
0010
,
0002
0100
1003
0000
2000
0100
3001
0000
,
2000
0010
3001
0000
0002
0010
1003
0000
,
0201
1000
0301
0000
1200
0001
1300
0000
,
1020
0000
1000
0000
0031
0000
0000
0000
2001
0000
0010
0000
3100
0010
0000
0010
,
1001
0001
0100
0001
1000
0000
1010
0000
0011
0000
0001
0100
1000
0100
0001
0000
,
1000
1000
0001
0010
0100
0100
0010
0001
1000
0000
0001
0100
1000
0010
0001
1000
,
0100
1000
0100
1000
0010
0000
0110
0000
1001
0000
1000
0100
0001
0100
1000
0000
,
1000
0100
1000
0000
0001
0100
0001
0000
0010
0001
0010
0000
0100
1000
0100
0000
,
1001
0000
0110
0000
1001
0000
0110
0000
0001
0010
1000
0010
0001
1000
0001
1000
,
1001
0000
1000
0001
1000
0000
0110
0000
0001
1000
0001
0000
0110
0000
1000
0001
,
1000
0000
0110
0000
0001
1000
0001
0000
1000
0100
0010
0001
1000
0100
0010
0001
,
1001
0000
0010
0100
0010
0000
1001
0000
0100
0010
0100
0000
1001
0000
0010
0100
,
0010
0000
0110
0000
1000
0001
1000
0000
1000
0100
0010
0001
1000
0100
0010
0001
,
1001
0000
0001
0100
0010
0000
1010
0000
0010
0100
0001
0000
0101
0000
0001
0100
,
0010
0000
1010
0000
0010
0100
0001
0000
1000
0100
0010
0001
1000
0100
0010
0001
,
0010
0100
1000
0000
0100
0010
0001
0000
0010
0100
1000
0000
0100
0010
0001
0000
,
0110
0000
1001
0000
0110
0000
1001
0000
0001
0100
1000
0100
0010
1000
0001
0010
,
0200
0000
0000
0000
,
0300
0000
0000
0000
,
0000
0000
0000
0000
,
0000
0000
0000
0000
,
0001
0100
0010
1000
0201
0000
0010
0000
,
0302
0000
0013
1000
0010
0100
2000
0000
,
3001
0001
1000
0010
0100
0100
0010
1000
,
0002
0000
1003
0100
0001
0010
1000
0001
,
1000
0100
0010
0001
2100
0000
0010
0000
,
3002
0000
0103
0010
1000
1000
0002
0000
,
1003
0100
1000
0000
0010
1000
0010
0000
0100
0001
0100
0000
0001
0010
0001
0000
,
1001
0000
1001
0000
1001
0000
1001
0000
1000
0010
0100
0001
0010
1000
0010
0001
,
1000
0000
0010
0100
0001
0000
0010
0100
1000
0000
0000
0000
1100
0000
0000
0000
,
2001
0000
0000
0000
3001
0100
0010
1000
0100
0010
0001
1000
0020
0000
0000
0000
,
0130
0001
0010
0000
0100
0000
0010
0000
0001
1000
0100
0000
0010
0000
0100
1000
,
0020
0000
0130
1000
0100
0001
0010
1000
,
0010
0001
0100
0000
0010
0000
1000
0000
1001
0000
0000
0000
0011
0000
0000
0000
,
1200
0000
0000
0000
0310
0100
1000
0010
0100
0000
0001
0000
0020
0000
0000
0000
,
0130
1000
0100
0000
0010
0001
0010
0000
0001
0100
0001
0000
1000
0010
1000
0000
,
0011
0000
1100
0000
0011
0000
1100
0000
0001
0100
0001
0100
0010
1000
0010
1000
,
1001
0000
0001
0100
0010
0000
0101
0000
1000
0100
0010
0000
1001
0000
0001
0010
,
0100
0000
1100
0000
1000
0100
0010
0000
1001
0000
0000
0000
0110
0000
0000
0000
,
1001
0000
1000
0100
0010
0000
0110
0000
0010
0001
0100
0000
1001
0000
1000
0010
,
0100
0000
0110
0000
0010
0100
0001
0000
1001
0000
0000
0000
0110
0000
0000
0000
,
1001
0000
0001
1000
0010
0000
1010
0000
1000
0001
0010
0000
1001
0000
1000
0100
,
0010
0000
0011
0000
0001
0010
0100
0000
0110
0000
0000
0000
1001
0000
0000
0000
,
0101
0100
0010
1000
0001
0100
0001
1000
0010
0100
0001
1000
0010
0100
0001
1000
,
1010
0000
0101
0000
1010
0000
0101
0000
0001
0100
1000
0100
0001
0010
1000
0010
,
0002
0000
0000
0000
,
0003
0000
0000
0000
;
