#TITLE:Blade (BD Mix);
#SUBTITLE:;
#ARTIST:青龍;
#TITLETRANSLIT:;
#SUBTITLETRANSLIT:;
#ARTISTTRANSLIT:;
#GENRE:;
#CREDIT:;
#MUSIC:Blade (BD Mix).ogg;
#BANNER:Blade (BD Mix).png;
#BACKGROUND:Blade (BD Mix)-bg.png;
#CDTITLE:;
#SAMPLESTART:70.454;
#SAMPLELENGTH:10.052;
#SELECTABLE:YES;
#OFFSET:1.169;
#BPMS:0.000=191.000;
#STOPS:;
#BGCHANGES:;
#FGCHANGES:;

//--------------- dance-single - Pandy as "Xcalibur" ----------------
#NOTES:
     dance-single:
     Pandy as "Xcalibur":
     Beginner:
     7:
     0,0,0,0,0:
0000
0000
0000
0000
,
0000
0000
0000
0000
,
0000
0000
0000
0000
,
0000
0000
0000
0000
,
0000
0000
0000
0000
,
0001
0000
0001
0000
,
1000
0000
1000
0000
,
0001
0001
0001
0001
,
0000
0000
0000
0000
,
1000
0000
0000
0000
,
0010
0000
0010
0000
,
0100
0000
0000
0000
,
0001
0000
0001
0000
,
0010
0000
0000
0000
0000
0100
0000
0000
,
0000
0000
0000
0000
0000
0100
0000
0000
,
0000
0100
0000
0100
0000
0100
0000
0100
,
0000
0000
0000
0000
,
0001
0001
0000
0000
,
1000
1000
0000
0000
,
0001
0001
0000
0000
,
0110
0000
1001
0000
,
0010
0010
0000
0000
,
0100
0100
0000
0000
,
0010
0010
0000
0000
,
0110
0000
1001
0000
,
0001
0001
0000
0000
,
0100
0100
0000
0000
,
0010
0010
0000
0000
,
1010
0000
0101
0000
,
1001
0000
1001
0000
,
0110
0000
0110
0000
,
1000
1000
1000
1000
,
0000
0000
0000
0000
,
1001
0000
0000
0000
,
0001
0000
0000
0000
,
0010
0000
0000
0000
,
0100
0000
0000
0000
,
1000
0000
0000
0000
,
0010
0000
0000
0000
,
0100
0000
0000
0000
,
0001
0000
0000
0000
,
1000
0000
0000
0000
,
0001
0000
0000
0000
,
0010
0000
0000
0000
,
0100
0000
0000
0000
,
1000
0000
0000
0000
,
0100
0000
0000
0000
,
0010
0000
0000
0000
,
0001
0000
0000
0000
,
1000
1000
1000
0000
,
0001
0001
0001
0000
,
0100
0100
0100
0000
,
0010
0010
0010
0000
,
1000
0000
0010
0000
,
0100
0000
0001
0000
,
1000
0000
0001
0000
,
0110
0000
1001
0000
,
0001
0000
1000
0000
,
0100
0100
0100
0000
,
0010
0000
0001
0000
,
0100
0010
0100
0000
,
0010
0000
0100
0000
,
0010
0010
0100
0100
,
0001
0000
1000
0000
,
0001
0010
0001
0000
,
1000
0000
0010
0000
,
0100
0001
0010
0000
,
0100
0000
0010
0000
,
0100
1000
0001
0000
,
1000
1000
0001
0001
,
1000
1000
0001
0001
,
1001
1001
1001
1001
,
0000
0000
0000
0000
,
0001
0000
0100
0000
,
0010
1000
0100
0000
,
0010
0000
0001
0000
,
0100
0001
1000
0000
,
0001
0000
0010
0000
,
0100
0010
0001
0010
,
0100
0000
1000
0000
,
0100
1000
0001
0000
,
1000
0000
0001
0000
,
0100
0001
0010
0000
,
0100
0000
0010
0000
,
0001
0010
0100
0000
,
0010
0000
0100
0000
,
1000
0100
0010
0100
,
1000
0000
0001
0000
,
0100
0100
0100
0000
,
1001
1001
0000
0000
,
0110
0110
0000
0000
,
1001
1001
0000
0000
,
0110
0000
1001
0000
,
0010
0110
0100
0110
,
0010
0110
0100
0110
,
1001
1001
1001
1001
,
0000
0000
0000
0000
,
0110
0000
0000
0000
;

//--------------- dance-single - Pandy as "Xcalibur" ----------------
#NOTES:
     dance-single:
     Pandy as "Xcalibur":
     Easy:
     10:
     0,0,0,0,0:
0000
0000
0000
0000
,
0000
0000
0000
0000
,
0000
0000
0000
0000
,
0000
0000
0000
0000
,
0000
0000
0000
0000
,
0001
0001
0100
0100
,
0010
0010
1000
1000
,
0001
1000
0001
1000
0001
1000
0001
1000
,
0000
0000
0000
0000
,
0001
0100
0010
1000
,
1100
0000
0011
0000
,
0010
0001
0100
0001
,
0101
0000
1010
0000
,
0001
1000
0010
1000
,
0100
0010
0001
0100
,
0001
1000
0001
1000
,
1001
0000
0110
0000
,
0101
0011
0000
0000
,
1100
1010
0000
0000
,
1100
0011
0000
0000
,
0002
0000
2000
3003
,
1001
1010
0000
0000
,
0110
0101
0000
0000
,
0011
0110
0000
0000
,
2000
0000
0002
3003
,
0011
0011
0001
0100
,
0110
0110
0010
1000
,
1001
1001
0001
1000
,
1100
0000
0011
0000
,
0002
0103
0002
1003
,
0002
0013
0002
1003
,
0001
1000
0001
1000
0001
1000
0001
1000
,
0000
0000
0000
0000
,
1001
0000
0001
0000
,
1000
0000
0100
0000
,
1000
0000
0001
0000
,
0100
0100
0100
0000
,
0001
0000
0010
0000
,
0001
0001
1000
0000
,
0001
0000
1000
0000
,
0010
0010
0010
0000
,
1000
0100
1000
0000
,
0001
0100
0001
0000
,
1000
0100
1000
0000
,
0001
1000
0010
0000
,
1000
0010
1000
0000
,
0001
0010
0001
0000
,
1000
0010
1000
0000
,
0001
1000
0001
0000
,
1001
1001
1001
0000
,
1001
1001
1001
0000
,
1001
1001
1001
0000
,
1001
1001
1001
0000
,
0001
0100
0010
1000
,
0100
0010
0100
1000
,
0001
0100
0010
1000
,
1001
0110
1001
0000
,
0001
0100
0010
1000
,
0100
0010
0100
1000
,
0001
0100
0001
0010
,
0001
0010
0100
1000
0001
0000
0000
0000
,
1000
0001
0100
0001
,
0010
0100
0010
0001
,
0100
0010
0100
0001
,
1000
0100
0010
0001
1000
0000
0000
0000
,
0001
0100
0001
0010
,
0001
1000
0100
0010
,
0100
1000
0001
0100
,
0001
0010
0100
1000
0001
0000
0000
0000
,
1000
0100
1000
0010
,
0100
0001
0010
0100
,
0010
0001
0100
0010
,
1000
0100
0010
0001
1000
0000
0000
0000
,
0001
1000
0100
1000
,
0001
0100
0010
1000
,
0100
0010
0001
0010
,
0100
0010
0001
1000
0010
0000
0000
0000
,
0100
0001
1000
0100
,
0001
0100
1000
0010
,
0100
1000
0100
0001
,
1000
0001
0010
0100
1000
0000
0000
0000
,
0100
1000
0100
1000
,
0010
0001
0010
0100
,
0001
0010
0001
0010
,
0010
0001
0100
0010
1000
0000
0000
0000
,
0010
0001
0010
0001
,
0100
0001
1000
0100
,
0001
0100
0010
0001
,
1000
0100
0010
0100
1000
0000
0000
0000
,
1001
1100
0000
0000
,
0101
1010
0000
0000
,
1001
0101
0000
0000
,
1001
0000
0110
0000
,
2000
3100
2000
3001
,
2000
3010
2000
3001
,
1000
0001
1000
0001
1000
0001
1000
0001
,
0000
0000
0000
0000
,
2002
0000
0000
0000
,
0000
0000
0000
0000
,
3003
0000
0000
0000
;

//--------------- dance-single - Pandy as "Xcalibur" ----------------
#NOTES:
     dance-single:
     Pandy as "Xcalibur":
     Medium:
     13:
     0,0,0,0,0:
0000
0000
0000
0000
,
0000
0000
0000
0000
,
0000
0000
0000
0000
,
0000
0000
0000
0000
,
0000
0000
0000
0000
,
2001
3001
1002
1003
,
2001
3001
1002
1003
,
0001
0100
0010
1000
0001
0100
0010
1000
,
0000
0000
0000
0000
,
0001
0100
0010
0000
1000
0100
0010
0000
,
0100
0010
0001
1000
0010
1000
0100
0000
,
1000
0010
0100
0000
0001
0010
0100
0000
,
0010
0100
1000
0001
0100
0001
0010
0000
,
1100
0000
1100
0000
1000
0010
0100
0000
,
0101
0000
0101
0000
0001
0100
0010
0000
,
1000
0001
1000
0001
1000
0001
1000
0001
,
0000
0000
0000
0000
,
0011
0000
1100
0000
0000
0100
0100
1000
,
0010
0000
0110
0000
0000
0100
0100
0010
,
1000
0000
0101
0000
0000
0001
0001
1000
,
1020
0130
0102
0013
,
1001
0000
1010
0000
0000
0010
0010
0100
,
0001
0000
0011
0000
0000
0010
0010
0100
,
1000
0000
1100
0000
0000
0001
0001
0010
,
0200
0000
2000
3300
,
1001
1001
0001
0100
,
1010
1010
1000
0100
,
0110
0110
0010
0001
,
1002
0000
2000
3003
,
0201
0310
0102
0013
,
0201
0310
0102
0013
,
0001
0100
0010
1000
0001
0100
0010
1000
,
0000
0000
0000
0000
,
1001
0001
1000
0010
,
1000
0001
0010
0001
,
1000
0100
0010
0100
,
1000
0100
0010
0100
1000
0000
0000
0000
,
0001
1000
0010
0100
,
0010
1000
0001
0010
,
0100
0010
0001
1000
,
0001
0010
0100
0010
0001
0000
0000
0000
,
1000
0000
0001
0000
0100
0001
0100
0000
,
0010
0000
1000
0010
1000
0000
0010
0000
,
0100
0000
0001
0000
1000
0100
1000
0000
,
1000
0100
0010
0100
1000
0000
0000
0000
,
0001
0000
1000
0000
0010
1000
0010
0000
,
0100
0000
0001
0100
0001
0000
0010
0000
,
0100
0000
1000
0000
0100
1000
0001
0000
,
0001
0010
0100
0010
0001
0000
0000
0000
,
0101
1010
0101
0000
,
1100
0011
1100
0000
,
1001
1100
1001
0000
,
0011
0110
0011
0000
,
1100
0110
1100
1001
,
0011
0110
0011
1001
,
0101
0000
1010
0000
1000
0100
0001
0000
,
0001
0100
1000
0010
0100
0000
0000
0000
,
1010
0000
0101
0000
0100
0010
1000
0000
,
0001
0010
0100
1000
0001
0000
0100
0010
,
1000
0000
1100
0000
0100
0001
0100
0000
,
0100
1000
0010
0100
0001
0000
0000
0000
,
1001
0000
1010
0000
0010
0100
0001
0000
,
1000
0100
0010
0001
1000
0100
0010
0100
,
1000
0000
0011
0000
0010
1000
0010
0000
,
0010
0001
0100
0010
0100
0000
0000
0000
,
1010
0000
0101
0000
0001
0100
0010
0000
,
1000
0100
0010
0100
1000
0000
0001
0010
,
0100
0000
1100
0000
0100
1000
0010
0000
,
0100
1000
0100
0001
1000
0000
0000
0000
,
1002
0013
2001
3010
,
1002
0013
2001
3010
,
1000
0001
1000
0001
1000
0001
1000
0001
,
0000
0000
0000
0000
,
0101
0000
0011
0000
0010
0100
1000
0000
,
0100
0010
0100
1000
0001
0000
0010
0100
,
1100
0000
0011
0000
0001
0010
0100
0000
,
0010
1000
0010
0001
1000
0000
0000
0000
,
1010
0000
1100
0000
0100
0010
0001
0000
,
0010
0100
0010
0001
1000
0010
1000
0001
,
0010
0000
1100
0000
1000
0100
0010
0000
,
0100
0001
0100
1000
0001
0000
0000
0000
,
0101
0000
1001
0000
1000
0001
0100
0000
,
0010
1000
0010
0001
0010
0000
0010
0100
,
0101
0000
1001
0000
0001
0010
1000
0000
,
0010
0100
1000
0001
1000
0000
0000
0000
,
1010
0000
1001
0000
0001
1000
0010
0000
,
0100
0001
0100
1000
0100
0001
0010
0100
,
1100
0000
1001
0000
1000
0100
0001
0000
,
0100
0010
0001
1000
0010
0000
0000
0000
,
1010
0000
0101
0000
0000
0001
0001
0010
,
0100
0000
1100
0000
0000
1000
1000
0100
,
0010
0000
0011
0000
0000
0001
0001
1000
,
1001
0000
1010
0000
,
1002
0103
2001
3100
,
1002
0103
2001
3100
,
1000
0001
1000
0001
1000
0001
1000
0001
,
1000
0000
0001
0000
,
0110
0000
0000
0000
;

//--------------- dance-single - Pandy as "Xcalibur" ----------------
#NOTES:
     dance-single:
     Pandy as "Xcalibur":
     Hard:
     15:
     0,0,0,0,0:
0000
0000
0000
0000
,
0000
0000
0000
0000
,
0000
0000
0000
0000
,
0000
0000
0000
0000
,
0000
0000
0000
0000
,
2010
3100
0012
0103
,
2010
3100
0012
0103
,
0001
1000
0001
1000
0001
1000
0001
1000
,
0000
0000
0000
0000
,
0001
0100
0010
0100
0001
0010
0100
0000
,
0010
0100
1000
0010
0100
0010
1000
0000
,
1000
0010
0100
0010
1000
0100
0010
0000
,
0100
0010
0001
0100
0010
0100
0001
0000
,
0001
0000
1000
0000
0010
0000
1000
0000
0001
0000
0200
0300
0001
0000
1000
0000
,
0001
0000
0010
0000
0001
0000
1000
0000
0001
0000
0200
0300
0001
0000
1000
0000
,
0001
0000
0200
0300
1000
0000
0200
0300
0001
0000
0200
0300
1000
0000
0200
0300
,
0000
0000
0000
0000
,
0001
0000
0000
0001
2000
0000
0000
0000
3001
0000
0010
0000
0010
0000
0001
0000
,
1000
0000
0000
1000
0002
0000
0000
0000
0103
0000
0010
0000
0010
0000
1000
0000
,
1000
0000
0000
1000
0002
0000
0000
0000
0103
0000
0010
0000
0010
0000
1000
0000
,
1000
0100
0001
0100
0010
0001
0100
0010
,
0100
0000
0000
0100
0020
0000
0000
0000
1030
0000
0100
0000
0100
0000
0010
0000
,
0010
0000
0000
0010
0200
0000
0000
0000
0310
0000
0100
0000
0100
0000
0010
0000
,
0010
0000
0000
0001
0200
0000
0000
0000
0301
0000
0100
0000
0100
0000
0001
0000
,
2000
0000
0002
3003
,
1001
0000
0011
0000
0101
0100
1000
0100
,
0101
0000
0011
0000
0011
0010
1000
0010
,
0011
0000
0101
0000
0101
0100
1000
0100
,
0002
0013
0200
1300
,
0102
0013
2100
3010
,
0102
0013
2100
3010
,
1000
0001
1000
0001
1000
0001
1000
0001
,
0000
0000
0000
0000
,
0110
1000
0001
0010
,
0001
0100
0010
1000
,
0100
0010
0100
1000
,
0001
0100
0010
0100
0001
0000
0000
0000
,
1000
0010
1000
0001
,
0100
0001
0010
0100
,
1000
0010
0100
0001
,
1000
0010
0100
0010
1000
0000
0000
0000
,
0001
0000
0001
0000
1000
0100
1000
0000
,
0100
1000
0001
0100
0001
0000
0100
0001
,
0010
0000
0010
0000
0001
0010
0001
0000
,
0001
0010
0100
1000
0001
0000
0000
0000
,
1000
0000
1000
0000
0001
0100
0001
0000
,
0001
0100
0001
1000
0100
0010
0001
1000
,
0001
0000
0001
0000
1000
0100
1000
0000
,
1000
0100
0010
0001
1000
0000
0000
0000
,
0101
0000
0000
0000
0011
0000
0000
0000
0101
0000
0000
0000
1000
0100
1000
0100
,
1000
0000
0000
0000
1010
0000
0000
0000
1100
0000
0000
0000
0001
0100
0001
0100
,
0001
0000
0000
0000
0011
0000
0000
0000
0101
0000
0000
0000
1000
0010
1000
0010
,
1000
0100
0010
0100
1001
0000
1000
1000
,
0001
0010
0100
0010
0001
0100
0010
1000
,
0001
1000
0100
0010
0100
1000
0001
0010
,
0001
1000
0001
1000
0001
1000
0001
1000
0001
1000
0001
1000
0001
1000
0001
1000
,
0002
0000
2000
3003
,
1001
0000
1010
0000
1000
0100
1100
0000
,
1000
0100
0010
0100
1100
0000
0100
0010
,
0011
0000
1001
0000
0001
0100
0101
0000
,
1001
0001
0010
0011
1001
0000
0000
0000
,
1001
0000
0101
0000
0001
0010
0011
0000
,
1001
0001
0010
0100
1100
0100
0010
0100
,
1100
0000
0011
0000
1000
0001
0101
0000
,
1000
0100
0010
0001
1001
0000
0000
0000
,
1001
0000
0000
1000
0001
0000
0000
0000
0010
0000
0100
0000
1100
0000
0000
0000
,
0100
0001
0100
1000
1010
0000
1000
0001
,
1001
0000
0000
0001
0100
0000
0000
0000
0001
0000
1000
0000
1100
0000
0000
0000
,
1001
0100
0010
0011
1001
0000
0000
0000
,
0011
0001
0100
0010
0110
0100
0010
1000
,
1100
0100
0010
0100
0110
0010
0001
0010
,
0001
1000
0001
1000
0001
1000
0001
1000
,
2002
0000
0003
3000
,
0002
0000
0023
0000
0130
0010
0002
0000
,
0103
0010
0001
0010
2000
0000
3010
1000
,
0200
0000
2300
0000
3001
0010
0200
0000
,
0310
0001
0010
0100
2000
0000
3000
0000
,
0002
0000
0023
0000
0130
0010
0002
0000
,
0103
0010
0001
0010
1000
0001
0010
0100
,
0020
0000
0230
0000
1300
0010
0200
0000
,
0310
0001
0010
1000
0002
0000
0003
0000
,
0021
0000
0230
0000
1300
0010
1020
0000
,
0130
1000
0100
0001
2001
0000
3010
0100
,
0201
0000
0320
0000
1030
0001
0021
0000
,
0130
0001
0100
1000
2002
0000
3003
0000
,
0012
0000
0023
0000
0130
0010
0012
0000
,
0103
0010
0001
0010
1000
0001
0010
0100
,
0120
0000
0230
0000
1300
0010
0210
0000
,
0310
0001
0010
1000
0002
0000
0003
0000
,
1000
0000
0000
1000
0002
0000
0000
0000
0013
0000
0100
0000
0100
0000
0010
0000
,
0010
0000
0000
0010
0002
0000
0000
0000
0013
0000
0100
0000
0100
0000
1000
0000
,
1000
0000
0000
1000
0200
0000
0000
0000
0310
0000
0100
0000
0100
0000
0010
0000
,
0220
0330
2002
3003
,
0102
0013
2100
3010
,
0102
0013
2100
3010
,
1000
0001
1000
0001
1000
0001
1000
0001
,
0200
0000
0020
0330
,
2002
0000
0000
0000
,
0000
0000
0000
0000
,
3003
0000
0000
0000
;
