#TITLE:Bitter & Lucky;
#SUBTITLE:;
#ARTIST:DE DE MOUSE;
#TITLETRANSLIT:;
#SUBTITLETRANSLIT:;
#ARTISTTRANSLIT:;
#GENRE:;
#CREDIT:;
#MUSIC:Bitter & Lucky.ogg;
#BANNER:Bitter & Lucky.png;
#BACKGROUND:Bitter & Lucky-bg.png;
#CDTITLE:;
#SAMPLESTART:36.039;
#SAMPLELENGTH:13.979;
#SELECTABLE:YES;
#OFFSET:-0.039;
#BPMS:0.000=180.000
,204.000=135.000
,236.000=180.000
;
#STOPS:;
#BGCHANGES:;
#FGCHANGES:;

//--------------- dance-single - Pandemonium X ----------------
#NOTES:
     dance-single:
     Pandemonium X:
     Beginner:
     5:
     0,0,0,0,0:
0000
0000
0000
0000
,
0000
0000
0000
0000
,
0000
0000
0000
0000
,
0000
0000
0000
0000
,
0000
0000
0000
0000
,
0000
0000
0000
0000
,
0000
0000
0000
0000
,
0000
0000
0000
0000
,
0000
0000
0000
0000
,
0000
0000
0000
0000
,
0000
0000
0000
0000
,
0001
0000
1000
0000
,
0000
0001
1000
0000
,
0001
0000
1000
0000
,
0000
0001
1000
0000
,
0010
0000
0000
0000
,
0100
0000
0000
0000
,
0001
0000
1000
0000
,
1000
0000
1000
0000
,
0001
0000
1000
0000
,
0000
0001
1000
0000
,
0001
0000
1000
0000
,
0100
0000
0010
0000
,
0001
0000
0010
0000
,
0001
0000
0100
0000
,
0010
0010
0100
0100
,
0010
0000
0000
0000
,
1001
0000
0000
1001
,
0000
0000
0000
0000
,
0110
0000
0100
0000
,
0010
0000
0100
0000
,
0001
0001
0001
0000
,
1000
1000
1000
0000
,
0001
0000
0100
0000
,
0010
0000
1000
0000
,
0100
0000
1000
0000
,
0001
1000
0010
0100
,
0001
0000
0010
0000
,
0001
0000
1000
0000
,
0100
0100
0100
0000
,
0010
0010
0010
0000
,
0100
0000
1000
0000
,
0010
0100
0001
0010
,
0100
0000
0000
0000
,
0010
0000
0000
0000
,
0001
0000
0000
0000
,
1000
0000
0000
0000
,
0010
0000
0000
0000
,
0100
0000
0000
0000
,
1001
0000
0110
0000
,
1001
0000
0110
0000
,
0001
0000
0000
0000
,
1000
1000
0000
0100
,
0010
0000
0100
0000
,
1000
1000
0000
0000
,
0001
0000
0000
0000
,
0100
0100
0100
0000
,
0010
0000
0010
0000
,
0100
0100
0100
0000
,
0001
0000
0000
0000
,
1000
0000
0000
0000
,
0100
0000
0010
0000
,
0100
0000
1000
0000
,
0001
0000
1000
0000
,
0010
0000
0100
0000
,
0001
1000
0001
0100
,
0010
0000
0000
0000
,
1001
0000
0000
0110
,
0000
0000
0100
0010
,
1001
0000
0000
0110
,
0000
0000
0000
0000
,
0001
0000
0001
0000
,
1000
0000
1000
0000
,
0010
0010
0010
0000
,
0100
0100
0100
0000
,
0001
0001
1000
1000
,
0010
0100
0001
1000
,
0000
0001
0001
0001
,
1000
0100
0010
0001
,
0100
0000
0001
0000
,
0010
0000
0100
0000
,
0010
0001
0100
0000
,
0010
1000
0100
0000
,
0010
0010
0100
0100
,
1000
0001
0100
1001
;

//--------------- dance-single - Pandemonium X ----------------
#NOTES:
     dance-single:
     Pandemonium X:
     Easy:
     7:
     0,0,0,0,0:
0000
0000
0000
0000
,
0000
0000
0000
0000
,
0000
0000
0000
0000
,
0000
0000
0000
0000
,
0000
0000
0000
0000
,
0000
0000
0000
0000
,
0000
0000
0000
0000
,
0000
0000
0000
0000
,
0000
0000
0000
0000
,
0000
0000
0000
0000
,
0000
0000
0000
0000
,
0001
0000
1000
0000
,
0010
1000
0100
0000
,
1000
0000
0001
0000
,
0010
0001
0100
0001
,
1000
0000
0010
0000
,
0100
0001
0010
0000
,
0100
0000
0000
0000
1000
0001
0000
0000
,
1000
0100
0000
0000
1000
0010
0000
0000
,
1000
0000
0001
0000
,
0010
0100
1000
0000
,
0100
0000
0010
0001
,
0100
0010
0100
0001
,
1000
1000
0001
0001
,
0100
0100
0010
0010
,
0100
0001
1000
0010
,
0000
0200
2300
3200
,
0302
0000
0013
2200
,
0000
0000
3300
0000
,
2001
0000
3001
0000
,
1002
0000
1003
0000
,
1000
0010
1000
0010
,
0100
0001
0100
0001
,
0010
1000
0010
0001
,
0100
1000
0100
0001
,
0000
1000
0001
0100
,
0002
0023
0230
2300
,
3001
0000
1100
0000
,
1000
0000
0101
0000
,
0001
0000
1100
0000
,
1000
0000
0101
0000
,
1001
0010
1001
0100
,
2001
3100
1002
0103
,
0000
0000
0000
0000
,
0001
0000
0000
0000
,
0010
0000
0000
0000
,
0100
0000
0000
0000
0000
0000
0100
1000
,
0001
0000
0000
1000
,
0000
0000
0010
0000
,
0100
0000
0100
0000
,
0010
0000
0010
0000
,
1000
0001
1000
0000
0000
0000
0000
0000
,
0001
0100
0001
0000
0000
0000
1000
0000
,
0100
0010
0100
0000
0000
0000
0000
0000
,
0020
0000
0031
1000
,
0010
1000
0100
0000
0000
0000
0000
0000
,
0010
0001
0100
0001
,
0010
0001
0100
0000
0000
0000
0010
0000
,
0100
0001
1000
0000
,
0001
0000
0001
0000
,
1000
0001
1000
0000
,
1000
0000
0010
0000
,
1000
0000
0100
0000
,
0010
0010
0100
0100
,
1000
1000
0001
0001
,
1000
0010
0100
0001
,
0010
2000
3020
0032
,
0203
0300
0010
2002
,
0000
0000
0000
0000
3000
0003
0000
0000
,
0010
0000
0100
2002
,
0000
0000
0000
0000
0000
0003
3000
0000
,
0001
1000
0000
0001
,
0000
0010
0000
0100
,
1000
1000
1000
0010
,
0100
0100
0100
0001
,
1000
0001
1000
0001
,
0100
1000
0100
0001
,
1000
0100
0010
0001
,
2000
3020
0230
2300
,
3100
0001
1000
0100
,
0001
0100
1000
0100
,
0010
0001
0101
0000
,
1000
0100
1100
0000
,
1000
0001
0100
0010
,
1000
0100
0011
1200
,
0000
0000
0000
0000
,
0300
0000
0000
0000
;

//--------------- dance-single - Pandemonium X ----------------
#NOTES:
     dance-single:
     Pandemonium X:
     Medium:
     10:
     0,0,0,0,0:
0000
0000
0000
0000
,
0000
0000
0000
0000
,
0000
0000
0000
0000
,
0000
0000
0000
0001
,
0001
0000
0000
0001
0000
0000
0000
0000
,
0000
0000
0000
1000
,
1000
0000
1000
0010
1000
0000
0010
0000
,
0100
0000
0000
0000
0000
0000
0010
0100
,
0000
0001
0000
0000
0000
0000
0000
0010
,
0001
0000
1000
0010
0000
1000
0000
0001
,
0000
1000
0000
0000
0000
0000
0000
0000
,
0100
0000
1000
0000
0010
0000
0000
0100
,
0000
0001
0000
0010
0000
0000
0001
0000
,
1000
0000
0001
0000
0100
0000
0000
0001
,
0000
0010
0100
0000
0010
0000
0001
0000
,
0100
0000
0001
0000
1000
0000
0000
0100
,
0000
1000
0000
0000
0010
0000
0100
0000
,
0001
0000
1000
0000
0010
1000
0000
0001
,
0100
0001
0000
1000
0010
1000
0000
0000
,
0001
0000
1000
0000
0100
0000
0000
0010
,
0000
0100
0000
1000
0000
0000
0010
0000
,
0100
0001
0020
0130
,
0020
0031
0020
0130
,
1000
1000
0001
0001
,
0100
0100
0010
0010
,
1000
0010
0100
0001
1000
0010
0100
0001
,
1000
MMMM
MMMM
MMMM
,
2002
0003
3100
2002
,
0000
0000
3003
0000
,
1002
0000
0103
0000
,
2001
0000
3100
0000
,
1000
1000
0101
0001
,
0100
0100
0110
0001
,
1000
0010
1000
0010
1000
0010
1000
0010
,
1000
0010
0100
0001
0010
0100
1000
0000
,
0100
1000
0010
0100
,
2000
3200
0302
2003
,
3100
0010
0011
0000
,
0010
0100
1100
0000
,
1001
0000
0101
0000
,
1010
0000
1100
0000
,
0011
0010
0110
0100
,
1000
0000
0100
0000
1000
0010
0100
0000
,
0001
0000
0000
0000
,
1000
0000
0000
0000
,
0100
0000
0000
0000
,
0010
0000
0000
0000
0000
0000
0010
0100
,
1000
0000
0000
0001
,
0000
0000
1000
0000
,
0001
0000
0001
0000
0001
0000
1000
0000
1000
0000
1000
0000
,
0010
0000
0010
0000
0010
0000
0100
0000
0100
0000
0100
0000
,
0001
0100
0010
0000
0100
0000
0001
0000
,
1000
0100
0010
0000
0100
0000
1000
0000
,
0001
1000
0010
0000
1000
0000
0100
0000
,
0010
0100
1000
0000
0100
0010
0001
0000
,
1000
0001
0100
0000
0001
0000
1000
0000
,
0010
1000
0100
0000
0010
0000
0100
0000
,
0010
0001
0100
0000
0010
0000
0100
0000
,
0001
0000
1000
0001
0000
0000
2000
0000
0000
0000
0000
0000
0000
0000
0000
0000
,
3100
0000
0010
0000
,
0001
0100
0010
1000
,
0001
1000
0200
0301
,
0200
0310
0200
1300
,
0001
0001
1000
1000
,
0010
0010
0100
0100
,
0001
0010
0001
0010
0001
0010
0100
1000
,
0001
MMMM
MMMM
MMMM
,
2002
3000
0013
2002
,
0000
3003
1001
0110
,
2002
0003
3010
2002
,
0000
0000
3003
0000
,
0001
0000
0001
0000
0001
0100
0010
0000
,
0100
0000
0100
0000
0100
0010
1000
0000
,
0100
0010
0011
0000
,
0001
0000
0010
0000
1001
0000
0001
0100
,
0001
1000
0001
1000
0001
1000
0001
1000
,
0001
0010
0100
1000
0100
0010
0001
0000
,
1000
0001
0100
0010
,
2000
3200
0320
0032
,
1003
0000
0011
0000
0000
0100
1100
0000
,
1000
0000
1001
0000
0000
0001
0101
0000
,
1001
0101
1001
0000
,
1001
0000
1100
0000
1001
0000
0001
1000
,
1010
1010
0011
0011
,
0001
0010
0100
1000
0010
0100
0002
0000
,
0000
0000
0000
0003
0000
0000
0000
0000
;

//--------------- dance-single - Pandemonium X ----------------
#NOTES:
     dance-single:
     Pandemonium X:
     Hard:
     15:
     0,0,0,0,0:
0000
0000
0000
0000
,
0000
0000
0000
0000
,
0000
0000
0000
0000
,
0002
0000
0000
0100
,
0100
0000
0000
0100
0000
0000
0003
0000
,
0000
0000
0000
0100
,
0010
0000
0100
0010
1000
0000
1000
0000
,
0020
0000
0000
0000
0000
0000
0100
0100
,
0000
0100
0000
0000
0030
0000
0000
0100
,
0001
0000
0001
0010
0000
0010
0000
0100
,
0000
0010
0000
0000
0000
0000
0000
0000
,
0001
1000
0000
1000
0010
0000
0010
1000
,
0000
1000
0001
0000
1000
0001
1000
0000
,
1000
0010
0000
0010
0100
0000
0100
0001
,
0000
0001
0010
0000
0100
1000
0010
0100
,
0002
0103
0001
0010
,
0200
1300
0100
0001
,
0200
0000
0310
0000
0001
0010
0100
1000
,
0001
0100
1000
0100
0001
0010
1000
0010
,
0001
0000
1000
0000
0100
0000
0010
0100
,
0000
1000
0000
0100
1000
0000
0010
0000
,
0100
0000
1000
0000
0100
0001
0010
0100
,
1000
0100
0001
0100
1000
0010
0001
0010
,
0100
0001
0010
0001
0100
0010
1000
0010
,
0100
0001
0010
0100
1000
0100
0010
0001
,
1000
0001
1000
0001
1000
0001
1000
0001
1000
0001
1000
0001
1000
0001
1000
0001
,
1000
0000
0000
0000
0000
0000
0000
0000
0000
0000
0000
0000
0000
0000
0000
0000
0000
0000
0000
0000
0000
0000
0000
0000
MMMM
0000
0000
0000
0000
0000
0MM0
0000
0000
0000
0000
0000
MMMM
0000
0000
0000
0000
0000
0000
0000
0000
0000
0000
0000
0000
M000
MM00
MMM0
MMM0
0MM0
0MMM
0MM0
MMM0
MMM0
MM00
M000
0000
0000
0000
0000
0000
0000
0000
0000
0000
0000
0000
0000
M00M
0000
0000
0000
0000
0000
M00M
0000
0000
0000
0000
0000
MMMM
0000
0000
0000
0000
0000
0000
0000
0000
0000
0000
0000
,
2010
0000
3001
2100
,
0000
0000
0000
0000
0000
0000
0000
3000
M100
0000
0000
0000
0000
0000
0000
0000
,
0021
0000
0200
0330
,
2100
0000
0002
3003
,
0201
0001
0010
0301
,
1020
0000
0100
0000
1000
0000
0130
0010
,
1000
1000
0001
0001
1000
1000
0001
0001
,
1000
0010
0100
0001
0010
0001
0100
0010
1000
0010
0000
0000
,
2000
0000
3200
0000
0320
0000
0031
1000
,
0002
0000
0200
0003
2000
0300
0020
3000
,
0031
0000
0000
0000
0000
0000
0000
0000
0000
0000
0000
0000
1010
0000
0000
0000
0000
0000
0000
0000
0000
0000
0000
0001
,
0100
0000
0000
0000
0000
0000
0000
0000
0000
0000
0000
1000
0100
0000
0000
0000
0000
0000
0100
0000
0000
0000
0000
0000
,
0010
0000
0000
0000
0000
0000
0001
0000
0000
0000
0000
0100
0010
0000
0000
0000
0000
0000
0100
0000
0000
0000
0000
0010
,
1000
0000
0000
0000
0000
0000
0100
0000
0000
0000
0000
0010
0001
0000
0000
0000
0000
0000
0100
0000
0000
0000
0000
0000
,
0001
1000
0100
0010
0100
1000
0001
0100
,
0010
1000
0010
0100
0001
0100
0001
0010
0001
1000
0100
0010
,
0002
0000
0000
0000
,
2003
0000
0000
0000
,
3020
0000
0000
0000
,
0230
0000
0000
0000
0000
0000
1300
0100
,
0002
0000
0000
0023
,
0000
0000
0230
0000
,
0310
0000
0010
0000
0001
0000
1000
0000
1000
0000
0010
0000
,
0100
0000
0100
0000
0010
0000
1000
0000
1000
0000
0001
0000
,
4000
0001
3000
0000
0001
0000
0101
0000
,
0200
0010
0310
0000
2000
0001
3001
0040
,
0100
0030
0001
0000
0001
1000
0010
1000
,
0001
0000
0000
0000
0000
0000
0000
0000
0200
0300
0000
0000
0200
0300
0000
0000
0000
0000
0000
0000
0200
0300
0000
0000
0200
0300
0000
0000
0000
0000
0000
0000
1000
0000
0000
0000
0000
0000
0000
0000
0001
0000
0000
0000
0000
0000
0000
0000
0100
0000
0000
0000
0000
0000
0000
0000
0020
0000
0000
0000
2030
0000
0000
0000
,
3100
0000
1000
0000
0010
0000
0000
0000
0100
0000
0001
0000
0010
0100
0000
0000
,
0020
0100
0130
2000
0001
3001
0100
0010
,
0100
0001
0100
0000
0101
0000
0000
0000
1000
0100
1000
0000
1100
0000
0000
0000
,
1000
0000
0000
0000
0000
0000
0020
0030
0000
0020
0030
0000
0000
0000
0000
0000
0000
0000
0021
0000
0000
0000
0000
0000
0000
0000
0000
0000
0000
0000
0000
0000
0000
0000
0000
0000
0000
0000
0000
0000
0000
0000
0430
0000
0000
0000
0000
0000
,
1300
0001
0000
0001
0100
0000
0100
0001
,
0000
0001
1000
0000
0001
1000
0001
0010
,
0001
0000
0010
0100
1000
0100
0010
0001
,
1000
0010
0001
0010
1000
0100
0001
0100
,
1000
0010
1000
0010
0100
0001
0010
0001
,
1000
0100
1000
0010
0100
0001
0010
0100
,
1000
0001
1000
0001
1000
0001
1000
0001
1000
0001
1000
0001
1000
0001
1000
0001
,
1000
0000
0000
0000
0000
0000
0000
0000
0000
0000
0000
0000
0000
0000
0000
0000
0000
0000
0000
0000
0000
0000
0000
0000
MMMM
0000
0000
0000
0000
0000
0MM0
0000
0000
0000
0000
0000
MMMM
0000
0000
0000
0000
0000
0000
0000
0000
0000
0000
0000
0000
M000
MM00
MMM0
MMM0
0MM0
0MMM
0MM0
MMM0
MMM0
MM00
M000
0000
0000
0000
0000
0000
0000
0000
0000
0000
0000
0000
0000
M00M
0000
0000
0000
0000
0000
M00M
0000
0000
0000
0000
0000
MMMM
0000
0000
0000
0000
0000
0000
0000
0000
0000
0000
0000
,
0102
0000
1003
0012
,
0000
0000
0000
0000
0000
0000
0000
0003
002M
0000
0000
0000
0200
0000
0330
0000
,
2100
0000
3010
0102
,
0000
0000
0000
0000
0000
0000
0000
0000
1003
000M
0000
0000
0000
0000
0000
0000
,
0001
0000
1010
0000
0010
0100
0001
0000
,
1000
0000
0011
0000
1000
0010
0100
0000
,
1010
0011
1010
1001
,
0101
1100
0101
1001
,
0001
0001
1000
1000
0001
0001
1000
1000
,
0001
0100
0010
1000
0100
1000
0010
0100
0001
0100
0000
0000
,
0002
0000
0023
0000
0230
0000
1300
0001
,
2000
0000
0020
3000
0002
0030
0200
0003
,
1300
0000
0101
0000
0100
0001
0011
0000
,
0100
0000
1100
0000
1000
0010
0110
0000
,
0202
0303
0022
0033
0201
0010
0310
0000
,
2020
3030
2200
3300
1020
0100
0130
0000
,
0110
1001
0110
1001
,
0001
0100
0001
1000
0010
1000
0010
0100
0001
0010
0100
2000
,
0000
0000
0000
0000
0000
0000
0000
0000
0000
0000
0000
0000
0000
0000
0000
0000
0000
0000
0000
0000
0000
0000
0000
0000
0000
0000
0000
0000
0000
0000
0000
0000
0000
0000
0000
0000
0000
0000
0000
0000
0000
0000
0000
0000
0000
0000
0000
0000
0000
0000
0000
0000
0000
0000
0000
0000
0000
0000
0000
0000
0000
0000
0000
0000
0000
0000
0000
3000
0000
0000
0000
0000
0000
0000
0000
0000
0000
M000
0000
0000
0000
0000
0000
0000
0000
0000
0000
0000
0000
0000
0000
0000
0000
0000
0000
0000
0000
0000
0000
0000
0000
0000
0000
0000
0000
0000
0000
0000
0000
0000
0000
0000
0000
0000
0000
0000
0000
0000
0000
0000
0000
0000
0000
0000
0000
0000
0000
0000
0000
0000
0000
0000
0000
0000
0000
0000
0000
0000
0000
0000
0000
0000
0000
0000
0000
0000
0000
0000
0000
0000
0000
0000
0000
0000
0000
0000
0000
0000
0000
0000
0000
0000
0000
0000
0000
0000
0000
0000
0000
0000
0000
0000
0000
0000
0000
0000
0000
0000
0000
0000
0000
0000
0000
0000
0000
0000
0000
0000
0000
0000
0000
0000
;
