#TITLE:Back to the Dance Floor;
#SUBTITLE:;
#ARTIST:DJ SIMON;
#TITLETRANSLIT:;
#SUBTITLETRANSLIT:;
#ARTISTTRANSLIT:;
#GENRE:;
#CREDIT:;
#MUSIC:Back to the Dance Floor.ogg;
#BANNER:Back to the Dance Floor.png;
#BACKGROUND:Back to the Dance Floor-bg.png;
#CDTITLE:;
#SAMPLESTART:16.050;
#SAMPLELENGTH:15.784;
#SELECTABLE:YES;
#OFFSET:1.450;
#BPMS:0.000=126.000;
#STOPS:;
#BGCHANGES:;
#FGCHANGES:;

//--------------- dance-single - Pandemonium X ----------------
#NOTES:
     dance-single:
     Pandemonium X:
     Beginner:
     4:
     0,0,0,0,0:
0000
0000
0000
0000
,
0000
0000
0000
0000
,
0000
0000
0000
0000
,
0000
0000
0000
0000
,
0000
0000
0000
0000
,
0000
0000
0000
0000
0001
0000
0000
0001
,
0000
0000
0000
0000
1000
0000
0000
1000
,
0000
0000
0001
0000
,
1000
0000
0020
0000
,
0130
0010
2000
0000
,
3000
0001
0020
0000
,
0030
0000
0100
0000
,
0100
0000
1000
0000
,
1000
0000
0020
0000
,
0030
0000
0200
0000
,
0000
0300
0001
0000
,
0001
0000
1000
0000
,
1000
0000
0001
0000
,
0001
0000
0001
0000
,
1000
0001
1000
0000
,
1000
0000
1000
0000
,
0001
1000
0010
0000
,
0100
0000
0010
0000
,
0100
0010
0100
0010
,
0100
0010
0100
0010
,
1001
1001
2000
0000
,
3000
0001
0200
0000
,
0300
0000
0010
0000
,
0000
0100
0001
0000
,
0000
0010
0200
0000
,
0300
1000
0002
0000
,
0003
0000
1000
0000
,
0000
0001
0200
0000
,
0300
0000
0010
0000
,
0010
0000
0010
0000
,
0010
0100
0001
0000
,
0001
0000
0001
0000
,
0001
1000
0100
0000
,
0100
0000
0100
0000
,
0100
1000
0010
1000
,
0100
1000
0010
1000
,
1001
1001
0002
0000
,
0000
0000
0000
0003
0000
0000
0000
0000
2000
0000
0000
0000
0000
0000
0000
0000
,
0000
0000
0000
3000
0000
0000
0000
0000
0020
0000
0000
0000
0000
0000
0000
0000
,
0000
0000
0000
0030
0000
0000
0000
0000
0200
0000
0000
0000
0000
0000
0000
0000
,
0000
0000
0000
0300
0000
0000
0000
0000
0020
0000
0000
0000
0000
0000
0000
0000
,
0000
0000
0000
0030
0000
0000
0000
0000
2000
0000
0000
0000
0000
0000
0000
3000
,
0000
0000
0020
0000
,
0000
0000
0000
0030
0000
0000
0000
0000
0200
0000
0000
0000
0000
0000
0000
0000
,
0000
0300
0001
0000
,
0001
0000
1000
0000
,
1000
0000
1001
0000
,
0110
0000
0001
0001
,
0001
0000
0200
0000
,
0000
0310
2000
0000
,
3000
0000
0100
0000
,
0100
0000
0010
0000
,
0010
0000
0002
0000
,
0000
0103
0020
0000
,
0030
0000
0100
0000
,
0100
0000
0010
0000
,
0010
0000
1000
0001
,
1000
0000
0001
1000
,
0001
0000
0000
0000
0000
0100
0000
0000
0000
0000
0000
0000
0000
0000
0000
0000
;

//--------------- dance-single - Pandemonium X ----------------
#NOTES:
     dance-single:
     Pandemonium X:
     Easy:
     6:
     0,0,0,0,0:
0000
0000
0000
0000
,
0000
0000
0000
0000
,
0000
0000
0000
0000
,
0000
0000
0000
0000
,
0000
0000
0000
0000
,
0000
0000
0000
0000
0002
0000
0000
2000
,
0000
3003
0000
0000
2000
0000
0000
0002
,
0000
3003
0000
0000
0110
0000
0000
0000
,
1001
0000
0020
0000
,
0030
0000
2000
0000
,
3000
0001
0200
0000
,
0300
0000
0010
0010
,
0010
0000
0010
0100
0010
0000
0010
0000
,
0010
0000
0010
0100
0002
0000
0000
0000
,
0003
0010
0200
0000
,
0300
0000
1000
1000
,
1000
0000
1000
0010
1000
0000
1000
0000
,
1000
0010
0100
0000
0001
0000
0000
0000
,
0001
0000
0001
0000
,
1000
0001
1000
0000
,
1000
0000
1000
0000
,
1000
0001
0010
0000
,
0100
0000
0010
0000
,
0100
0010
0100
0010
,
0100
0010
0100
0010
,
1001
1001
2000
0000
,
3000
0010
0200
0000
,
0300
0000
0001
0001
,
0001
0000
0001
0010
0001
0000
0001
0000
,
0001
0000
0001
0010
0200
0000
0000
0000
,
0300
0010
0002
0000
,
0003
0000
1000
1000
,
1000
0000
1000
0010
0200
0000
0000
0000
,
0000
0010
0310
0000
1000
0000
0000
0000
,
1000
0000
1000
0000
,
0001
1000
0001
0000
,
0001
0000
0001
0000
,
1000
0001
1000
0000
,
1000
0000
1000
0000
,
0001
1000
0001
1000
,
0001
1000
0001
1000
,
1001
1001
0002
0203
,
0002
0303
2000
3200
,
0020
0330
0010
0002
,
2000
3003
2000
3020
,
0200
0330
0002
2003
,
0020
3030
0200
0302
,
0023
0030
0200
2300
,
0002
3003
0002
0203
,
0020
0330
1000
0000
,
1000
0000
1000
0000
,
1000
0000
0001
0000
,
0001
0000
1001
0110
,
1001
0000
2000
0000
,
3000
0100
0020
0000
,
0030
0000
0001
0001
,
0001
0000
0001
0100
0001
0000
0001
0000
,
0001
0000
0001
0100
0020
0000
0000
0000
,
0030
0100
0002
0000
,
0003
0000
1000
1000
,
1000
0000
1000
0100
1000
0000
1000
0000
,
1000
0100
1000
0000
0001
0000
1000
0000
,
0020
0030
1000
0001
,
0200
0000
0000
0000
0000
0000
0000
0300
0000
0000
0000
0000
0000
0000
0000
0000
;

//--------------- dance-single - Pandemonium X ----------------
#NOTES:
     dance-single:
     Pandemonium X:
     Medium:
     10:
     0,0,0,0,0:
0000
0000
0000
0000
,
0000
0000
0000
0000
,
0000
0000
0000
0000
,
0000
0000
0000
0000
,
0000
0000
0000
0000
,
0000
0000
0000
0000
0001
0000
0000
0100
,
0000
0010
0000
0000
1000
0000
0000
0100
,
0000
0010
0000
0000
1100
0000
0000
0000
,
1010
0000
0002
0000
,
1003
0001
0100
0000
0010
0000
1000
0000
,
0010
0000
0100
0001
0010
0000
0100
0000
,
0010
0001
1000
0000
0001
0100
0001
0100
,
0001
0100
0001
0100
0010
1000
0010
1000
,
0010
1000
0010
0100
0001
0000
1000
0000
,
0100
0000
0010
0100
1000
0000
0001
0000
,
0100
0000
0010
0000
1000
0100
1000
0100
,
1000
0100
1000
0100
0010
0001
0010
0001
,
0010
0100
1100
0000
1001
0000
0000
0000
,
0101
0000
0011
0000
,
0001
1000
0000
0001
1000
0000
0001
0000
1001
0000
0000
0000
0000
0000
0000
0000
,
1010
0000
1100
0000
,
1000
0001
0000
1000
0001
0000
1000
0000
1001
0000
0000
0000
0000
0000
0000
0000
,
0101
0000
0011
0000
,
0001
1000
0000
0001
1000
0000
0001
0000
1000
0001
0000
1000
0001
0000
1000
0000
,
0001
1000
0000
0001
1000
0000
0001
0000
1000
0001
0000
1000
0001
0000
1000
0000
,
1001
1001
0002
0000
,
0003
0000
0100
0001
2000
0000
0000
0000
,
3000
0000
0000
0000
0001
0010
0001
0010
,
0001
0010
0001
0010
0100
1000
0100
1000
,
0100
1000
0100
0010
0002
0000
0000
0000
,
0003
0000
0010
0001
0200
0000
0000
0000
,
0300
0000
0000
0000
0010
0100
0010
0100
,
0010
0100
0010
0100
0001
1000
0001
1000
,
0001
1000
0001
0100
0110
0000
0000
0000
,
1010
0000
1100
0000
,
0001
0010
0000
0001
0010
0000
0001
0000
1001
0000
0000
0000
0000
0000
0000
0000
,
0101
0000
1010
0000
,
1000
0100
0000
1000
0100
0000
1000
0000
1010
0000
0000
0000
0000
0000
0000
0000
,
0101
0000
0011
0000
,
0001
1000
0000
0001
1000
0000
0001
0000
1000
0001
0000
1000
0001
0000
1000
0000
,
0001
1000
0000
0001
1000
0000
0001
0000
1000
0001
0000
1000
0001
0000
1000
0000
,
0001
1001
0002
0100
,
0010
1003
2000
0100
,
0010
3000
0002
0100
,
0010
1003
2000
0100
,
3010
0000
0000
0000
0000
MMMM
0000
0000
0201
0000
0000
0000
0010
0000
0000
0000
,
0001
0310
1020
0130
,
MMMM
MMMM
2001
0010
,
0001
3010
0102
0010
,
0100
0013
0100
1000
,
0100
1000
0001
0100
,
0001
0100
1001
0000
,
0110
0000
0000
0000
0000
0000
0001
0100
0010
1000
0001
0100
,
0010
0000
2000
0100
,
3100
0000
0010
0001
0200
0000
0010
0000
,
0310
0000
0000
0000
0010
1000
0010
1000
,
0010
1000
0010
0100
0001
0100
0001
0100
,
0001
0100
0001
0100
0020
0000
1000
0000
,
1030
0000
0001
0010
0200
0000
1000
0000
,
1300
0000
0000
0000
0100
0010
0100
0010
,
0100
0010
0100
1000
0001
1000
0001
1000
,
0001
1000
0001
0010
0100
0000
1000
0000
,
0010
0000
0000
1001
0000
0000
0000
0000
0001
0000
0000
0000
0100
0000
0000
0000
,
0010
0000
0000
1001
0000
0000
0000
0000
0000
0000
0000
0000
0000
0000
0000
0000
;

//--------------- dance-single - Pandemonium X ----------------
#NOTES:
     dance-single:
     Pandemonium X:
     Hard:
     12:
     0,0,0,0,0:
0000
0000
0000
0000
,
0000
0000
0000
0000
,
0000
0000
0000
0000
,
0000
0000
0000
0000
,
0000
0000
0000
0000
,
0000
0000
0000
0000
0000
0000
0000
0000
0001
0000
1000
0100
1000
0000
0001
0000
,
1000
0000
0100
0010
0000
0100
0000
0000
1000
0000
0001
0010
0001
0000
1000
0000
,
0001
0000
0100
0010
0000
0100
0000
0000
0010
0000
1000
0001
0000
1000
0000
0000
,
0010
0000
1000
0001
0000
1000
0000
0000
0200
0000
0000
0000
0000
0000
0000
0000
,
0310
0000
0001
1000
0000
0010
0100
0010
2000
0000
0000
0000
0100
0000
0000
0000
,
0010
0000
0000
3100
0000
0010
0100
1000
0002
0000
0000
0000
0100
0000
0000
0000
,
0010
0000
0013
0100
0000
0010
0000
0000
0001
0000
0001
0000
0001
0000
0001
0000
,
0001
0000
0001
0000
0001
0010
0100
1000
0010
0000
0010
0000
0010
0000
0010
0000
,
0010
0000
0010
0000
0010
1000
0010
0100
0002
0000
0000
0000
0010
0000
0000
0000
,
0100
0000
0000
0013
0000
0100
0010
0001
2000
0000
0000
0000
0010
0000
0000
0000
,
0100
0000
3100
0010
0000
0100
0000
0000
1000
0000
1000
0000
1000
0000
1000
0000
,
1000
0000
1000
0000
1000
0100
0010
0001
0100
0000
0100
0000
0100
0000
0100
0000
,
0100
0110
1001
0000
0101
0000
0010
0000
,
1100
0010
0101
0010
,
1000
0010
0000
0010
0100
0000
0001
0000
1100
0000
0000
0000
1000
0000
0000
0000
,
0011
0001
1010
1000
,
0001
1000
0000
1000
0100
0000
0010
0000
0011
0000
0000
0000
0001
0000
0000
0000
,
1010
0001
0011
0001
,
0001
0100
0000
0010
1000
0000
0001
0000
0100
0001
0000
1000
0010
0000
1000
0000
,
0001
0100
0000
0010
1000
0000
0001
0000
1000
0010
0000
0100
0001
0000
1000
0000
,
1100
0011
0201
0010
,
0001
0000
0000
0301
0000
0010
0100
1000
0200
0000
0000
0000
0010
0000
0000
0000
,
1000
0000
1300
0010
0000
0100
0000
0000
0010
0000
0010
0000
0010
0000
0010
0000
,
0010
0000
0010
0000
0010
1000
0010
0100
0001
0000
0001
0000
0001
0000
0001
0000
,
0001
0000
0001
0000
0001
0010
0100
1000
0020
0000
0000
0000
1000
0000
0000
0000
,
0100
0000
0000
1030
0000
0100
0010
0001
0020
0000
0000
0000
0100
0000
0000
0000
,
0001
0000
0130
1000
0000
0001
0000
0000
0100
0000
0100
0000
0100
0000
0100
0000
,
0100
0000
0100
0000
0100
0010
1000
0100
0020
0000
0100
0000
0100
0000
0100
0000
,
0130
1001
0110
0000
1001
0000
0010
0000
,
1001
0100
1001
1000
,
0001
0010
0000
0010
1000
0000
0001
0000
1001
0000
0000
0000
0100
0000
0000
0000
,
1001
0010
1001
0001
,
1000
0100
0000
0100
0001
0000
1000
0000
1001
0000
0000
0000
1000
0000
0000
0000
,
0101
0010
1100
0001
,
1000
0010
0000
0010
0001
0000
1000
0000
0001
0100
0000
0100
1000
0000
0001
0000
,
1000
0010
0000
0010
0001
0000
1000
0000
0001
0100
0000
0100
1000
0000
0001
0000
,
1001
0000
0000
0000
1001
0000
0000
0000
2100
0000
0000
3010
0000
0000
0100
0000
,
0102
0000
0000
0013
0000
0000
0000
0000
2100
0000
0000
3010
0000
0000
0100
0000
,
0102
0000
0000
0013
0000
0000
0000
0000
0012
0000
0000
0103
0000
0000
0010
0000
,
2010
0000
0000
3100
0000
0000
0000
0000
0012
0000
0000
0103
0000
0000
0010
0000
,
2010
0000
0000
3100
0000
MMMM
0000
0000
2001
0000
0000
3010
0000
0000
0100
0000
,
0120
0000
0000
1030
0000
0000
0000
0000
1200
0000
0000
0310
0000
0000
0001
0000
,
MMMM
MMMM
MMMM
MMMM
MMMM
0000
0000
0000
1002
0000
0000
0103
0000
0000
0010
0000
,
2010
0000
0000
3100
0000
0000
0010
0000
0021
0000
0000
0130
0000
0000
0010
0000
,
0001
0000
0001
1000
0000
0000
0000
0000
0001
0000
0000
0001
0100
0000
0000
0000
,
0010
0000
0000
0000
1000
0000
0000
0000
0100
0000
0000
0100
1000
0000
0000
0000
,
0010
0000
0000
0000
1000
0000
0000
0000
0010
0000
0000
0010
0100
0000
0001
0000
,
1000
0000
0000
0000
0000
0000
0000
0000
0000
1000
0000
0000
0100
0000
0000
0000
0000
0000
0010
0000
0000
0000
0000
0000
0100
0000
0000
0000
0100
0000
0000
0000
0100
0000
0000
0000
0010
0000
0000
0000
0010
0000
0000
0000
0010
0000
0000
0000
,
1001
0000
0000
0001
0000
0010
0100
0010
0002
0000
0000
0000
0010
0000
0000
0000
,
0100
0000
0000
1003
0000
0100
1000
0010
0200
0000
0000
0000
0001
0000
0000
0000
,
0310
0000
0100
0001
0000
1000
0000
0000
0100
0000
0100
0000
0100
0000
0100
0000
,
0100
0000
0100
0000
0100
0010
0100
1000
0010
0000
0010
0000
0010
0000
0010
0000
,
0010
0000
0010
0000
0010
0100
0010
1000
0002
0000
0000
0000
0010
0000
0000
0000
,
1000
0000
0000
0103
0000
0010
0100
0001
2000
0000
0000
0000
0100
0000
0000
0000
,
3001
0000
0001
1000
0000
0010
0000
0000
1000
0000
1000
0000
1000
0000
1000
0000
,
1000
0000
1000
0000
1000
0100
0010
0100
1000
0000
1000
0000
1000
0000
1000
0000
,
1000
0000
1000
0000
1000
0001
0100
0001
1000
0000
0000
0000
0100
0000
0000
0000
,
1000
0000
0000
1001
0000
0000
0000
0000
0001
0000
0000
0000
0100
0000
0000
0000
,
0001
0000
0000
1001
0000
MMMM
0000
0000
0000
0000
0000
0000
0000
0000
0000
0000
;
