#TITLE:BENJAMIN;
#SUBTITLE:;
#ARTIST:MARON (IOSYS);
#TITLETRANSLIT:;
#SUBTITLETRANSLIT:;
#ARTISTTRANSLIT:;
#GENRE:;
#CREDIT:;
#MUSIC:BENJAMIN.ogg;
#BANNER:BENJAMIN-bn.png;
#BACKGROUND:BENJAMIN-bg.png;
#CDTITLE:;
#SAMPLESTART:16.509;
#SAMPLELENGTH:15.028;
#SELECTABLE:YES;
#OFFSET:-0.259;
#BPMS:0.000=132.000;
#STOPS:;
#BGCHANGES:;
#FGCHANGES:;

//--------------- dance-single - Pandemonium X ----------------
#NOTES:
     dance-single:
     Pandemonium X:
     Beginner:
     2:
     0,0,0,0,0:
0000
0000
0000
0000
,
0000
0000
0000
0000
,
0000
0000
0000
0000
,
0000
0000
0000
0000
,
0000
0000
0000
0000
,
0001
0000
0000
0000
,
1000
0000
0000
0000
,
0001
0000
0000
0000
,
0100
0100
0000
1001
,
1000
0000
0010
0010
,
0000
0000
0000
0000
,
0000
0000
0100
0100
,
0000
0000
0000
0000
,
0000
0000
0001
0001
,
0000
0000
0000
0000
,
0000
0000
1000
1000
,
0001
1000
0001
0000
,
0000
0000
1000
1000
,
0000
0000
0000
0000
,
0000
0000
0010
0010
,
0000
0000
0000
0000
,
0000
0100
0000
0100
,
0000
0100
0000
0100
,
0100
0100
0100
0100
,
0000
0000
0000
0100
,
1001
0000
0001
0000
,
0001
0000
0000
0000
,
1000
0000
1000
0000
,
1000
0000
0000
0000
,
0010
0000
0010
0000
,
0010
0000
0000
0000
,
0100
0000
0100
0000
,
0100
0000
0000
0000
,
0001
0000
0000
0000
,
1000
0000
0000
0000
,
0100
0000
0000
0000
,
0010
0000
0000
0000
,
0001
0000
0000
0000
,
1000
0000
0000
0000
,
0001
0000
0000
0000
,
0100
0100
0000
0000
,
0000
0000
0010
0000
,
0000
0000
0000
0000
,
0000
0000
1000
0000
,
0000
0000
0000
0000
,
0000
0000
0001
0000
,
0000
0000
0000
0000
,
0000
0000
0010
0000
,
0100
0100
0100
0000
,
0000
0000
1001
0000
,
0000
0000
0000
0000
,
0000
0000
0110
0000
,
0000
0000
0000
0000
,
0000
0000
1000
1000
,
0000
0000
0001
0001
,
0000
0100
0000
0010
,
0000
0000
0000
0000
,
0000
0000
0000
1001
;

//--------------- dance-single - Pandemonium X ----------------
#NOTES:
     dance-single:
     Pandemonium X:
     Easy:
     7:
     0,0,0,0,0:
0000
0000
0000
0000
,
0000
0000
0000
0000
,
0000
0000
0000
0000
,
0000
0000
0000
0000
,
0000
0000
0000
0000
,
0001
1000
0001
0000
,
1000
0001
1000
0000
,
0001
0100
0001
0000
,
1010
1010
0000
0000
,
1000
0001
0101
0101
,
0001
1000
0100
0010
,
0001
1000
1100
1100
,
1000
0001
0100
0001
,
0010
0001
0011
0011
,
0001
0100
0001
1000
,
0100
1000
1010
1010
,
1001
0110
2002
3003
,
0100
1001
0101
0101
,
0001
1000
0100
1000
,
0001
0010
1100
1100
,
1000
0000
0001
0000
0100
0000
0001
1000
,
0001
1010
0001
1100
,
0001
1010
0001
1100
,
0011
1100
0101
1010
,
0002
0000
0000
0000
,
1003
0000
0001
0000
,
0100
0020
0000
0030
,
0010
0000
1000
0000
,
0100
0000
0000
0000
,
0010
0000
0001
0000
,
1000
0000
0000
0000
,
0010
0000
0100
0000
,
0002
0000
0000
0000
,
1003
1000
1000
1000
,
0001
0001
0001
0001
,
0100
0100
0100
0100
,
0010
0010
0010
0010
,
1000
0010
1000
0010
,
0100
0001
0100
0001
,
0010
0001
0010
0100
,
1001
1001
0000
0000
,
0001
0100
0110
0000
,
0100
0001
1000
0100
,
0010
0100
1100
0000
,
0100
1000
0001
0100
,
0001
0010
0110
0000
,
0100
1000
0001
0100
,
0010
1000
1001
0001
,
1000
0000
0001
0000
0100
0010
0010
0000
,
0200
0301
1100
0100
,
1000
0010
0100
0001
,
0010
0100
0011
0001
,
0100
0001
1000
0001
,
0100
0010
1001
1001
,
1000
0001
0110
0110
,
1000
0101
0001
1100
,
1000
0001
0100
0010
,
1000
0000
0100
0000
1000
0001
1001
0000
;

//--------------- dance-single - Pandemonium X ----------------
#NOTES:
     dance-single:
     Pandemonium X:
     Medium:
     10:
     0,0,0,0,0:
0000
0000
0000
0000
,
0000
0000
0000
0000
,
0000
0000
0000
0000
,
0000
0000
0000
0000
,
0000
0000
0000
0000
,
0201
0010
0001
0310
,
1020
0100
1000
0130
,
0201
0310
1200
0310
,
0001
1000
0001
1000
0000
0000
0110
0000
,
1000
0000
0000
1000
0000
0000
1000
0000
0001
0000
0100
0000
0001
0000
0100
0000
,
0010
0000
0000
0010
0000
0000
0010
0000
0000
0010
0100
0000
0001
0000
1000
0000
,
0100
0000
0000
0100
0000
0000
0100
0000
0010
0000
0001
0000
0010
0000
0001
0000
,
0100
0000
0000
0100
0000
0000
0100
0000
0000
0100
0010
0000
1010
0000
1000
0000
,
0100
0000
0000
0100
0000
0000
0100
0000
1000
0000
0010
0000
1000
0000
0010
0000
,
0100
0000
0000
0100
0000
0000
0100
0000
0000
0100
0010
0000
1000
0000
0001
0000
,
0010
0000
0000
0010
0000
0000
0010
0000
0100
0000
1000
0000
0100
0000
1000
0000
,
1100
0101
2002
3003
,
0201
0000
0310
0100
0001
0010
0001
0010
,
0100
0000
0000
0100
0000
0000
0100
0000
0000
0100
1000
0000
0010
0000
0100
0000
,
0001
0000
0000
0001
0000
0000
0001
0000
1000
0000
0010
0000
1000
0000
0010
0000
,
1000
0000
0000
1000
0000
0000
1000
0000
0000
0100
1000
0000
0010
0000
0100
0000
,
1001
0000
0010
0100
1001
0000
0100
0010
,
1001
0000
0010
0100
1001
0000
0100
0010
,
1001
0000
0000
0110
0000
0000
1001
0000
0000
0110
0000
0000
0001
0000
1000
0000
,
0020
0000
0000
0000
0000
0000
0100
0130
,
1001
0000
0101
0000
,
1001
2000
0100
0001
,
3100
0000
0101
0000
,
1001
0000
0000
0000
0001
1000
0110
0000
,
0011
0000
1001
0000
,
1100
0000
0000
0000
0001
1000
0010
0000
,
1010
0000
0011
0000
,
2002
0000
0000
0003
,
3001
0001
1000
1000
,
0010
0010
0100
0100
,
0001
0001
0100
0100
,
0010
0010
1000
1000
,
0001
0000
0100
0000
0010
1000
0010
0000
,
1000
0000
0100
0000
0010
0001
0010
0000
,
0001
0000
1000
0000
0001
0100
0001
0000
,
1000
0100
0001
0100
1000
0000
1001
0000
,
0101
0000
1010
0000
0001
0001
0100
0000
,
0001
1000
0100
0010
,
0100
0000
0010
0000
0100
0100
0010
0000
,
0100
0000
1000
0000
0010
0100
0001
1000
,
1001
0000
0001
0000
0100
0100
0010
0000
,
1000
0001
0010
0100
,
0010
0000
0001
0000
0010
0010
0100
0000
,
0011
0000
1100
0000
2001
0010
3010
0000
,
0201
0000
0310
0000
0100
0001
0010
0100
,
1000
0000
0100
0000
1000
0010
0100
0000
,
0001
0000
0010
0000
0100
0010
0001
0100
,
0010
0000
0100
0000
0001
1000
0100
1000
,
1001
0000
0001
0000
1000
1000
0001
0001
,
1001
0000
1001
0000
0001
0001
1000
1000
,
0001
0100
0010
0010
1000
0100
0010
0010
,
0100
1000
0100
1000
0001
0010
0001
0010
,
0001
0010
0100
1000
0001
1000
0110
0000
;

//--------------- dance-single - Pandemonium X ----------------
#NOTES:
     dance-single:
     Pandemonium X:
     Hard:
     13:
     0,0,0,0,0:
0000
0000
0000
0000
,
0000
0000
0000
0000
,
0000
0000
0000
0000
,
0000
0000
0000
0000
,
0000
0000
0000
0000
,
0001
0000
0000
0001
0000
0000
1000
0000
0100
0000
1000
0000
0001
0000
0001
0000
,
1000
0000
0000
1000
0000
0000
0001
0000
1000
0000
0010
0000
1000
0000
1000
0000
,
0001
0000
0000
0001
0000
0000
0010
0000
0001
0000
1000
0000
0001
0000
1000
0000
,
0001
MMMM
0010
MMMM
0000
0000
MMMM
0000
,
1020
0000
0000
0130
0001
0000
1000
0000
0001
0000
MMMM
0000
0010
0000
MMMM
0000
,
0101
0000
0000
0001
1000
0000
0001
0000
0000
1000
0100
0000
0001
0000
0100
0000
,
1100
0000
0000
0001
0010
0000
0001
0000
1000
0000
MMMM
0000
0100
0000
MMMM
0000
,
1010
0000
0000
1000
0001
0000
0010
0000
0000
0001
0010
0000
1000
0000
0010
0000
,
0011
0000
0000
1000
0010
0000
0100
0000
0010
0000
MMMM
0000
0001
0000
MMMM
0000
,
0011
0000
0000
0100
1000
0000
0100
0000
0000
1000
0001
0000
0010
0000
0100
0000
,
0110
0000
0000
0010
0100
0000
1000
0000
0001
0000
MMMM
0000
0100
0000
MMMM
0000
,
0201
0000
0000
0000
0000
0000
1000
0000
0000
0301
0100
0001
0100
0000
0000
0001
0000
0000
0010
0000
0000
0100
0000
0000
,
0020
0000
0000
0001
0000
0000
0100
0000
0031
0000
MMMM
0000
0010
0000
MMMM
0000
,
1001
0000
0000
1000
0001
0000
0100
0000
0000
0001
0010
0000
0100
0000
1000
0000
,
2100
0000
0000
0010
0000
0000
3100
0000
1000
0000
MMMM
0000
0100
0000
MMMM
0000
,
0010
0000
0000
0000
0000
0000
0000
0000
0000
0000
0000
0000
0010
0000
0000
0000
0100
0000
0000
0000
0000
0000
0000
0000
0010
0000
0000
0000
0000
0000
0000
0000
1000
0000
0000
0000
0001
0000
0000
0000
1000
0000
0000
0000
0000
0000
0000
0000
0200
0300
0000
0000
0000
0000
0000
0000
0020
0030
0000
0000
0000
0000
0000
0000
,
0001
0010
0100
MMMM
0100
1000
0010
MMMM
,
0010
1000
0001
MMMM
0100
0010
1000
MMMM
,
1001
0000
0000
0101
0000
0000
1001
0000
0000
1100
0000
0000
1000
0100
0010
0001
,
0200
0000
0000
0000
0000
0000
0310
MMMM
,
1001
0000
0000
1000
0000
0000
0001
0100
0001
0000
0000
0001
0000
0000
1000
0100
,
1000
0020
1000
0130
,
1001
0000
0000
0001
0000
0000
0010
0001
0010
0000
0000
0001
0000
0000
1000
0100
,
1000
0000
0000
0010
0000
0000
0010
0100
0001
0000
1000
0100
0010
0000
0000
0000
,
1001
0000
0000
0001
0000
0000
1000
0010
0100
0000
0000
0001
0000
0000
0010
0100
,
1000
0000
0000
1000
0000
0000
0100
0010
0001
0000
1000
0000
1001
0000
0000
0000
,
1100
0000
0000
1000
0000
0000
1000
0100
0010
0000
0000
0011
0000
0000
0001
1000
,
0010
0400
0000
0000
0000
0000
0000
0000
0000
0000
0000
0000
0000
0000
0000
0000
,
0310
0000
0000
0010
1000
0000
0001
0000
1000
0000
0010
0000
0001
0000
0010
0000
,
1000
0000
0000
1000
0100
0000
1000
0000
0100
0000
0001
0000
0100
0000
1000
0000
,
0001
0000
0000
0001
1000
0000
0100
0000
0010
0000
1000
0000
0010
0000
0001
0000
,
1000
0000
0000
1000
0001
0000
1000
0000
0010
0000
0001
0010
0100
0000
0001
0000
,
1000
0000
0000
0001
1000
0000
0000
1000
0001
0000
0001
0000
0010
0000
0001
0000
,
0100
0000
0000
0100
0010
0000
0000
0010
0100
0000
0100
0000
0010
0000
1000
0000
,
0100
0010
0001
0010
0100
1000
0001
0001
,
1000
MMMM
0010
MMMM
1000
0000
1001
0000
,
1010
0000
0000
0100
0001
0000
0010
0000
0100
0000
MMMM
0000
0100
0000
1000
0000
,
0010
0000
0000
0100
0010
0000
0100
0000
0001
0000
0010
0000
0100
0000
0010
0000
,
0001
0000
0000
1000
0010
0000
1000
0000
0100
0000
MMMM
0000
0100
0000
1000
0000
,
0001
0000
0000
1000
0001
0000
0010
0000
0100
0000
0010
0001
1000
0000
0001
0000
,
1000
0000
0000
0100
1000
0000
0100
0000
1000
0000
MMMM
0000
0100
0000
0001
0000
,
1000
0000
0000
0100
0010
0000
0100
0000
0010
0000
0001
0000
0100
0000
0001
0000
,
0010
0000
0000
0010
0100
0000
1000
0000
0001
0000
MMMM
0000
0010
0000
1000
0000
,
2010
0000
0001
0000
3010
0100
1001
0000
,
MMMM
0000
0000
0001
1000
0000
0100
0000
0010
0000
MMMM
0010
0001
0000
1000
0000
,
0100
0000
0000
0100
1000
0000
0010
0000
0100
0000
0001
0100
0001
0000
0100
0000
,
0001
0000
0000
1000
0001
0000
0010
0000
0100
0000
MMMM
0100
1000
0000
0001
0000
,
0100
0000
0010
1000
0100
0000
0010
0000
0100
0000
1000
0000
0010
0000
0100
0000
,
1001
0000
0000
0001
0100
0000
0001
0000
0011
0000
MMMM
0000
1100
0000
MMMM
0000
,
1001
0000
0000
0000
0000
0000
0000
0000
0000
0001
0000
0000
1000
0000
0000
0000
0000
0000
0100
0000
1000
0000
0100
0000
1000
0000
0000
0000
0000
0000
MMMM
0000
0000
0000
0000
0000
0110
0000
0000
0000
0000
0000
MMMM
0000
0000
0000
0000
0000
,
1000
0001
1001
MMMM
0001
1000
1001
MMMM
,
0001
0100
1000
0100
0001
0010
1000
0010
,
0001
0010
0100
1000
1001
0010
MMMM
0000
;
