#TITLE:B.O.D.Y.;
#SUBTITLE:;
#ARTIST:BEMANI Sound Team "L.E.D. Sota F."& Starbitz;
#TITLETRANSLIT:;
#SUBTITLETRANSLIT:;
#ARTISTTRANSLIT:;
#GENRE:;
#CREDIT:Pandy VS chronon;
#MUSIC:B.O.D.Y..ogg;
#BANNER:B.O.D.Y..png;
#BACKGROUND:B.O.D.Y.-bg.png;
#CDTITLE:;
#SAMPLESTART:71.364;
#SAMPLELENGTH:15.000;
#SELECTABLE:YES;
#OFFSET:0.483;
#BPMS:0.000=157.000;
#STOPS:;
#BGCHANGES:;
#FGCHANGES:;

//--------------- dance-single - Pandemonium X ----------------
#NOTES:
     dance-single:
     Pandemonium X:
     Beginner:
     4:
     0,0,0,0,0:
0000
0000
0000
0000
,
0000
0000
0000
0000
,
0000
0000
0000
0000
,
0000
0000
0000
0000
,
0000
0000
0000
0000
,
0001
0000
1000
0000
,
0020
0000
0030
0000
,
0100
0000
0001
0000
,
2000
0000
3000
0000
,
0100
0000
1000
0000
,
0020
0000
0030
0000
,
0100
0000
0001
0000
,
1001
0000
0000
0000
,
0001
0000
0000
0000
,
1000
0000
0000
0000
,
0010
0000
0010
0000
,
0100
0000
0100
0000
,
1001
0000
0000
0000
,
0001
0000
1000
0000
,
0110
0000
0000
0000
,
1001
0000
0000
0000
,
0001
0000
1000
0000
,
0100
0100
0100
0000
,
1000
0000
0001
0000
,
0010
0010
0010
0000
,
1100
0000
0000
0000
,
0101
0000
0000
0010
,
1001
0000
0000
0000
,
0011
0000
0000
0000
,
1000
0000
0000
0000
,
0001
0000
0000
0000
,
0100
0000
0000
0000
,
0010
0100
0010
0000
,
1000
0000
0000
0000
,
0001
0000
0000
0000
,
0010
0000
0000
0000
,
0001
0000
0000
0001
0000
0000
0000
0000
,
1000
0000
0000
0000
,
0001
0000
0000
0000
,
0100
0000
0000
0000
,
0010
0000
0000
0000
,
1000
1000
1000
1000
,
0001
0001
0001
0001
,
0100
0000
0000
0000
,
0010
0000
0000
0010
0000
0000
0000
0000
,
2002
0000
0000
0000
,
3003
0000
0000
0000
,
0110
0000
0001
0000
,
1000
1000
1000
0000
,
0001
0000
1000
0000
,
0100
0100
0100
0000
,
0010
0000
0100
0000
,
1000
1000
1000
0000
,
0001
0000
0010
0000
,
0001
0001
0001
0000
,
0110
0000
0001
0000
,
1000
0001
1000
0000
,
0001
0000
0100
0000
,
0010
0100
0010
0000
,
0100
0000
0001
0000
,
1000
0100
1000
0000
,
1000
0000
0001
0000
,
0110
0000
0000
0000
,
0000
0000
0000
0000
,
1001
0000
0000
0000
,
0101
0000
0000
0000
,
0010
0010
0010
0010
,
0100
0100
0100
0100
,
0110
0000
0000
0000
,
1001
0000
0000
0000
,
1000
1000
1000
1000
,
0001
0001
0001
0001
;

//--------------- dance-single - chronon ----------------
#NOTES:
     dance-single:
     chronon:
     Easy:
     8:
     0,0,0,0,0:
0000
0000
0000
0000
,
0000
0000
0000
0000
,
0000
0000
0000
0000
,
0000
0000
0000
0000
,
0000
0000
0000
0000
,
0001
0010
0100
1000
,
0001
1000
0010
0000
,
1000
0010
0100
0001
,
1000
0001
0010
0000
,
0001
0010
0100
1000
,
0001
1000
0010
0000
,
1000
0010
0100
0001
,
1000
0000
0000
0001
0000
0000
1000
0000
,
0001
0000
1001
0000
0000
1000
0000
0000
,
0200
0000
0000
0320
0000
0000
0031
0000
,
1000
1000
1000
0000
,
0001
0001
0001
0000
,
1000
0002
0000
0103
,
0010
0100
0000
0020
0000
2030
0000
0000
,
3001
0001
0001
0000
,
1000
1000
1000
0100
,
1000
0100
0010
0010
,
0001
0100
0010
0010
,
1000
0100
0010
0010
,
0001
0100
0010
0010
,
1000
0001
1000
0000
0100
0000
0000
0000
,
1000
0001
1000
0000
0010
0000
0101
0000
,
0001
0100
1000
0100
,
0001
0000
1000
0000
0000
0001
0000
0000
1000
0000
0000
1001
0000
0000
0000
0000
,
0001
0010
0100
1000
,
0001
0001
1000
1000
,
0001
0100
0010
1000
,
0002
0000
0000
1003
,
1000
0001
1000
0000
0100
0000
0010
0000
,
0001
1000
0001
0000
0100
0000
0010
0000
,
1000
0001
1000
0000
0100
0000
0020
0000
,
0001
0000
0000
0230
0000
0000
1300
0000
,
1000
0100
1000
0000
0100
0000
0010
0000
,
0001
1000
0001
0000
0100
0000
0010
0000
,
1000
0010
1000
0000
0010
0000
0100
0000
,
0002
0000
0000
1003
,
0001
0010
0100
0001
,
0100
0010
0001
1000
,
1001
0000
1001
0000
,
1001
0000
0000
0000
,
2002
0000
0000
0000
,
0000
0000
0000
3003
,
0001
0100
0010
1000
,
0001
0010
0100
1000
,
1000
0100
0010
0001
,
1000
0000
0010
0000
0100
0001
0100
0000
,
0001
0100
0010
1000
,
0001
0010
0100
1000
,
0100
1000
0100
0000
0010
0001
0010
0000
,
0001
1000
0001
1001
,
1000
0010
0001
0010
,
1000
0100
0010
0001
,
0001
0010
1000
0010
,
0001
0000
0010
0000
0100
1000
0100
0000
,
1000
0100
0010
0001
,
1000
0010
0100
0001
,
0100
0001
0100
0000
0010
1000
0010
0000
,
1000
0001
0000
1000
0000
0001
1000
0000
,
0000
0000
0000
0000
,
0001
1000
0001
0000
0010
0100
0010
0000
,
0001
1000
0001
0000
0100
0010
0100
0000
,
0001
0100
0010
0001
,
0010
0100
0001
1000
,
1000
0001
1000
0000
0100
0010
0100
0000
,
1000
0001
1000
0000
0010
0100
0010
0000
,
1000
0010
0100
1000
,
0100
0010
1000
0001
;

//--------------- dance-single - Pandemonim X ----------------
#NOTES:
     dance-single:
     Pandemonim X:
     Medium:
     11:
     0,0,0,0,0:
0000
0000
0000
0000
,
0000
0000
0000
0000
,
0000
0000
0000
0000
,
0000
0000
0000
0000
,
0000
0000
0000
0000
,
1001
0000
1000
0200
0000
0000
1300
0020
,
0000
0000
0130
0002
0000
1003
0100
0010
,
0100
0000
0000
0010
0000
0000
0002
0000
0000
0000
0103
0000
0001
0000
0020
0000
,
0000
0000
0000
0230
0000
0310
0001
0100
,
0010
0000
1000
0002
0000
0000
1003
0020
,
0000
0000
0130
0002
0000
0103
0001
1000
,
0001
0000
0000
1000
0000
0000
0200
0000
0000
0000
0000
0000
0310
0000
0001
0000
,
0011
0000
0000
0011
0000
0000
1100
0000
0000
1100
0000
0000
1000
0000
0001
0000
,
0100
0001
1000
0100
,
0001
0100
0010
0001
,
0100
0000
0001
0000
0000
0010
0000
0000
0100
0000
0000
1100
0000
0000
0000
0000
,
0100
0000
1000
0000
0000
0010
0000
0000
0100
0000
0000
0001
0010
0000
0100
0000
,
0010
0001
0010
1000
,
0010
0001
1000
0100
,
0010
0000
0100
0000
0000
1000
0000
0000
0010
0000
0000
1001
0000
0000
0000
0000
,
0010
0000
0100
0000
0000
0001
0000
0000
1000
0000
0000
0001
1000
0000
0000
0000
,
0001
1000
0100
0000
0010
0000
0110
0000
,
0100
1000
0010
0100
0000
0001
0100
0001
,
0010
0000
1100
0000
0100
1000
0001
0000
,
0100
0000
0110
0000
0100
0001
1000
0000
,
0001
0000
1000
0000
0000
0001
0000
0000
0100
0000
0000
0010
0000
0000
0000
0000
,
0100
0000
0001
0000
0000
1000
0000
0000
0100
0000
0000
0000
1001
0000
0000
0000
,
1000
0000
0001
0000
0000
0010
0000
0000
0001
0000
0000
0100
0000
0000
0000
0000
,
0010
0000
0110
0000
0000
0101
0000
0000
1100
0000
0000
1001
0000
0000
0000
0000
,
1000
0001
0100
0001
,
0010
0100
0010
0001
,
1000
0010
0100
0001
,
2000
0000
0001
3002
0000
0013
0100
1000
,
0010
0100
0001
0000
0010
0001
1000
0000
,
0100
1000
0010
0000
0100
0001
1000
0000
,
0100
0010
0001
0000
0010
0100
1000
0000
,
1001
0000
1000
0010
0000
0010
0001
0000
,
1001
0000
0001
0000
1000
0010
0100
0000
,
0001
0000
0010
0000
0100
0010
0001
0000
,
1000
0000
0001
0000
1000
0100
0010
0000
,
0100
0000
1000
0000
0010
0100
0001
0000
,
0101
1010
0101
1001
,
1100
0011
1100
1001
,
0110
1001
0110
1001
,
1001
0000
0001
0010
0000
0010
1000
0000
,
0220
0000
0000
0000
,
0330
0000
0000
0000
,
0001
1000
0010
0000
0110
0000
0100
0000
,
0001
0010
0100
0000
0010
0000
1001
0000
,
1000
0010
0100
0000
0001
0000
0011
0000
,
0001
0010
0100
1000
0001
0010
0100
1000
,
0001
0000
1001
0000
1000
0001
0100
0000
,
0010
0000
1010
0000
1000
0010
0100
0000
,
0001
0000
0011
0000
0010
0100
1000
0000
,
1000
0001
1000
0002
0000
0200
0000
0303
,
1010
0000
0020
0000
0130
0002
0000
0013
,
0100
1000
0010
2000
0000
0001
3001
0000
,
0000
1000
0100
0100
1000
0010
0100
0002
,
0000
0000
0000
0020
0000
0000
0033
0000
,
1100
0000
0100
0010
0001
0000
1001
0000
,
0001
0000
0010
0100
1000
0000
0101
0000
,
0001
0000
0100
0010
1000
0000
0001
0000
,
1001
0101
0000
1010
0000
0101
0000
2002
,
0000
0000
0000
3003
,
1000
0000
0010
0000
0000
0100
0000
0000
0001
0000
0000
0010
0100
0000
0010
0000
,
0001
0000
1000
0000
0000
0001
0000
0000
0100
0000
0000
0010
1000
0000
0010
0000
,
0101
1010
0101
1001
,
1100
0011
1100
0011
,
1000
0000
0001
0000
0000
0100
0000
0000
0010
0000
0000
1000
0010
0000
0100
0000
,
0001
0000
0010
0000
0000
0100
0000
0000
0010
0000
0000
0001
0010
0000
0100
0000
,
1100
0011
1100
1001
,
0101
0000
1010
0000
0101
0000
1001
0020
,
0000
0030
0000
0000
;

//--------------- dance-single - Pandy VS chronon ----------------
#NOTES:
     dance-single:
     Pandy VS chronon:
     Hard:
     12:
     0,0,0,0,0:
0000
0000
0000
0000
,
0000
0000
0000
0000
,
0000
0000
0000
0000
,
0000
0000
0000
0000
,
0000
0000
0000
0000
,
1010
0000
1000
0020
0000
0130
0001
2000
,
0000
0000
3100
1000
0000
0001
0100
0000
,
0101
0000
0000
0001
0000
0000
0200
0000
0000
0000
0310
0000
1000
0000
0200
0000
,
0000
0000
0310
0001
0000
1000
0001
0100
,
0101
0000
0001
0100
0000
0010
1000
0002
,
0000
0000
0013
0001
0000
1000
0100
0000
,
1100
0000
0000
1000
0000
0000
0200
0000
0000
0000
0310
0000
0001
0000
0100
0000
,
0101
0000
0000
0110
0000
0000
1010
0000
0000
1001
0000
0000
1000
0000
0100
0000
,
1000
0000
1010
0000
0010
0100
0001
0000
,
1000
0000
1010
0000
1000
0100
0010
0000
,
0001
0000
0100
0000
0000
0100
0000
0000
0100
0000
0000
0001
1000
0000
0000
0000
,
1000
0000
0100
0000
0000
0100
0000
0000
0100
0000
0000
1000
0001
0000
0100
0000
,
1000
0000
0100
0000
0001
0010
0100
0000
,
0001
0000
0100
0000
1000
0010
0100
0000
,
0010
0000
1000
0000
0000
1000
0000
0000
1000
0000
0000
0001
1000
0000
0000
0000
,
1000
0000
0001
0000
0000
0001
0000
0000
0001
0000
0000
1000
0001
0000
1000
0000
,
1001
0000
0001
0000
0100
0000
0010
1000
,
0001
1000
0100
1000
0001
1000
0010
0000
,
1001
0000
1000
0010
0100
0001
1000
0000
,
0001
1000
0001
0010
0100
1000
0001
0000
,
1000
0000
0100
0000
0010
0100
0000
0000
1000
0000
0010
0100
0000
0000
0001
0000
,
0100
0000
0100
0000
0001
1000
0000
0000
0100
0000
0010
0000
1001
0000
0000
0000
,
0001
0010
0100
1000
0010
0100
0001
0010
,
0011
0000
0011
0000
0000
0011
0000
0000
1100
0000
0000
1010
0000
0000
0000
0000
,
0001
0000
0000
0100
0000
0000
1000
0000
0000
0100
0000
0000
0001
0000
1000
0000
,
0100
0100
0010
0001
0001
0010
0100
0010
,
0001
0000
0000
0010
0000
0000
1000
0000
0000
0010
0000
0000
0001
0000
1000
0000
,
0002
0000
2003
0000
3002
2003
3200
0000
,
0310
0001
0100
0010
1000
0100
0001
0000
,
0100
1000
0001
1000
0010
0001
0010
0000
,
0100
0010
1000
0001
0010
1000
0010
0000
,
0011
0000
0000
1100
0000
0000
1001
0000
,
1000
0001
0100
0000
0001
1000
0100
0000
,
1000
0100
0001
0100
0010
0100
1000
0100
,
0010
0001
1000
0000
0010
1000
0001
0000
,
0200
0000
2300
0000
3100
0010
1000
0000
,
1010
0011
0110
1001
,
0011
1010
0110
1001
,
0001
0100
0010
0000
1000
0100
0010
0000
,
0110
0000
0000
1001
0000
0000
0110
0000
,
2002
0000
0000
0000
,
0000
0000
0000
3003
,
0001
0000
1010
0000
1000
0100
0010
0000
,
0001
0000
1100
0000
1000
0010
0100
0000
,
1000
0000
0011
0000
0001
0010
0100
0000
,
0010
0001
0100
0010
1000
0001
0010
0100
,
1000
0000
0011
0000
0001
0100
0010
0000
,
0100
0000
1001
0000
1000
0100
0010
0000
,
0001
0000
1100
0000
0001
0100
0001
0000
,
0010
0100
1000
0100
0000
1001
0000
0000
,
0001
0100
1000
0000
0001
0010
1000
0000
,
0010
1000
0100
0010
0001
1000
0001
0000
,
1000
0010
0001
0000
1000
0100
0001
0000
,
0100
0001
0010
0100
1000
0001
1000
0000
,
0001
0010
0100
0000
0110
0000
0010
0001
,
1000
0010
0100
0010
0000
0100
0110
0000
,
0010
1000
0001
1000
0100
0010
0001
1000
,
1001
1001
0000
0101
0000
1100
0000
2002
,
0000
0000
0000
3003
,
0001
0000
0100
0000
0000
0010
0000
0000
1000
0000
0000
1000
0100
0000
0000
0000
,
0010
0000
0001
0000
0000
0100
0000
0000
0010
0000
0000
0100
0001
0000
0000
0000
,
0011
1100
0011
1001
,
1010
0101
1010
1001
,
0001
0000
1000
0000
0000
0100
0000
0000
0010
0000
0000
0001
0010
0000
0001
0000
,
0100
0000
0010
0000
0000
1000
0000
0000
0001
0100
0000
0100
0010
0000
1000
0000
,
1010
0011
1010
1001
,
1100
0000
0101
0000
1100
0000
1001
0110
;

//--------------- dance-single - Pandy VS chronon ----------------
#NOTES:
     dance-single:
     Pandy VS chronon:
     Challenge:
     15:
     0,0,0,0,0:
0000
0000
0000
0000
,
0000
0000
0000
0000
,
0000
0000
0000
0000
,
0000
0000
0000
0000
,
0000
0000
0000
0000
,
2001
0000
3001
0200
0000
0310
1000
0200
,
0000
0310
0001
2000
0000
3001
0100
0010
,
2000
0000
0000
3020
0000
0000
0230
0000
0000
0000
0301
0000
1000
0000
0200
0000
,
0000
0000
0000
0320
0000
0130
0010
0001
,
1002
0000
1003
0020
0000
0130
0001
0020
,
0000
0130
1000
0002
0000
1003
0010
0100
,
0002
0000
0000
0203
0000
0000
0320
0000
0000
0000
0130
0000
0001
0000
0100
0000
,
0101
0000
0000
1010
0000
0000
1100
0000
0000
1000
0100
0000
0010
0000
0001
0000
,
1000
0000
1001
0000
0001
0100
0010
0000
,
0001
0010
0100
0010
1000
0001
1000
0000
,
1001
0000
1010
0000
0000
0110
0000
0000
1001
0000
0000
0001
1000
0000
0000
0000
,
1001
0000
0011
0000
0000
0110
0000
0000
1001
0000
0000
1000
0001
0010
0100
1000
,
0001
0000
1000
0100
0010
0100
1000
0100
,
0001
0100
0010
0100
1000
0001
1000
0000
,
1001
0000
0011
0000
0000
0110
0000
0000
1001
0000
0000
1000
0001
0000
0000
0000
,
1001
0000
1010
0000
0000
0110
0000
0000
1001
0000
0000
0001
1000
0010
0100
0001
,
1000
0000
1010
0000
0101
0001
0010
0200
,
0000
1000
1000
2300
0000
0001
3001
0000
,
1001
1000
0001
0010
0100
1000
0100
0010
,
0100
2000
0000
3020
0000
0100
0230
0000
,
0301
0000
0100
0000
0010
0100
0000
0001
1000
0000
0100
1000
0000
0000
0100
0000
,
1000
0000
0100
0000
0010
0100
0000
1000
0001
0000
0010
0001
0200
0000
0300
0000
,
0001
0100
0010
0100
0001
0000
1000
0100
0010
0100
1000
0001
1000
0010
0100
0000
,
0110
0000
0110
0000
0000
0101
0000
0000
1001
0000
0000
1100
0000
0000
0000
0000
,
1000
0000
0100
0000
0010
0000
0100
1000
0000
0001
0000
1000
0010
0000
0100
0000
,
0001
0100
0000
0010
0000
0000
1000
0100
0000
0010
0000
0001
0000
1000
0001
0000
,
1000
0000
0010
0000
0100
0000
0010
1000
0000
0001
0000
1000
0100
0000
1000
0000
,
1200
0000
0302
0000
0203
0320
0032
2003
,
3001
1000
0001
0000
0100
0000
0001
1000
0000
0100
0000
0010
0100
0000
0010
0100
,
1000
0100
0000
0010
0001
0000
0100
0010
0000
1000
0000
0010
0000
0100
0001
0000
,
1000
0001
1000
0000
0010
0000
1000
0001
0000
0010
0000
0100
1000
0000
0100
0020
,
0001
0000
0000
0230
0000
0000
0001
0000
0000
0310
0000
0000
1001
0000
0000
0000
,
1000
0001
1000
0000
0100
0000
1000
0001
0000
0100
0001
0100
0010
0000
0100
0010
,
1000
0010
0000
0100
0001
0000
0010
0100
0000
1000
0000
0001
0000
1000
0100
0010
,
0001
1000
0001
0000
0010
0000
0001
1000
0000
0010
1000
0010
0100
0000
0001
0000
,
0201
0000
0000
0000
2300
0000
0000
0000
3200
0000
0320
0000
1030
0000
0000
0001
,
1000
0000
0000
1000
0010
0000
0000
0010
0100
0000
0000
0000
1001
0000
0000
1000
,
0001
0000
0000
0001
0010
0000
0000
0010
0100
0000
0000
0000
1001
0000
0000
0000
,
1100
0100
1000
0000
0101
0100
0001
0000
,
1001
0000
0000
0110
0000
0000
1001
0000
,
0220
0000
0000
0000
,
0330
0000
0000
MMMM
,
1000
0001
0010
0001
0100
0010
1000
0010
,
0100
0010
1000
0001
0010
0100
1000
0001
,
1000
0010
0100
0001
1000
0001
0010
0100
,
1000
0001
1000
0001
0010
0100
0010
0001
1000
0001
1000
0001
0100
0010
0100
0001
,
1000
0001
0100
0001
0010
0100
1000
0100
,
0010
0100
1000
0001
0100
0010
1000
0001
,
1000
0100
0010
0100
1000
0000
0001
0100
0010
0100
0001
1000
0001
0010
0100
0000
,
1000
0100
0010
0100
1000
0001
1000
0010
0100
0001
1000
0001
0010
0000
0000
0000
,
1001
1000
0001
0010
0001
1000
0100
0010
,
0100
1000
0010
0100
1000
0100
0001
1000
,
0100
0010
0001
0010
1000
0010
0100
0010
,
0001
0010
0001
0010
0100
1000
0100
1000
0001
0100
0001
0100
0010
1000
0010
1000
,
0001
1000
0010
1000
0100
0010
0001
0010
,
0100
0010
0001
1000
0010
0100
0001
1000
,
0001
0010
0100
0010
0001
0000
1000
0010
0100
0010
1000
0001
1000
0100
0010
0000
,
0110
0110
0000
0011
0000
1001
1001
0000
,
0000
0000
0000
MMMM
,
1001
0000
0001
0100
0000
0010
1000
0000
0010
1000
0001
1000
0100
0010
0100
0010
,
0001
0000
1000
0100
0000
0010
0001
0000
0010
0001
1000
0001
0100
0010
0100
0010
,
1000
0000
0000
1000
0100
0000
0000
0100
0010
0000
0000
0000
1001
0000
0000
1000
,
0001
0000
0000
0001
0100
0000
0000
0100
0010
0000
0000
0000
1001
0000
0000
0000
,
0001
0000
1000
0100
0010
0001
0010
0000
0001
0010
0100
1000
0001
1000
0010
0100
,
0001
0000
1000
0010
0100
0001
0100
0000
0001
0100
0010
1000
0001
1000
0100
0010
,
0001
0000
0000
0001
0010
0000
0000
0010
0100
0000
0000
0000
1001
0000
0000
0001
,
1000
0000
0000
1000
0010
0000
0000
0010
0100
0000
0000
0000
0110
0000
1001
0000
;

//--------------- dance-double - Pandemonium X ----------------
#NOTES:
     dance-double:
     Pandemonium X:
     Easy:
     8:
     0,0,0,0,0:
00000000
00000000
00000000
00000000
,
00000000
00000000
00000000
00000000
,
00000000
00000000
00000000
00000000
,
00000000
00000000
00000000
00000000
,
00000000
00000000
00000000
00000000
,
00010000
00000100
00001000
00000010
,
00000100
00000000
00000001
00000000
00000010
00000000
00000100
00010000
,
00001000
00000000
00010000
00000000
00001000
00000000
01000000
00200000
,
00000000
00000000
00000000
10300000
00000000
01000000
00100000
00000000
,
01000000
10000000
00010000
00100000
,
00001000
00000000
00010000
00000000
00000100
00000000
00001000
00000010
,
00000100
00000001
00000010
00000100
,
00020200
00000000
00000000
00030300
,
00001000
00000000
01000000
00000000
00000000
00100000
00000000
00000000
,
10000000
00000000
00000000
01000000
00000000
00000000
00010000
00000000
,
00001000
00010000
00001000
00000000
,
00001000
00010000
00000010
00000000
,
00001001
00000000
00000001
00000000
,
00000100
00000001
00001000
00000000
,
00000010
00001000
00010000
00001000
,
00001000
00010000
00100000
00000000
,
01000000
00010000
10000000
00010000
,
00200000
00302000
00020000
00033000
,
00000000
00010000
00000100
00000000
,
00001000
00000010
00000100
00000002
,
00001003
00000100
00000010
00000000
,
00000100
00010000
00001000
00011000
,
00010000
00001000
01000000
00000000
,
00100000
10000000
10010000
00000000
,
10000000
00010000
00100000
00001000
,
00010000
00000010
00001000
00000010
,
00000100
00000001
00000010
00000100
,
00020000
00032000
00023000
00032000
,
00103000
00010000
10000000
01000000
,
10000000
00100000
01000000
00001000
,
00010000
00000100
00001000
00000010
,
00000110
00000000
00000000
00001001
00000000
00000000
00000000
00000000
,
00000001
00001000
00000100
00010000
,
00001000
01000000
00010000
10000000
,
00010000
00100000
00001000
00010000
,
00000100
00001000
00000010
00000100
,
00001001
00000110
00001001
00000110
,
00001001
00000110
00001001
00000110
,
00000001
00000000
00001000
00000000
,
00001100
00000000
00000000
00001100
00000000
00000000
00000100
00000000
,
00022000
00000000
00000000
00000000
,
00033000
00000000
00000000
00000000
,
00010000
00000100
00010000
00000000
,
00001000
01000000
00001000
00000000
,
01000000
00100000
10000000
00010000
,
00100000
10000000
00100000
00010000
,
00001000
00000100
00001000
00000000
,
00001000
00000010
00000100
00000000
,
00000010
00000100
00000001
00000000
,
00000001
00000100
00001000
00010000
,
00011000
00001000
01000000
00100000
,
10000000
01000000
00100000
00010000
,
00000000
00100000
00001000
00010000
,
00000020
00000000
00000000
00000000
,
00000130
00000010
00000100
00000000
,
00000001
00001000
00000001
00000000
,
00001000
00000100
00010000
00000000
,
00001000
01000000
00000000
00100000
00000000
10000000
00000000
02000000
,
00000000
00000000
00000000
03000000
,
00100000
00000000
00001000
00000000
00010000
00000100
00010000
00000000
,
00000100
00000000
00001000
00000000
00000010
00001000
00000010
00000000
,
00001001
00000110
00001001
00000110
,
00001001
00000110
00001001
00000110
,
00000010
00000000
00010000
00000000
00001000
00010000
00001000
00000000
,
00010000
00000000
00001000
00000000
01000000
00100000
01000000
00000000
,
10010000
01100000
10010000
01100000
,
10010000
00000000
00000000
00000000
01100000
00000000
00000000
00000000
10010000
00000000
00000000
00000000
02200000
00000000
00000000
03300000
;

//--------------- dance-double - chronon (crab mode) ----------------
#NOTES:
     dance-double:
     chronon (crab mode):
     Medium:
     11:
     0,0,0,0,0:
00000000
00000000
00000000
00000000
,
00000000
00000000
00000000
00000000
,
00000000
00000000
00000000
00000000
,
00000000
00000000
00000000
00000000
,
00000000
00000000
00000000
00000000
,
00011000
00000000
00010000
02000000
00000000
13000000
00010000
02000000
,
00000000
00000000
00000000
03002000
00000000
00013000
00001000
00000000
,
00011000
00000000
00000000
00010000
00000000
00000000
00000200
00000000
00000000
00000000
00000310
00000000
00000001
00000000
00000200
00000000
,
00000000
00000000
00000000
00000320
00000000
00010030
00001000
00000000
,
00011000
00000000
00001000
00000020
00000000
00000031
00001000
00000020
,
00000000
00000000
00000000
00020030
00000000
00031000
00010000
00000000
,
00011000
00000000
00000000
00001000
00000000
00000000
00200000
00000000
00000000
00000000
01300000
00000000
10000000
00000000
00010000
00000000
,
10010000
00000000
00000000
01001000
00000000
00000000
00011000
00000000
00000000
00010100
00000000
00000000
00000100
00000000
00001000
00000000
,
00000001
00000000
00001001
00000000
00000000
00001010
00000000
00000000
,
00011000
00000000
00000000
00110000
00000000
00000000
11000000
00000000
,
10000000
00000000
01000000
00000000
00000000
01000000
00000000
00000000
01000000
00000000
00000000
00100000
00010000
00000000
00000000
00000000
,
00001000
00000000
00000100
00000000
00000000
00000100
00000000
00000000
00000100
00000000
00000000
00000010
00000001
00000000
00000000
00000000
,
00001000
00000001
00000100
00000010
,
00001000
00010000
01000000
00100000
,
10000000
00000000
00100000
00000000
00000000
00100000
00000000
00000000
00100000
00000000
00000000
01000000
00010000
00000000
00000000
00000000
,
00001000
00000000
00000010
00000000
00000000
00000010
00000000
00000000
00000010
00000000
00000000
00000100
00000001
00000000
00000000
00000000
,
00001000
00000000
00000001
00000000
00000010
00000000
00000100
00000002
,
00000000
00000103
00001000
00000002
00000000
00001003
00000010
00010000
,
00001000
00000000
00100000
00010000
10000000
00100000
10000000
00000000
,
00100000
10000000
00010000
00000000
00100000
00010000
10000000
00000000
,
00010000
00000000
00000000
00010000
01000000
00000000
00000000
01000000
00001000
00000000
00010000
00001000
00000000
00000000
00000000
00000000
,
00010000
00000000
00010000
00000000
00000000
00001000
00000000
00000000
00000010
00000000
00000000
00000000
00001001
00000000
00000000
00000000
,
00000001
00000100
00000010
00001000
00000100
00010000
00001000
00000000
,
01000000
00000000
01000000
00000000
00000000
00010000
00000000
00000000
10000000
00000000
00000000
10010000
00000000
00000000
00000000
00000000
,
10000000
01000000
00100000
00000000
00010000
00000000
00001000
00000000
,
00000100
00000000
00000010
00000000
00000001
00001000
00000001
00000000
,
00000001
00000100
00000010
00000000
00001000
00000000
00010000
00000000
,
00200000
00000000
02300000
00000000
23000000
30020000
20030000
30020000
,
10030000
01000000
00100000
00010000
00100000
00001000
00010000
00001000
,
00010000
00000100
00000010
00000001
00001000
00000001
00001000
00000000
,
00000001
00000100
00000010
00001000
00000010
00010000
00001000
00020000
,
00001000
00000000
00000000
02030000
00000000
00000000
00100000
00000000
00000000
13000000
00000000
00000000
10010000
00000000
00000000
00000000
,
10000000
00100000
10000000
00010000
01000000
00001000
00010000
00001000
,
00000010
00000001
00001000
00000001
00000100
00000010
00001000
00000000
,
00000001
00000100
00000001
00001000
00000010
00010000
00001000
00010000
,
02000000
00000000
23000000
00000000
30020000
20030000
30020000
00030000
,
01010000
01001000
00011000
01000100
,
00001100
00010100
00011000
01000100
,
00011000
00000000
00001100
00000000
,
00001001
00000000
00000000
00000000
,
00002002
00000000
00000000
00000000
,
00000000
00000000
00000000
00003003
,
00000001
00000100
00001000
00010000
,
00100000
10000000
00010000
00000000
00100000
00010000
10000000
00000000
,
10000000
00100000
00010000
00001000
,
00010000
00000100
00001000
00000001
00000010
00000001
00001000
00001000
,
00000001
00000010
00001000
00010000
,
01000000
10000000
00010000
00000000
01000000
00010000
10000000
00000000
,
10000000
00100000
01000000
00010000
00100000
00001000
00010000
00000100
,
00000010
00000001
00001000
00001001
,
00000001
00000100
00000020
00000000
00010030
00001000
02000000
00000000
,
03100000
10000000
00010000
10000000
01000000
00000000
10000000
00000000
,
10000000
01000000
00100000
00000000
00001000
00010000
00000100
00000000
,
00010000
00000010
00001000
00000001
00000100
00000001
00000010
00000010
,
00000001
00000010
00001000
00010000
,
01000000
10000000
00010000
00000000
01000000
00010000
10000000
00000000
,
10000000
00000000
01000000
00000000
00100000
00010000
00001000
00000000
,
00000100
00000010
00000000
00000001
00000000
00001000
00000000
00002002
,
00000000
00000000
00000000
00003003
,
00000001
00000100
00001000
00000000
00010000
00100000
10000000
00010000
,
10000000
01000000
00010000
00000000
00001000
00000010
00000001
00001000
,
00001010
00010010
00011000
00100010
,
00110000
00101000
00011000
00100010
,
00100000
00001000
00010000
00000100
00000010
00000001
00000100
00000010
,
00000100
00001000
00010000
01000000
00100000
00010000
01000000
00010000
,
01010000
01001000
00011000
01000100
,
00001100
00000000
00010100
00000000
00011000
00000000
01000100
01000100
;

//--------------- dance-double - Pandy VS chronon ----------------
#NOTES:
     dance-double:
     Pandy VS chronon:
     Hard:
     13:
     0,0,0,0,0:
00000000
00000000
00000000
00000000
,
00000000
00000000
00000000
00000000
,
00000000
00000000
00000000
00000000
,
00000000
00000000
00000000
00000000
,
00000000
00000000
00000000
00000000
,
00110000
00000000
00010000
02000000
00000000
00000000
03001000
00020000
,
00000000
00000000
00030100
00002000
00000000
00003100
00000001
00000100
,
00001000
00000000
00000000
00000100
00000000
00000000
00020000
00000000
00000000
00000000
00000000
00000000
00031000
00000000
00200000
00000000
,
00000000
00000000
00000000
00301000
00000000
00010000
00000010
00001000
,
00001010
00000000
00001000
00000200
00000000
00000000
00010300
00002000
,
00000000
00000000
01003000
00020000
00000000
01030000
10000000
01000000
,
00010000
00000000
00000000
01000000
00000000
00000000
00002000
00000000
00000000
00000000
00000000
00000000
00013000
00000000
00000010
00000000
,
00000100
00000000
00000000
00000101
00000000
00000000
00001010
00000000
00000000
00011000
00000000
00000000
00001000
00000000
00010000
00000000
,
01000000
10000000
00100000
10000000
,
00010000
00100000
00001000
00010000
,
00000100
00000000
00000100
00000000
00000000
00001000
00000000
00000000
00000010
00000000
00000000
00000100
00000001
00000000
00000000
00000000
,
00000100
00000000
00000100
00000000
00000000
00000001
00000000
00000000
00000010
00000000
00000000
00000100
00001000
00000000
00000001
00000000
,
00001000
00002100
00000010
00003001
,
00000100
00000001
00000010
00000000
00000100
00001000
00000010
00000000
,
00010000
00000000
00010000
00000000
00000000
00001000
00000000
00000000
01000000
00000000
00000000
00010000
10000000
00000000
00000000
00000000
,
00010000
00000000
00010000
00000000
00000000
01000000
00000000
00000000
00001000
00000000
00000000
00010000
00000100
00000000
00001000
00000000
,
00000001
00000000
00000200
00000000
00002300
00000000
00013000
00001000
,
00100000
01000000
00100000
00010000
01000000
00000000
00011000
00000000
,
00000100
00001000
00000010
00000010
00000100
00000002
00000000
00000000
,
00001003
00002000
00000000
00000001
00000000
00000000
00003020
00000000
,
00000130
00000000
00000001
00000000
00000100
00000010
00000000
00000010
00001000
00000000
00001000
00000100
00000000
00000000
00000000
00000000
,
00010000
00000000
00001000
00000000
01000000
00010000
00000000
00010000
01000000
00000000
00100000
00000000
10010000
00000000
00000000
00000000
,
10000000
00010000
10000000
01000000
00100000
01000000
00100000
00010000
,
00110000
00000000
00110000
00000000
00000000
00101000
00000000
00000000
00011000
00000000
00000000
00010100
00000000
00000000
00000000
00000000
,
00000100
00001000
00000010
00000000
00000100
00000000
00000101
00000000
,
00000001
00000010
00001000
00000010
00000100
00001000
00000100
00010000
,
00001000
01000000
00100000
00000000
10000000
00000000
10010000
00000000
,
00210000
00000000
00302000
00000000
00023000
00030020
00000230
00002300
,
00003100
00000001
00000010
00000100
00001000
00000100
00010000
00001000
,
01000000
00010000
00100000
01000000
10000000
00100000
01000000
00001000
,
00010000
00000100
00001000
00000100
00000010
00000001
00000010
00000100
,
00001100
00000000
00000000
01010000
00000000
00000000
00011000
00000000
,
00001000
01000000
00100000
00000000
01000000
00010000
10000000
00000000
,
10000000
00100000
01000000
00010000
00100000
00001000
00010000
00000100
,
00001000
00000010
00000100
00000000
00000010
00010000
00001000
00010000
,
00021000
00000000
00030200
00000000
00000320
00000032
00002003
00003100
,
00001100
01010000
00001100
00011000
,
00001100
01010000
00001100
00011000
,
00010000
00000100
00001000
00000000
00000010
00000100
00000001
00000000
,
00000101
00000000
00000000
00001010
00000000
00000000
00001000
00000000
,
00022000
00000000
00000000
00000000
,
00033000
00000000
00000000
00110000
,
00010000
00100000
01000000
00000000
01000000
10000000
00100000
00000000
,
01000000
00010000
00100000
00001000
00010000
00000100
00001000
00000010
,
00000100
00000001
00000010
00000000
00000100
00001000
00000010
00000100
,
00000100
00000001
00000001
00001000
00001000
00000100
00000100
00010000
,
00011000
00001000
01000000
00000000
00100000
10000000
00010000
00000000
,
00100000
01000000
00100000
00001000
00010000
00000100
00001000
00000000
,
00000010
00000100
00000001
00000000
00000010
00000100
00001000
00000000
,
00000100
00001000
00000000
00001100
00000000
00020200
00000300
00000000
,
00031000
00000000
01000000
00000000
00010000
00100000
00000000
01000000
,
10000000
10000000
00010000
00200000
00000000
00001000
00301000
00000000
,
00000000
00010000
00000100
00001000
00000010
00000001
00000010
00000200
,
00000000
00000000
00000000
00000002
00000000
00000000
00000303
00000000
,
00001010
00000000
00000010
00010000
00001000
00000000
01001000
00000000
,
01000000
00100000
10000000
00010000
00100000
00000000
11000000
00000000
,
01000000
00100000
00010000
00001000
00000100
00000020
00000000
00000000
,
00000130
00001001
00000000
00010100
00000000
00012000
00000000
02000000
,
00000000
00000000
00000000
03003000
,
01100000
00000000
01010000
00000000
00000000
00110000
00000000
00000000
00101000
00000000
00000000
00010000
00001000
00000000
00010000
00000000
,
00011000
00000000
00010100
00000000
00000000
00001100
00000000
00000000
00011000
00000000
00000000
00001000
00100000
00000000
00010000
00000000
,
00110000
00001010
00110000
00011000
,
00110000
00001010
00110000
00011000
,
01001000
00000000
01100000
00000000
00000000
10100000
00000000
00000000
10010000
00000000
00000000
10000000
01000000
00000000
00100000
00000000
,
00110000
00000000
11000000
00000000
00000000
10010000
00000000
00000000
00110000
00000000
00000000
00100000
00001000
00000000
01000000
00000000
,
01010000
00001100
01010000
00011000
,
01010000
00000000
00001100
00000000
01010000
00000000
00011000
00011000
;

//--------------- dance-double - Pandy VS chronon ----------------
#NOTES:
     dance-double:
     Pandy VS chronon:
     Challenge:
     15:
     0,0,0,0,0:
00000000
00000000
00000000
00000000
,
00000000
00000000
00000000
00000000
,
00000000
00000000
00000000
00000000
,
00000000
00000000
00000000
00000000
,
00000000
00000000
00000000
00000000
,
00021000
00000000
00030100
00000020
00000000
00000130
00001000
00000020
,
00000000
00000130
00000001
00002000
00000000
00003100
00010000
00001000
,
00011000
00000000
00000000
00010000
00000000
00000000
02000000
00000000
00000000
00000000
13000000
00000000
00010000
00000000
02000000
00000000
,
00000000
00000000
00000000
03020000
00000000
10030000
00010000
00100000
,
00110000
00000000
00100000
00002000
00000000
00013000
00000010
00000200
,
00000000
00000310
00000100
00000002
00000000
00000103
00000010
00010000
,
00002000
00000000
00000000
02003000
00000000
00000000
03200000
00000000
00000000
00000000
10300000
00000000
01000000
00000000
00100000
00000000
,
00110000
00000000
00000000
00101000
00000000
00000000
00011000
00000000
00000000
00010010
00000000
00000000
00000010
00000100
00000010
00000100
,
00000010
00000000
00001001
00000000
00001000
00000100
00010000
00000000
,
00001000
01000000
00010000
10000000
00100000
10000000
01000000
00000000
,
11000000
00000000
01100000
00000000
00000000
00110000
00000000
00000000
00101000
00000000
00000000
00001000
00010000
00000000
00000000
00000000
,
00011000
00000000
00010100
00000000
00000000
00001100
00000000
00000000
00000110
00000000
00000000
00000010
00000001
00001000
00000001
00000000
,
00001000
00000010
00000200
00000000
00001000
00000000
00000301
00000000
,
00001000
00000100
00010000
00001000
01000000
00100000
10000000
00010000
,
10010000
00000000
00110000
00000000
00000000
00110000
00000000
00000000
00101000
00000000
00000000
00010000
00001000
00000000
00000000
00000000
,
00011000
00000000
00010100
00000000
00000000
00001100
00000000
00000000
00001100
00000000
00000000
00000001
00000010
00000100
00000010
00000100
,
00001000
00000000
00000001
00000100
00000010
00000100
00001000
00020000
,
00000000
01030000
10000000
00200000
00000000
10300000
00100000
00000000
,
10000000
00100000
01000000
00100000
00010000
00001000
00000200
00000000
,
00000310
00001000
00000100
00000020
00000000
00000031
00000200
00000000
,
00000310
00000000
00001010
00000000
00000000
00001100
00000000
00000000
00001010
00000000
00000000
00001000
00000100
00000000
00000000
00000000
,
00000100
00000000
00010100
00000000
00000000
00011000
00000000
00000000
01001000
00000000
00000000
00000000
00100010
00000000
00000000
00000000
,
00011000
00000000
00001000
00000000
01000000
00000000
00100000
00000000
10000000
00010000
00100000
00000000
01000000
00100000
00010000
00000000
,
10000000
00010000
01000000
00010000
00100000
00001000
00010000
00000010
00000100
00000001
00000000
00000101
00000000
00000000
00000000
00000000
,
00000001
00000000
00000100
00000000
00001000
00000000
00000100
00001000
00000000
00010000
00000000
00001000
01000000
00000000
00010000
00000000
,
10000000
00010000
00000000
01000000
00000000
00000000
00010000
10000000
00000000
01000000
00000000
10000000
00000000
00000000
00010000
00000000
,
10000000
00000000
01000000
00000000
00010000
00000000
01000000
00010000
00000000
00001000
00000000
00010000
00000100
00000000
00001000
00000000
,
00002010
00000000
00023000
00000000
02030000
03200000
20300000
00000000
,
30010000
00100000
01100000
01000000
10000000
00010000
01010000
01000000
,
00001000
00010000
00011000
00010000
00000010
00000100
00000101
00000001
,
00000010
00000100
00001100
00000100
00010000
00001000
00011000
00001000
,
02001000
00000000
00000000
00000000
00000000
00000000
03200000
00000000
00000000
00000000
00000000
00300000
10010000
00000000
00000000
00000000
,
10000000
00000000
01000000
00000000
10000000
00000000
00100000
01000000
00000000
01000000
00010000
00000000
00010000
00100000
00000000
01000000
,
10000000
00000000
10000000
00000000
00010000
00100000
00010000
00000000
00100000
00000000
00001000
00000000
00010000
00000000
00000010
00000000
,
00000100
00000000
00000010
00000100
00000000
00000100
00000001
00000000
00000001
00001000
00000000
00001000
00000100
00000000
00010000
00000000
,
00012000
00000000
00000000
00000000
00203000
00000000
00000000
00000000
01300000
00000000
10000000
00000000
10100000
00000000
00000000
10000000
,
00100000
00000000
00000000
00100000
01000000
00000000
00000000
01000000
00001000
00000000
00000000
00000000
00011000
00000000
00000000
00010000
,
00000010
00000000
00000000
00000010
00001000
00000000
00000000
00001000
00000001
00000000
00000000
00000000
00001001
00000000
00000000
00000000
,
00000101
00000100
00000010
00000000
00001010
00001000
00010000
00000000
,
00110000
00000000
00000000
01100000
00000000
00000000
11000000
00000000
,
20020000
00000000
00000000
00000000
,
00000000
00000000
30030000
MMMM0000
,
10000000
00010000
01000000
00001000
00010000
00000100
00000010
00000001
,
00001000
00000001
00000100
00000010
00010000
00001000
01000000
00100000
,
10000000
00100000
01000000
00010000
00001000
00000010
00000100
00000001
,
00001000
00000001
00001000
00000001
00000100
00000010
00001000
00000000
00001000
00000001
00001000
00000001
00000010
00000100
00001000
00000000
,
00000100
00001000
00000010
00000001
00000010
00000100
00001000
00010000
,
00001000
00100000
01000000
00100000
00010000
01000000
00010000
01000000
,
00001000
00010000
00000100
00001000
00000010
00000100
00000001
00000010
,
00000100
00001000
00000100
00010000
00001000
00021000
00002000
00033000
,
00001000
00010000
01000000
00010000
00001000
00000100
00000010
00001000
,
00000001
00000010
00000100
00001000
00010000
00100000
01000000
10000000
,
00010000
10000000
00100000
01000000
00010000
00001000
00000010
00001000
,
00000010
00001000
00000010
00010000
00001000
00000000
00001000
00010000
00001000
00100000
00010000
00100000
01000000
00100000
00010000
00000000
,
00100000
00010000
01000000
00001000
00010000
00000100
00001000
00000100
,
00000010
00000001
00001000
00000010
00010000
00001000
01000000
00100000
,
10000000
00000000
01010000
00000000
00100000
00001000
00011000
00000000
,
00000010
00000110
00000000
00011000
00000000
01100000
00000000
20020000
,
00000000
00000000
30030000
MMMM0000
,
10100000
00000000
00100000
10000000
00000000
00010000
01000000
00000000
00001000
00010000
00001000
00010000
00000010
00001000
00000010
00001000
,
00000001
00000000
00000010
00000001
00000000
00001000
00000100
00000000
00010000
00001000
00010000
00001000
00100000
00010000
00100000
00010000
,
10000000
00000000
00000000
01000000
00100000
00000000
00000000
00100000
00001000
00000000
00000000
00000000
00011000
00000000
00000000
00010000
,
00000100
00000000
00000000
00000100
00000010
00000000
00000000
00000010
00000001
00000000
00000000
00000000
00001001
00000000
00000000
00000000
,
00000001
00000000
00001000
00000000
00000010
00000000
00010000
00000000
00001000
00100000
00010000
01000000
00100000
01000000
00010000
00100000
,
00001000
00000000
00010000
00000000
00000010
00000000
00001000
00000000
00000001
00001000
00000010
00001000
00000000
00001000
00000001
00000010
,
00000001
00000000
00000000
00000010
00000100
00000000
00000000
00000100
00010000
00000000
00000000
00000000
00011000
00000000
00000000
00010000
,
01000000
00000000
00000000
01000000
10000000
00000000
00000000
10000000
00010000
00000000
00000000
00000000
10010000
00000000
10010000
00000000
;
