#TITLE:天邪鬼;
#SUBTITLE:;
#ARTIST:Qlarabelle;
#TITLETRANSLIT:Amanojaku;
#SUBTITLETRANSLIT:;
#ARTISTTRANSLIT:;
#GENRE:;
#CREDIT:;
#MUSIC:Amanojaku.ogg;
#BANNER:Amanojaku-bn.png;
#BACKGROUND:Amanojaku-bg.png;
#CDTITLE:;
#SAMPLESTART:92.309;
#SAMPLELENGTH:12.363;
#SELECTABLE:YES;
#OFFSET:0.594;
#BPMS:0.000=155.000
,176.000=77.500
,200.000=155.000
;
#STOPS:;
#BGCHANGES:;
#FGCHANGES:;

//--------------- dance-single - Radical ----------------
#NOTES:
     dance-single:
     Radical:
     Beginner:
     5:
     0,0,0,0,0:
0000
0000
0000
0000
,
0000
0000
0000
0000
,
0000
0000
0000
0000
,
0000
0000
0000
0000
,
0000
0000
0000
0000
,
0000
0000
0000
0000
,
0001
0000
1000
0000
,
0010
0000
0100
0000
,
0001
0000
1000
0000
,
0010
0000
0100
0000
,
0000
0000
0000
0000
,
0000
0000
0000
1001
,
0020
0000
0000
0030
,
2000
0000
0000
3001
,
1000
0100
0000
0000
,
0020
0000
0000
0000
,
0030
1100
0000
0000
,
0002
0000
0000
0003
,
1000
0000
0001
0000
,
0100
0000
0010
0000
,
1000
0000
1000
0000
,
0001
0000
0001
0000
,
0100
0000
0100
0000
,
0010
0000
0010
0000
,
0000
1001
0000
0001
,
0000
1000
0000
0010
,
1000
0100
1000
0001
,
0100
0000
0001
0000
,
1000
0000
0001
0000
,
0100
0000
0010
0000
,
1000
0000
0001
0000
,
0100
0000
0010
0000
,
1000
0000
1000
0000
,
0001
0000
0001
0000
,
1000
0000
0001
0000
,
0110
0000
0000
0000
,
0001
0000
1000
0000
,
0100
0000
0010
0000
,
0001
0000
0100
0000
,
0001
0000
1001
0000
,
1000
0000
0001
0000
,
0010
0000
0001
0000
,
0100
0000
0100
0000
,
1001
0000
0000
0000
,
1000
0010
0100
0001
,
1000
0000
0010
0000
0100
0000
0001
0001
,
1000
0100
0010
0001
,
1000
0100
0010
0001
,
0001
0001
0001
0001
,
0001
0001
0001
0001
,
1000
0000
0001
0000
,
0100
0000
0010
0000
,
1001
1001
1001
0000
,
0200
0000
0000
0300
,
1001
0000
0001
0000
,
1000
0000
0100
0010
,
0100
0000
1000
0000
,
0010
0010
0010
0000
,
0000
1001
0000
0001
,
0000
1000
0100
0000
,
1000
0000
0010
0000
,
0110
0000
1001
0000
,
0200
0000
0000
0300
,
1001
0000
1000
0000
,
0001
0000
0010
0000
,
0100
0100
0100
0000
,
0010
0000
0001
0000
,
1000
0000
0010
0000
,
0100
0000
0100
0000
,
1001
0000
0000
0000
;

//--------------- dance-single - Audio ----------------
#NOTES:
     dance-single:
     Audio:
     Easy:
     7:
     0,0,0,0,0:
0000
0000
0000
0000
,
0000
0000
0000
0000
,
0000
0000
0000
0000
,
0000
0000
0000
0000
,
0000
0000
0000
0000
,
0000
0000
0000
0000
,
0001
0000
1000
0000
,
0010
0000
0100
0000
,
0001
0000
1000
0000
,
0010
0000
0100
0000
,
0001
0001
0001
0001
,
0001
0001
0001
1001
,
2000
0000
0000
0000
0000
0000
3000
0001
,
0200
0000
0000
0000
0000
0000
0310
1000
,
0100
0000
0010
0000
0000
0000
0000
0100
,
2000
0000
0001
3001
,
0100
0000
1001
0000
0000
0000
0000
0001
,
0020
0000
0000
0130
,
1000
0000
0001
0000
,
0100
0000
0010
0000
,
1000
0001
0010
0001
,
1000
0010
1000
0001
,
1000
0100
1000
0001
,
0100
0001
1000
0001
,
0000
1010
0010
0100
,
0001
0010
0100
0010
,
0001
1000
0100
0010
,
0001
0010
0100
1000
,
1000
0000
0001
0000
,
0100
0000
0010
0000
,
1000
0000
0001
0000
,
0100
0000
0010
0000
,
0010
0000
0010
0000
,
0010
0000
0010
0000
,
0010
0010
0010
0010
,
1001
0000
0000
0000
0000
0000
1000
0000
1000
0000
1000
0000
,
0001
0011
0001
1010
,
0001
1100
0100
0011
,
0001
0110
0010
1001
,
1000
0101
0022
0033
,
1000
0110
0001
1010
,
1000
0011
0001
0110
,
1000
1001
0001
0011
,
2200
0000
0000
3300
,
1000
0001
0100
0010
,
1000
0001
0100
0010
,
1001
0000
0001
1000
0000
0001
1000
0000
,
1001
0000
1000
0001
0000
1000
0001
0000
,
1000
0001
0100
0010
,
1001
1000
0001
0100
,
0001
0010
0100
1000
,
0100
0010
0001
1000
,
1001
0110
1001
0000
,
0001
0100
0010
1001
,
1000
0100
1000
0010
,
0100
0001
0010
0100
,
0010
0001
1000
0100
,
0001
0100
1000
0010
,
0000
1001
1000
0001
,
0100
0001
0010
0100
,
1000
0100
0010
0001
,
1100
0000
0101
0000
,
0200
0000
0000
0300
,
1001
0001
1000
0010
,
1000
0100
0010
0100
,
1000
1000
0001
0001
,
0100
0010
0100
0010
,
1000
0001
1000
0100
,
0010
0001
0100
0010
,
2000
0000
0000
3001
;

//--------------- dance-single - Visual ----------------
#NOTES:
     dance-single:
     Visual:
     Medium:
     11:
     0,0,0,0,0:
0000
0000
0000
0000
,
0000
0000
0000
0000
,
0000
0000
0000
0000
,
0000
0000
0000
0000
,
0000
0000
0000
0000
,
0000
0000
0000
0000
,
0001
0100
0010
0000
0100
0010
1000
0000
,
0100
0010
0001
0000
0010
0100
1000
0000
,
0001
0100
0010
1000
0100
0010
0100
1000
,
0002
0000
2000
3003
,
0100
0100
0100
0100
,
0100
0100
0100
1001
,
0001
0100
0010
0100
0001
0010
0100
1000
,
0200
1000
0010
1000
,
0310
0001
0100
0001
1000
0010
0100
0010
,
0200
0001
0010
0001
,
0310
0000
1001
0000
0001
1000
0100
0010
,
0200
0000
0001
0000
1000
0000
0301
0100
,
1000
0010
0100
0000
0010
1000
0001
0000
,
0010
0000
0100
0000
1000
0000
0000
0000
0100
0000
0000
0100
0000
0000
0100
0000
,
0010
0001
1000
0000
0010
1000
0001
0000
,
1000
0100
0010
0000
0100
1000
0010
0100
,
0001
0010
0100
0000
0010
0001
0100
0000
,
0010
1000
0100
0000
0010
0100
1000
0001
,
1000
0000
0101
0001
0100
0000
0010
1000
,
0100
0000
0010
0100
1000
0000
0001
1000
,
0100
0000
0010
0100
1000
0001
0100
0001
,
2000
3100
0020
0031
,
1000
0100
0000
0000
0010
0001
0000
0000
,
0100
0010
0000
0100
0001
1000
0000
0000
,
0001
0010
0000
0000
0100
1000
0000
0000
,
0100
0010
0000
0100
1000
0010
0000
0100
,
1002
0100
0010
0103
,
2001
0100
0010
0100
,
3010
0100
0001
1000
,
0110
0000
0000
0000
0000
0000
1000
0001
1000
0001
1000
0001
,
1000
0000
0100
0000
1000
0000
0010
0000
0100
0000
0001
0010
,
0000
0000
0100
0000
0010
0000
0001
0000
0100
0000
0010
1000
,
0000
0000
0001
0000
1000
0000
0100
0000
0010
0000
0100
1000
,
0000
0000
0100
0000
1000
0000
0010
0000
0100
0000
0001
0000
,
1000
0000
0100
0000
0010
0000
0100
0000
1000
0000
0001
0100
,
0000
0000
0010
0000
1000
0000
0001
0000
0010
0000
0100
0010
,
0000
0000
0100
0000
1000
0000
0010
0000
0100
0000
0001
0000
,
2000
0000
0000
3000
,
0001
0001
0000
0000
1000
1000
0000
0000
0010
0010
0000
0100
0010
1000
0000
0000
,
0100
0100
0000
0000
0010
0010
0000
0000
0001
0001
0000
0010
0100
1000
0000
0000
,
0001
0000
0000
0100
0010
0000
2000
0000
0000
0000
3100
0000
0010
0000
0000
0100
,
1000
0000
0000
0001
0100
0000
0002
0000
0000
0000
0103
0000
0001
1000
0000
0100
,
1100
0011
0101
1010
,
1001
0000
0000
0000
0101
0000
0000
0000
1000
0010
0100
0001
1000
0100
0010
0100
,
1000
0100
1000
0100
0010
0001
0010
0001
,
0100
0001
0100
0001
1000
0010
1000
0010
,
0100
1000
0100
0001
1000
0100
0020
0000
0000
0000
0000
0000
,
0230
0320
0031
1001
,
1000
0000
0000
1000
0000
0000
1000
0000
0001
0000
0000
0001
0000
0000
0001
0000
,
0010
0000
0000
0010
0000
0000
0010
0000
0100
0010
0000
0010
0001
0000
1000
0000
,
0010
0000
0000
0010
0000
0000
0010
0000
1000
0000
0000
1000
0000
0000
1000
0000
,
0001
0000
0010
0000
0100
0000
0010
0000
0001
0000
1000
0100
0000
1000
0100
0000
,
1000
0000
0000
0000
0011
0000
0000
0010
0000
0000
0000
0001
0000
0000
0100
0000
,
0001
0000
0000
0100
0000
0000
0010
0000
1000
0000
0000
0000
0100
0000
0010
0000
,
0100
1000
0010
0100
0001
1000
0100
0010
,
0011
0000
0000
0011
0000
0000
0011
0000
1100
0000
0000
1100
0000
0000
1100
0000
,
2002
0000
0000
3003
,
1000
0000
0000
0010
0000
0000
0100
0000
0001
0000
0000
0010
0000
0000
0100
0000
,
0010
0000
0001
0000
0100
0000
0000
0000
0010
0000
0000
1000
0000
0000
0100
0000
,
0010
0000
0100
0000
1000
0001
0000
1000
0010
0000
1000
0100
0000
1000
0001
0000
,
0010
0000
0001
0000
0100
0000
0010
0000
1000
0000
0000
0001
0000
0000
0010
0000
,
0100
0000
0000
0010
0000
0000
0001
0000
0100
0000
0000
0010
0000
0000
1000
0000
,
0001
0010
0100
1000
0100
0010
0001
1000
,
0020
0000
0000
0030
;

//--------------- dance-single - EXperence ----------------
#NOTES:
     dance-single:
     EXperence:
     Hard:
     15:
     0,0,0,0,0:
0000
0000
0000
0000
,
0000
0000
0000
0000
,
0000
0000
0000
0000
,
0000
0000
0000
0000
,
0000
0000
0000
0000
,
0000
0000
0000
0000
,
0001
0000
0010
0000
0100
0000
1000
0000
0001
0000
0100
0000
0010
0000
1000
0001
,
1000
0000
0100
0000
1000
0000
0001
0000
1000
0000
0010
0000
1000
0000
0010
1000
,
0010
0100
0010
0100
0001
0100
0001
0010
0001
0010
0100
1000
0100
1000
0001
1000
,
0200
0000
0020
0330
,
0001
0001
0001
0001
,
0001
0001
0001
0110
,
1000
0000
0010
0000
1000
0000
0001
0000
0010
0000
0100
0000
0010
0000
0001
0100
,
0020
0000
0000
0000
0001
0000
0000
0000
1000
0000
0000
0000
0031
0010
0000
0010
,
0100
0000
0001
0000
1000
0000
0100
0000
0010
0000
0100
0000
1000
0000
0001
1000
,
0200
0000
0001
0000
1000
1300
0100
0110
,
0001
1000
0000
1000
0001
0000
0010
0000
0100
0000
0010
0000
0001
0000
1000
0010
,
0200
0000
0000
0000
1000
0000
0000
0000
0001
0000
0000
0000
0310
0000
0100
0001
,
1000
0000
0100
0000
0010
0000
0100
0000
0010
0001
0100
0000
0010
0000
0100
0000
,
0010
1000
0001
0000
1000
0001
0010
0000
0100
0000
0100
0010
0000
0100
0010
0000
,
0001
0000
0000
1000
0001
0000
0001
0000
0000
0001
0000
0000
1000
0000
0100
0010
,
0000
0010
0000
0000
0100
0000
0000
1000
0000
1000
0000
0000
0010
0000
0100
0001
,
0000
0000
0000
0000
0001
0000
0010
0000
0000
0010
0000
0000
0100
0000
0100
0010
,
0000
0010
0000
0000
0001
0000
0000
1000
0000
0100
0000
0000
0010
0000
0100
1000
,
0020
0000
0000
0000
1030
0000
0001
0000
0000
0001
0000
0000
1000
0000
0010
0100
,
0000
0001
0000
0000
0100
0000
0000
0001
0000
0001
0000
0000
1000
0000
0001
0010
,
0100
0000
0000
0000
0010
0000
0001
0010
0100
0010
0000
0100
0010
0000
0001
1000
,
0020
1030
0002
0103
,
0001
0010
1000
0000
0000
0000
0000
0000
1000
0010
0001
0000
0000
0000
0000
0000
,
0001
0100
1000
0000
0000
0000
1000
0000
0100
0001
1000
0000
0000
0000
0000
0000
,
1000
0100
0001
0000
0000
0000
0000
0000
0001
0100
1000
0000
0000
0000
0000
0000
,
1000
0010
0001
0000
0000
0000
0001
0000
0010
1000
0001
0000
0000
0000
0010
0000
,
1001
0000
1000
0001
0000
0001
0010
0000
0010
0001
0000
0000
,
1001
0000
0001
1000
0000
1000
0010
0000
0010
1000
0000
0000
,
1001
0000
0001
0100
0000
0100
0010
0000
0010
1000
0000
1000
,
0100
0010
0100
0000
0100
0000
0010
0001
0100
1000
0100
0001
,
1000
0100
1000
0000
1000
0000
0100
0000
0010
0000
0100
1000
,
0001
0000
1000
0000
1000
0000
0001
0000
0100
0000
0001
0010
,
0100
0000
0010
0000
0001
0000
0100
0000
1000
0000
0100
0010
,
1000
0000
0001
0000
0010
0100
2000
0000
0100
0000
3001
0000
,
1000
0001
0010
0000
1100
0000
1000
0000
0100
0000
0010
0100
,
0010
0001
0100
0000
0110
0000
1000
0000
0001
0000
0100
0001
,
1000
0000
0001
0010
0100
1000
0010
0000
0100
0010
1000
0001
,
2000
0000
0000
3001
,
1000
0010
0100
0000
0000
0000
0000
0000
0010
1000
0001
0000
0000
0000
0000
0000
0001
0010
0100
0000
0000
0000
0010
0000
0010
0001
1000
0000
0000
0000
0000
0000
,
1000
0010
0100
0000
0000
0000
0000
0000
0010
1000
0001
0000
0000
0000
0000
0000
0001
0010
0100
0000
0000
0000
0010
0000
0010
0001
1000
0001
1000
0000
0000
0000
,
0102
0000
0000
0000
0000
0000
0013
0000
0210
0000
0000
0000
2300
0000
0000
0000
0010
0000
0000
0000
3001
0000
1000
0000
0100
0010
0002
0000
0000
0000
1003
0010
,
0200
0000
0000
0000
0000
0000
0301
0000
1002
0000
0000
0000
0023
0000
0000
0000
0100
0000
0000
0000
0031
0000
1000
0000
0010
0100
0001
0000
0000
0000
1000
0100
,
1000
0000
0000
1000
0000
0000
1000
0000
0001
0000
0000
0001
0000
0000
0001
0000
0100
0000
0000
0100
0000
0000
0100
0000
0010
0000
0000
0010
0000
0000
0100
0001
,
0010
0000
0000
0100
0000
0000
0010
0000
0001
0000
0000
1000
0000
0000
0010
0000
1000
0000
0000
0001
0000
0000
0010
0000
0100
0000
0000
0010
0000
0000
0001
0000
,
1000
0000
0010
0100
0000
0100
0001
0010
0000
0100
0010
0001
0000
0001
0010
0000
,
0100
1000
0100
1000
0001
0100
0001
0100
0010
1000
0010
1000
0001
0010
0001
0010
,
0001
0001
0001
1000
1000
1000
0020
0000
0000
0000
0000
0000
,
0130
0010
0100
0001
0100
0001
0000
1000
0100
0000
0010
0001
0200
0000
0000
0000
,
0301
0000
0001
1000
0000
1000
0100
0010
0000
0001
0010
0100
0000
0010
0001
0000
,
1000
0000
0010
1000
0000
0100
1000
0000
0001
0100
0000
0100
0010
0000
1000
0001
,
1000
0000
0100
0010
0000
0100
1000
0001
0000
0010
0100
1000
0000
0100
0010
0000
,
0100
0010
0001
0010
0100
1000
0000
0001
1000
0000
1000
0010
0000
0010
0100
0000
,
0002
0000
0000
0000
0013
0000
0100
1000
0000
0001
1000
0010
0000
1000
0100
0000
,
0010
0000
0100
0010
0000
0001
1000
0000
0010
0100
0000
0001
0010
0001
1000
0000
,
0001
0000
0100
0000
0010
0000
1000
0000
0001
0010
0001
0010
0100
1000
0100
1000
,
0001
0000
1000
0100
0000
0001
0100
0000
1001
0000
1000
0010
0000
0001
0010
0000
,
2000
0010
0001
3200
,
0310
0000
0001
0010
0000
0001
1000
0001
0010
0000
0100
0010
0000
0100
1000
0000
,
0001
0100
0001
0100
0001
0000
1000
0100
1000
0000
0100
0010
0000
0100
1000
0000
,
0001
0100
0010
0000
1000
0001
0000
0100
0010
0000
0100
0010
0000
0100
0010
0000
,
1000
0010
1000
0010
1000
0000
0001
0010
0001
0000
0010
0001
0000
1000
0010
0100
,
0001
0000
1000
0100
0000
0010
0100
1000
0001
0000
1000
0100
0000
0010
0100
0000
,
1000
0000
0010
0000
0100
0000
0001
0000
0010
0100
0010
0100
1000
0001
1000
0001
,
0200
0000
0000
0310
;

//--------------- dance-single - Boom ----------------
#NOTES:
     dance-single:
     Boom:
     Challenge:
     17:
     0,0,0,0,0:
0000
0000
0000
0000
,
0000
0000
0000
0000
,
0000
0000
0000
0000
,
0000
0000
0000
0000
,
0000
0000
0000
0000
,
0000
0000
0000
0000
,
0001
0000
0000
0100
0000
0000
0001
0000
0000
0010
0000
0000
0001
0000
0000
0100
0000
0000
0001
0000
0000
1000
0001
1000
,
0100
0000
0000
1000
0000
0000
0010
0000
0000
1000
0000
0000
0100
0000
0000
1000
0000
0000
0010
0000
0000
1000
0001
1000
,
0010
0001
0010
1000
0100
0010
0100
1000
0010
0001
0010
0100
0001
1000
0100
0010
,
0002
0000
0000
0000
0000
0000
0000
0000
0000
0000
0000
0000
0000
0000
0000
0000
0200
0000
0000
0000
0000
0003
0000
0000
030M
0000
0000
0000
0000
0000
0000
0000
,
0010
0010
0010
0010
,
0010
0010
0010
MMMM
,
1001
0000
1000
0000
0100
0000
1000
0000
0010
0000
0100
0000
0001
0000
0010
0100
,
2000
0000
0000
0000
0100
0000
0000
0000
0010
0000
0000
0000
3001
0100
0000
0001
,
0100
0010
1000
0001
0010
0100
0010
0001
,
0200
0000
0010
0000
0301
0010
0100
0011
,
MMMM
MMMM
0000
0000
1001
0000
1000
0000
0010
0000
1000
0000
0001
0000
1000
0100
,
0020
0000
0000
0000
0001
0000
0000
0000
0100
0000
0000
0000
0031
0000
0001
1000
,
0001
0100
1000
0000
0100
0000
0001
0000
1000
0100
0001
0000
0100
0000
1000
0000
,
0001
0010
1000
0000
0010
0000
0001
0000
0100
0000
0010
1000
0000
0001
0100
0000
,
0020
0000
0000
0030
1010
0000
1010
0000
0000
0101
0000
0000
0011
0000
0000
0110
,
0000
1100
0000
0000
1010
0000
0000
0101
0000
0011
0000
0000
0110
0000
0000
1001
,
0000
0000
0000
0000
0101
0000
0101
0000
0000
1010
0000
0000
1100
0000
0000
0110
,
0000
0011
0000
0000
0101
0000
0000
0110
0000
1010
0000
0000
0101
0000
0000
1010
,
0000
MMMM
MMMM
0000
1001
0000
1001
0000
0000
0011
0000
0000
1100
0000
0000
1001
,
0000
1001
0000
0000
0101
0000
0000
1010
0000
1100
0000
0000
0110
0000
0000
0011
,
0000
0000
0000
0000
0011
0000
0110
0000
0000
0011
0000
0000
0110
0000
0000
1100
,
0000
1010
0000
0000
0110
0000
0000
0101
0000
1001
0000
0000
1100
0000
0000
0001
,
1000
0100
0001
0000
0100
0000
1000
0000
0010
0001
0010
0000
1000
0000
0100
0000
,
0001
0100
1000
0000
0010
0000
0100
0000
1000
0100
0001
0000
1001
0000
0000
0000
,
1000
0100
0001
0000
0100
0000
1000
0000
0010
0001
0010
0000
1000
0000
0100
0000
,
0001
0100
1000
0000
0010
0000
0100
0000
0002
0000
0000
0000
0000
0000
0000
0000
,
0013
0100
0010
0000
0010
0000
0010
0001
0100
0000
0100
0010
,
0100
0010
1000
0000
1000
0000
1000
0100
0010
0000
0010
0100
,
0010
0000
0001
0000
0010
0000
0100
0000
1000
0100
1000
0100
1000
0000
0010
0000
0100
0000
0001
1000
0001
1000
0001
1000
,
0020
0000
0100
0000
0130
0000
0001
0001
0001
1000
1000
1000
,
0010
1000
0010
0100
0010
1000
0010
0100
0010
1000
0010
0100
,
0001
0100
0010
0100
0001
0010
0001
0100
0010
1000
0100
0010
,
0001
1000
0100
1000
0001
0100
0001
1000
0100
0010
0100
1000
,
0001
1000
0010
1000
0001
0010
0200
0000
1000
0000
0310
0000
,
0010
0100
1000
0001
0100
0010
0100
0001
0010
0100
1000
0001
,
1000
0100
0010
0001
1000
0010
0100
0010
1000
0100
0010
0001
,
1000
0000
0010
0000
0100
0000
0001
0010
0001
0010
0001
0010
0100
0000
1000
0000
0010
0000
0100
0001
0100
0001
0100
0002
,
2000
0000
0000
0000
0000
0003
300M
0000
,
0001
0100
1000
0000
0100
0000
0001
0000
0010
1000
0010
0000
0001
0000
0100
0000
1000
0100
0001
0000
0010
0000
1000
0000
0010
0001
1000
0000
0000
0000
0001
1000
,
0001
0100
1000
0000
0100
0000
0001
0000
0010
1000
0010
0000
0001
0000
0100
0000
1000
0100
0001
0000
0010
0000
1000
0000
0010
0001
0010
0001
0010
0000
0000
0000
,
2200
0000
0000
0000
3300
0000
0011
0000
001M
0000
0000
0000
0202
0000
0000
0000
0000
0000
0303
0000
010M
0000
0000
0000
1001
0000
M002
0000
0000
0000
1003
0001
,
0022
0000
0000
0000
0033
0000
1100
0000
M100
0000
0000
0000
2020
0000
0000
0000
0000
0000
3030
0000
M010
0000
0000
0000
1001
0000
200M
0000
0000
0000
3010
0100
,
0001
0000
1000
0100
M000
0100
1000
0010
0000
0100
0001
0010
000M
0010
0001
0000
1000
0000
0001
0100
000M
0100
0001
0000
0100
0010
0000
1000
0100
1000
0010
0100
,
0001
0000
0000
0000
0000
0000
1000
0000
0000
0100
0000
0000
M000
0000
0000
0100
0000
0000
1000
0000
0000
0100
0000
0000
0000
0000
0000
0010
0000
0000
0100
0000
0000
1000
0000
0000
000M
0000
0000
1000
0000
0000
0001
0000
0000
0000
0000
0000
0001
0000
0010
0000
0001
0000
0010
0000
0100
0000
1000
0000
0001
0000
0000
1000
0000
0000
0010
0000
0000
1000
0000
0000
0100
0000
0000
0010
0000
0000
0001
0000
0000
0010
0000
0000
0100
0000
0000
1000
0000
0000
0001
0000
0000
0100
0000
0000
,
0001
0000
1000
0100
0000
0010
0001
0010
0000
0100
1000
0001
0000
0100
0010
0000
,
1000
0100
1000
0100
0010
0001
0010
0001
0100
0001
0100
0001
1000
0010
1000
0010
,
0200
0000
2000
0300
0200
3000
0002
0300
0020
0003
2000
0030
0020
0000
0000
0000
0000
0000
3000
0000
0000
0000
0000
0000
,
0031
0010
0100
0010
0001
2000
0000
3010
0200
0000
0301
1000
MMMM
0000
0000
0000
,
1200
0000
0310
0001
0000
0010
0001
1000
0000
0010
0100
0001
0000
1000
0100
0000
,
0010
0000
0100
1000
0000
0010
0100
0000
0001
0100
0000
0010
1000
0001
0100
0001
,
1000
0000
0100
0010
0000
0100
1000
0001
0000
0100
0010
1000
0000
0001
1000
0000
,
0100
0010
0100
1000
0001
0100
0000
0010
0100
0000
0001
1000
0000
0100
0010
0000
,
0100
0000
0000
MMMM
0000
MMMM
0000
0000
1001
0000
0001
0000
1000
0000
0100
0000
0000
0000
0010
0000
0001
0000
0100
0000
0000
0000
0100
0000
0001
0000
0000
0000
,
0100
0000
0010
1000
0000
0100
0010
0000
0100
1000
0000
0001
0100
0001
1000
0000
,
0001
0000
1000
0000
0100
0000
1000
0000
0010
0100
0010
0100
0001
1000
0001
1000
,
0001
0000
0001
0010
0000
001M
1000
0000
1001
0000
1000
0100
0000
M100
0001
0000
,
4000
0004
0000
0000
0000
0000
3003
0000
,
1001
0000
1000
0001
0000
0010
0100
0010
0001
0000
0010
0100
0000
0100
0010
0000
,
0100
1000
0010
0100
0010
0000
1000
0001
0010
0000
0100
0010
0000
0100
1000
0000
,
0001
0100
0010
1000
0100
0010
0000
0001
0010
0000
1000
0010
0000
0001
0100
0000
,
0010
0100
0001
1000
0001
0000
0010
0100
0010
0000
0100
1000
0000
1000
0001
0100
,
0001
0000
0010
0001
0000
0010
0100
1000
0100
0000
1000
0010
0000
0100
0001
0000
,
0010
0000
0100
0000
1000
0000
0001
0000
0100
0010
1000
0001
0010
0100
1000
0001
,
0200
0000
0000
0000
0000
0000
0000
0000
0000
0000
0000
0000
0000
0000
0000
0000
0000
0000
0000
0000
0000
0000
0300
0M00
0010
0000
0000
0000
0000
0000
0000
0000
;
