#TITLE:ADAMANT;
#SUBTITLE:;
#ARTIST:BEMANI Sound Team "L.E.D.-G";
#TITLETRANSLIT:;
#SUBTITLETRANSLIT:;
#ARTISTTRANSLIT:;
#GENRE:;
#CREDIT:;
#MUSIC:ADAMANT.ogg;
#BANNER:ADAMANT.png;
#BACKGROUND:ADAMANT-bg.png;
#CDTITLE:;
#SAMPLESTART:102.017;
#SAMPLELENGTH:19.174;
#SELECTABLE:YES;
#OFFSET:-0.018;
#BPMS:0.000=200.014;
#STOPS:96.000=0.900
,162.000=1.806
,164.000=0.600
,325.000=0.900
;
#BGCHANGES:;
#FGCHANGES:;

//--------------- dance-single - Pandemonium X ----------------
#NOTES:
     dance-single:
     Pandemonium X:
     Beginner:
     6:
     0,0,0,0,0:
0000
0000
0000
0000
,
0000
0000
0000
0000
,
0000
0000
0000
0000
,
0000
0000
0000
0000
,
0000
0000
0000
0000
,
0000
0000
0000
0000
,
0000
0000
0000
0000
,
0000
0000
0000
0000
,
0000
0000
0000
0000
,
0001
0000
0000
0000
,
0000
0000
1000
0001
,
1000
0000
0000
0000
,
0001
0000
1000
0000
,
0001
0000
0000
0000
,
0000
0000
0000
0000
,
0001
0000
1000
0000
,
0010
0000
0100
0000
,
0002
0000
0000
0000
,
0000
0000
0000
0000
,
0000
0000
0000
0000
,
0000
0000
0000
0000
,
0003
0000
2000
0000
,
0000
0000
0000
3000
,
0001
0000
1000
0000
,
0110
0001
0000
1000
,
0000
0100
0000
0010
,
0000
0001
0000
0100
,
0000
0001
0000
1000
,
0001
1000
0000
0100
,
0000
0010
0000
0001
,
0000
0100
0000
0010
,
0000
1001
0001
0001
,
0000
1000
0000
0000
,
0001
0000
0000
0100
,
0100
0010
0000
0100
,
0000
0001
0000
1000
,
1000
0001
0000
0000
,
0000
1000
0000
0000
,
0000
0100
0000
0100
,
0000
0010
0010
0010
,
0000
1001
1001
1001
,
1001
0001
0000
1000
,
0000
0010
0000
0000
,
0000
1000
0000
0000
,
0000
0100
0000
0000
,
0000
0010
0000
0000
,
0001
0100
0000
0000
,
0000
0010
0000
0000
,
0000
1000
0000
0000
,
0000
0001
0001
1000
,
1000
0100
0000
0010
,
0000
0001
0000
0010
,
0000
0001
0000
1000
,
0000
0100
0000
1000
,
1000
0010
0000
0100
,
0000
0001
0000
1000
,
0000
0001
0000
1000
,
0000
0100
0100
0000
,
0000
1000
1000
1000
,
0000
0001
0001
0001
,
0000
0100
0100
0100
,
0000
0010
0010
0010
,
0000
1000
1000
0001
,
0000
0010
0010
0100
,
0000
1000
1000
0100
,
0000
0010
0010
0010
,
0001
0100
0010
1000
,
0000
0010
0100
0001
,
0000
1000
0100
0010
,
0000
0100
0010
0001
,
1000
0001
0100
0010
,
0000
0100
0001
1000
,
0000
0100
0000
0010
,
0000
0001
0010
0100
,
1000
1001
0000
0000
,
0000
0000
0000
0000
,
0000
0000
0000
0000
,
0000
0000
0000
0000
,
0000
0001
0000
0001
,
0000
1000
0000
1000
,
0000
0001
0000
1000
,
0000
0110
0001
0000
,
0000
0001
0000
0000
,
0001
0000
1000
0000
,
0000
1000
0000
0000
,
1000
0100
0010
0000
,
0000
0010
0000
0000
,
0010
0000
0000
0000
0001
0000
0000
0001
,
0000
0000
0001
0000
0000
1000
0000
0000
,
0001
1000
0001
0000
,
0000
0100
0000
0000
,
0010
0000
1000
0000
,
0000
0100
0000
0000
,
0010
0100
1001
0000
,
0000
0000
0001
0001
,
0001
0000
1000
0000
,
0001
0000
0100
0100
,
0100
0100
1001
0000
,
0001
0000
1000
0000
,
0100
0000
0010
0000
,
0001
1000
0020
0000
,
0030
0000
0000
0000
;

//--------------- dance-single - Pandemonium X ----------------
#NOTES:
     dance-single:
     Pandemonium X:
     Easy:
     11:
     0,0,0,0,0:
0000
0000
0000
0000
,
0000
0000
0000
0000
,
0000
0000
0000
0000
,
0000
0000
0000
0000
,
0000
0000
0000
0000
,
0000
0000
0000
0000
,
0000
0000
0000
0000
,
0000
0000
0000
0000
,
0000
0000
0000
0000
,
1001
0000
0000
0000
,
0000
0000
0100
0010
,
1001
0000
0000
0000
,
0010
0000
0100
0000
,
1001
0000
0000
0000
,
0000
0000
0000
0000
,
0002
0000
0203
0000
,
0320
0000
2030
0000
,
0002
0000
0000
0000
,
0000
0000
0000
0000
,
0000
0000
0000
0000
,
0000
0000
0000
0000
,
3003
0000
0220
0000
,
0000
0000
0000
0330
,
1000
0001
0100
0010
,
1001
1000
0010
1000
,
0001
0010
0100
0010
,
0001
1000
0100
0000
0010
0000
0100
0000
,
1000
0001
0100
0000
0010
0000
0100
0001
,
0010
0100
0010
0001
,
1000
0010
0100
0000
0001
0000
1000
0100
,
0010
0001
1000
0000
0001
0000
0100
0000
,
0010
1020
0130
1001
,
0001
0001
1000
0000
0000
0100
0000
0000
,
1000
0000
0000
0010
0000
0000
0100
0000
,
0001
0000
0010
0000
0100
0000
0000
0010
,
0000
0000
0001
0000
0000
1000
0000
0000
,
0001
0000
1000
0000
0000
0010
0000
0000
,
1000
0000
0000
0100
0000
0000
0010
0000
,
0100
0000
1000
0000
0001
0000
0100
0001
,
0000
0010
0100
0000
0010
0000
0001
1000
,
0010
0100
0100
0100
,
0100
0000
0000
0000
,
0000
0010
1000
0001
,
0010
0100
0010
0001
,
1000
0100
0010
0000
0100
0000
1000
0000
,
0010
0000
0100
0000
0001
0000
0010
0100
,
1000
1000
0010
0000
0100
0000
0001
0000
,
1000
0100
0010
0100
,
1000
0001
0100
0000
0001
0000
0010
0000
,
0100
0000
1000
0100
0010
0001
1000
0000
,
1001
0001
1000
0010
,
0001
0010
0100
0001
,
0010
1000
0010
0001
,
0010
0000
0100
0010
0001
0000
0100
0010
,
1000
1000
0001
0000
0010
0000
0001
0000
,
1000
0100
0010
0100
,
1000
0001
0100
0000
0010
0000
1000
0000
,
0001
0022
0000
0000
,
0033
0001
0100
2000
,
3100
1000
0100
0002
,
0203
1300
0010
0002
,
0013
0100
0010
1001
,
0002
1003
0010
0002
,
0013
0001
0010
2000
,
3020
0031
0100
2000
,
3100
0110
0110
0110
,
2000
3100
0001
0100
,
1000
0100
0001
0100
,
1001
1000
0010
0001
,
0010
1010
0011
1001
,
2000
3001
0010
0100
,
1000
0100
0001
0100
,
1000
0010
0001
0010
,
0100
0101
1010
1100
,
0011
1001
0000
0000
,
0000
0000
0000
0000
,
0000
0000
0000
0000
,
0000
0000
0000
0000
,
0000
0001
0100
0010
,
1000
0100
0010
0000
0100
0000
1000
0000
,
0001
0010
0100
0000
0010
0000
0001
0000
,
1000
0000
0110
0000
0001
0000
0000
1000
,
0000
0000
0100
0000
0000
1000
0000
0000
,
0010
0000
0000
0100
0001
0000
0000
0010
,
0000
0000
0100
0000
0000
0010
0000
0001
,
0010
0100
1000
0000
0001
0000
0000
1000
,
0000
0000
0010
0000
0000
1000
0000
0000
,
0100
0000
1000
0000
1010
0000
0000
0101
,
0000
0000
1001
0000
0000
0110
0000
0001
,
1000
0010
0100
0000
0001
0000
0000
0010
,
0000
0000
0001
0000
0000
1000
0000
0000
,
0100
0000
0000
0010
0100
0000
0000
0010
,
0000
0000
0001
0000
0000
0100
0000
0000
,
0010
0100
1001
0000
,
0000
0000
1000
0001
,
1000
0000
0001
0100
,
0010
1000
0100
0010
,
0001
1000
0001
1000
,
0010
1000
0001
0010
,
0100
1000
0100
0010
,
0001
1000
0220
0000
,
0330
0000
0000
0000
;

//--------------- dance-single - Pandemonium X ----------------
#NOTES:
     dance-single:
     Pandemonium X:
     Medium:
     15:
     0,0,0,0,0:
0000
0000
0000
0000
,
0000
0000
0000
0000
,
0000
0000
0000
0000
,
0000
0000
0000
0000
,
0000
0000
0000
0000
,
0000
0000
0000
0000
,
0000
0000
0000
0000
,
0000
0000
0000
0000
,
0000
0000
0000
0000
,
0201
0000
0000
0000
,
0000
0000
0310
1000
,
1200
0000
0000
0000
,
0310
0000
0001
0000
,
2001
0000
0000
0000
,
0000
0000
0000
3000
,
0201
0000
0320
0000
,
2030
0000
3002
0000
,
0203
0010
0010
0010
,
0010
0000
0010
0000
0010
0000
0310
1000
,
0100
0100
0100
0100
,
0100
0000
0100
0000
0100
0010
0001
1000
,
0010
0000
0010
0000
0210
0000
0301
1000
,
0100
0000
0010
0000
0100
0000
0010
0001
,
0100
0000
0010
0000
1000
0000
0001
0000
0010
0001
0010
0000
0100
1000
0100
0000
,
1001
0000
0001
1000
0010
1000
0001
0010
,
0100
0010
0001
1000
0010
1000
1100
0000
,
0100
0010
0001
1000
0010
1000
0100
0010
,
0100
1000
0001
0100
0001
0010
0100
1000
,
0001
1000
0001
0000
1000
0000
0010
0000
0100
0000
0001
0000
0010
0000
0100
0000
,
0010
0001
1000
0010
0100
0001
0010
0100
,
1000
0001
1000
0000
0001
0000
0100
0000
0010
0000
1000
0000
0001
0000
0010
0000
,
0100
1000
1020
0000
0001
0000
2030
0000
,
0001
3001
0011
0000
0001
0200
0000
0310
,
2000
0000
3100
0020
0000
0031
0010
0100
,
2000
0000
3010
0100
0002
0000
0013
0200
,
0000
0310
0002
0000
1003
0200
0000
0310
,
0100
1000
0010
1000
0001
2000
0000
3010
,
0200
0000
0310
0200
0000
0310
0100
0001
,
2000
0000
3100
0000
0100
0010
0001
0001
,
0000
0000
0001
0000
0001
0000
1000
0000
0010
0000
0100
0000
0001
1000
0001
0000
,
1000
1001
1001
1001
,
1001
0000
0000
0000
0001
0000
0100
0000
0010
0000
1000
0000
0100
0010
0100
0000
,
0010
0100
0010
0000
0001
0000
0000
0000
0100
0000
0001
0000
0000
0000
1100
0000
,
0000
1000
0010
0000
0100
0001
0000
1001
,
0000
1000
0100
0000
0010
0100
0000
0011
,
0000
0001
0100
0000
0001
1000
0100
0100
,
0010
0010
0001
0000
0100
0001
0000
0110
,
0000
0010
1000
0000
0001
0010
0000
1100
,
0000
1000
0010
0000
0100
0001
0000
0010
,
0100
0000
0000
0000
0010
0000
0010
0000
0001
0000
0001
0000
1000
0001
1000
0000
,
0001
1000
0001
0000
1000
0000
0010
0000
1000
0000
0001
0000
0000
0000
0010
0000
,
1000
0010
0000
0100
0000
0010
0001
0100
,
0010
1000
0001
0100
0010
0100
0000
0010
,
0100
0000
0001
0000
1001
0000
1001
0000
1001
0000
0000
0000
1100
0000
1000
0100
,
0010
0010
0001
1000
0100
0010
0000
0100
,
1000
0100
0000
0010
0000
0001
0000
0100
,
1000
0000
0100
0000
0001
0000
1000
0000
0100
0000
0010
0000
0001
1000
0001
0000
,
1000
0000
0000
0001
0000
0000
1000
0000
0000
0000
0000
0000
0001
0000
0000
0000
0000
0000
0000
0000
1000
0000
0000
0000
0010
0000
0000
0000
0000
0000
0000
0000
0010
0000
0000
0000
0000
0000
0000
0000
0010
0000
0000
0000
0100
0000
0000
0000
,
0001
0010
0100
1000
0000
1000
0100
0000
0100
0020
0000
0000
,
0031
0000
0001
0100
0000
0100
0010
0000
0010
2000
0000
0000
,
3001
0010
0100
1000
0000
0100
1000
0000
1000
0020
0000
0000
,
0130
0000
0100
0001
0000
0001
1000
0000
1000
2100
0000
0000
,
3001
0010
0100
1000
0000
0100
0010
0000
0001
0200
0000
0000
,
0310
0000
0100
0001
0000
1000
0100
0000
0010
0002
0000
0000
,
0013
0000
0100
1000
0000
0001
0100
0000
0010
1000
0000
1000
,
0100
0000
0100
1100
0000
0000
0011
0000
0000
1100
0000
0001
,
0020
0000
0000
0130
0000
0100
1000
0000
1000
0010
0000
0010
,
0100
0000
0100
0001
0000
0001
0010
0000
0010
0100
0000
0100
,
1000
0000
0000
0001
0000
0001
0100
0000
0100
0010
0000
0010
,
1000
0000
1000
0002
0000
0013
0200
0000
0000
1300
0000
0000
,
0001
0010
0100
1000
0000
1000
0010
0000
0010
0100
0000
0100
,
0001
0000
0001
0010
0000
0100
1000
0000
1000
0100
0000
0100
,
0010
0000
0010
0001
0000
0000
0001
0000
0100
0010
0000
0000
,
1000
0000
1000
0100
0000
0100
0010
0000
0010
0001
0000
0001
,
0100
0010
1000
1001
0000
0000
0001
0000
0000
1000
0000
0000
,
0010
1000
0001
0010
,
0100
0010
0001
0000
0010
0000
0100
0000
,
1000
0000
0010
0000
0100
0000
0001
1000
,
0100
0010
0100
0000
0021
0000
0000
0000
0130
0000
0000
0000
1000
0000
0000
0000
,
0010
1000
1020
0000
0130
0000
0001
0000
,
0010
0000
0001
0000
0010
0000
0100
0000
1000
0000
0001
0000
0100
0010
0100
0000
,
0001
1000
0001
0000
1001
0000
0000
0000
2100
0000
0000
0000
3100
0000
2000
0000
,
0000
3010
0200
0000
0301
0020
0000
0130
,
0020
0000
0031
0100
0020
0000
1030
0002
,
0000
1003
0200
0000
1300
0002
0000
0013
,
1000
0010
0001
1000
0002
0000
0103
0020
,
0000
1030
0200
0000
0310
0200
0000
1300
,
0200
0000
0310
0000
0011
0000
0000
1100
,
0000
0000
1001
1001
0000
0110
0000
1000
,
0001
1000
0001
0000
2000
0000
0000
0000
3200
0000
0000
0000
1300
0000
0200
0000
,
0000
0310
0002
0000
0013
0200
0000
0310
,
0002
0000
1003
0100
0020
0000
0130
2000
,
0000
3010
0200
0000
1300
0200
0000
0310
,
0100
1000
0100
0001
2002
0000
0000
0000
,
0000
0003
0001
0001
,
0002
0000
3000
0000
1003
0100
0010
0001
,
0100
0000
0010
0000
1000
0000
0100
0000
1000
0001
1000
0001
1000
0001
1000
0001
,
1000
0001
1000
0000
0001
1000
0001
0000
1000
0000
0010
0000
0000
0000
0100
0000
,
0001
0000
0010
0100
0000
0010
0000
0010
,
0000
0010
0000
0010
0000
0010
0000
0010
,
0100
0010
0001
0000
2020
0000
0000
0000
,
3030
0000
0000
0000
;

//--------------- dance-single - Revised ----------------
#NOTES:
     dance-single:
     Pandemonium X (Redo):
     Hard:
     17:
     0,0,0,0,0:
0000
0000
0000
0000
,
0000
0000
0000
0000
,
0000
0000
0000
0000
,
0000
0000
0000
0000
,
0000
0000
0000
0000
,
0000
0000
0000
0000
,
0000
0000
0000
0000
,
0000
0000
0000
0000
,
0000
0000
0000
0000
,
2001
0000
0000
0000
,
0000
0000
3020
0130
,
1002
0000
0000
0000
,
0023
0000
0200
0330
,
2001
0000
0000
0000
,
0000
0000
0000
3000
,
1020
0000
0230
0000
,
0320
0000
2030
0000
,
3001
0010
0001
0100
,
0010
0000
1000
0000
0100
0000
1000
0010
,
1000
0001
1000
0100
,
1000
0000
0000
0000
0010
0000
0000
0000
0100
0000
0010
0000
0100
0010
0100
0000
,
0010
0000
1000
0000
0021
0000
0001
0001
,
0001
0000
0100
0000
0001
0000
0130
0010
,
0100
0000
0010
0000
0001
0000
1000
0000
0100
0010
0100
0000
0010
0001
0010
0000
,
1001
0000
1000
0100
0000
0010
0001
0100
,
0001
0010
0001
1000
0100
1000
0001
0010
,
1000
0010
0001
0100
0000
0010
0100
0000
,
1000
0100
0001
0000
0011
0000
0010
0100
,
1000
0001
1000
0000
0001
0000
0010
0000
0000
0000
0100
0000
0010
0000
0100
0000
,
0001
0100
1000
0001
1000
0100
0010
0001
,
0010
0100
0010
0000
0001
0000
1000
0000
0010
0000
0100
0000
0001
0100
0001
0000
,
1000
0010
1000
0000
1200
0000
0000
0000
0001
0000
0000
0000
1300
0000
0000
0000
,
0001
0001
0102
0000
1003
0200
0000
0310
,
0002
0000
0013
0200
0000
0310
0100
1000
,
0002
0000
1003
0001
2000
0000
3001
0020
,
0000
0130
2000
0000
3010
0100
0001
1000
,
0001
0010
0001
0000
1000
0000
0000
0000
0001
0000
0020
0000
0000
0000
0130
0000
,
2000
0000
3010
0200
0000
0310
1000
0100
,
0020
0000
0031
0000
0011
0011
0101
0011
,
0000
0000
1100
0000
1100
0000
1000
0000
0010
0000
0100
0000
0001
0010
0001
0000
,
0100
0010
1000
0100
0010
0000
0000
0000
1100
0000
0000
0000
0010
0000
0000
0000
,
0101
0000
0000
0000
1000
0000
0001
0000
1000
0000
0001
0000
0100
0010
0100
0010
,
0100
0010
1000
0001
0010
0000
0100
1000
0010
0000
0100
0000
0000
0001
0010
0000
,
0000
0000
0001
0000
1000
0000
0100
0010
0001
0000
1000
0000
0000
0100
0010
0000
,
0001
0000
0010
0000
0100
0000
1000
0001
0100
0000
0010
0000
0000
0100
0010
0000
,
0000
0000
0100
0000
0001
0000
1000
0100
1000
0000
0100
0000
1000
0000
1000
0000
,
1100
0000
1100
0000
0100
0000
1000
0001
1000
0000
0010
0000
0000
0100
0001
0000
,
0000
1000
0001
0000
0010
0000
0001
0010
0001
0000
1000
0000
0000
0010
0100
0000
,
0010
0000
1000
0000
0100
0000
0010
0100
0010
0000
0001
0000
0000
0000
0100
0000
,
0001
0000
1000
0000
0100
0000
0100
0000
1001
0000
1001
0000
0001
0100
0001
0000
,
0001
0100
0001
0000
1000
0000
0100
0000
1000
0000
0010
0000
0100
0000
0001
0000
,
0010
0100
0010
0001
0100
0010
1000
0001
,
0010
0000
0100
0010
0001
0000
1000
0000
0010
0000
0100
0000
0001
0000
1000
0000
,
0100
0000
0010
0000
1000
0000
0010
0000
0001
0000
0000
0000
0011
0000
0010
0100
,
1000
1001
0001
0010
0001
0100
0010
1000
,
0100
0010
0100
1000
0010
0100
0001
1000
,
0100
0000
0010
0100
1000
0000
0001
0000
0100
0000
0010
0000
1000
0010
1000
0001
,
0010
0000
0000
0100
0000
0000
0010
0000
0000
0100
0000
0000
1000
0000
0000
0000
0000
0000
0000
0000
1000
0000
0000
0000
0010
0000
0000
0000
0000
0000
0000
0000
0101
0000
0000
0000
0000
0000
0000
0000
0001
0000
0000
0000
0010
0000
0000
0000
,
0100
1000
0100
0010
0001
1000
0100
1000
0010
0100
0000
0100
,
0001
0000
1000
0010
0100
0001
0010
0000
0010
0200
0000
0000
,
0310
0100
1000
0100
1000
0001
0010
0001
0100
0010
0000
0010
,
1000
0000
0001
0100
0010
1000
0100
0000
0100
0010
0000
0000
,
0200
0320
0230
1300
0100
0010
0100
0000
1000
0010
0000
0100
,
0001
0000
0100
0001
0010
0100
0010
0000
0010
0200
0000
0000
,
1300
0001
0010
0100
1000
0100
0010
0000
0100
0010
0000
0001
,
1000
0001
1000
0200
0000
0000
0001
0000
0000
1300
0000
0010
,
0200
0000
0000
0310
0001
0010
0100
0010
0001
1000
0100
0010
,
0100
1000
0001
0010
0100
1000
0100
0010
0100
1000
0001
0010
,
0001
0000
0010
1000
0010
0001
0010
0100
0010
0100
1000
0100
,
0010
0100
1000
0001
0000
1000
0010
0000
0000
0101
0000
0000
,
0002
0023
0032
1003
0100
0010
0001
0000
0010
0001
0100
0001
,
1000
0000
0100
1000
0001
0100
0001
0000
0010
0001
1000
0100
,
1000
0000
0100
0001
0000
0100
1000
0010
0001
0010
0000
0100
,
1000
0100
0001
2000
0000
3010
0200
0000
0301
2000
0000
3010
,
0100
0001
1000
0001
1000
0000
0000
0000
0001
0000
0000
0000
1000
0000
0000
0000
,
0010
1000
0001
0010
,
0001
0100
0001
0000
0100
0000
0010
0000
,
1000
0000
0100
0000
0010
0000
0001
0010
,
0100
1000
0100
0000
0010
0000
0001
0000
0010
0000
0100
0000
0010
0000
0001
0000
,
0100
1000
0100
0010
1000
0010
0100
0010
,
1000
0000
0100
0000
0010
0000
0100
0000
1000
0000
0010
0000
0100
0001
0100
0000
,
0010
1000
0010
0000
1001
0000
0000
0000
0201
0000
0000
0000
0301
0000
0012
0000
,
0000
0013
0210
0000
1300
1200
0000
1300
,
1002
0000
0103
0001
0012
0000
0013
0120
,
0000
0130
1200
0000
1300
2001
0000
3001
,
0100
0000
0010
0000
0100
0001
1000
0000
1002
0000
0000
0000
1003
0000
1020
0000
,
0000
0130
0102
0000
1003
2010
0000
3001
,
0010
0001
0010
0000
0001
0010
0001
0000
2100
0000
0000
0000
3001
0000
0021
0000
,
0000
0000
0031
0000
0100
0001
0010
0000
0000
0000
1100
0000
0000
0000
0001
0000
,
0010
0100
1000
0000
1000
0100
0010
0000
0012
0000
0000
0000
0103
0000
1020
0000
,
0000
1030
0021
0000
0130
1002
0000
0103
,
1020
0000
0130
0001
1002
0000
0013
1200
,
0000
0310
2100
0000
3001
1002
0000
0013
,
0110
0000
1100
0000
1000
0001
1000
0000
1001
0000
0000
0000
0000
0000
0000
0000
,
0000
0000
0000
0001
0200
0000
1300
0100
,
0002
0020
0000
0003
0130
0010
0001
1000
,
0100
0000
0010
0000
0001
0000
0010
0000
0100
1000
0010
0100
0001
1000
0100
0010
,
0001
0010
0100
0000
0010
0100
1000
0001
1000
0000
0010
0000
1000
0000
0010
0000
,
0100
0001
0100
0010
1000
0010
0100
0010
,
1000
0010
0100
0010
1000
0010
0100
0010
,
1000
0001
0010
0000
2200
0000
0000
0000
,
3300
0000
0000
0000
;

//--------------- dance-single - Pandemonium X ----------------
#NOTES:
     dance-single:
     Pandemonium X:
     Challenge:
     17:
     0,0,0,0,0:
0000
0000
0000
0000
,
0000
0000
0000
0000
,
0000
0000
0000
0000
,
0000
0000
0000
0000
,
0000
0000
0000
0000
,
0000
0000
0000
0000
,
0000
0000
0000
0000
,
0000
0000
0000
0000
,
0000
0000
0000
0000
,
0201
0000
0000
0000
,
0000
0000
0320
1030
,
0012
0000
0000
0000
,
2003
0000
0002
3003
,
0201
0000
0000
0000
,
0000
0000
0000
0300
,
1020
0000
0230
0000
,
0320
0000
2030
0000
,
3001
0010
0001
0100
,
0010
0000
1000
0000
0100
0000
0010
0100
,
1000
0001
1000
0100
,
0010
0000
0000
0000
0100
0000
0000
0000
1000
0000
0001
0000
0100
0010
0100
0000
,
0010
0000
1000
0000
0021
0000
0001
0001
,
0001
0000
0100
0000
0001
0000
0130
0010
,
0100
0000
0010
0000
0001
0000
1000
0000
0100
0010
0100
0000
1000
0001
1000
0000
,
0101
0000
1000
0010
0100
0001
0010
0100
,
0010
0001
0100
0010
1000
0001
0010
0100
,
1000
1000
1000
0010
0100
0001
0010
0100
,
0010
0010
0010
0100
1000
0010
0100
0001
,
1000
0001
1000
0000
0001
0000
0100
0000
0010
0000
1000
0000
0100
0000
0010
0000
,
0100
0100
0100
0010
0100
0010
0001
0001
,
0001
0010
0001
0000
0010
0000
0100
0000
1000
0000
0010
0000
0100
0001
0100
0000
,
0010
1000
0010
0000
4000
0000
0000
0000
3100
0000
0000
0000
0011
0000
0000
0000
,
0100
0100
1001
0000
1000
0100
0000
0100
,
0001
0000
0001
0100
0000
0100
1000
0001
,
1001
0000
1000
0001
1000
0000
0001
0010
,
0000
0010
1000
0000
1000
0010
0010
0001
,
0010
0100
1000
0000
1001
0000
0000
0000
0001
0000
0100
0000
0000
0000
0100
0000
,
1000
0000
1000
0100
0000
0100
0001
1000
,
0200
0000
0310
0000
1001
1001
0110
1001
,
0000
0000
1001
0000
1001
0000
1000
0000
0010
0000
0100
0000
0001
0010
0001
0000
,
0100
1000
0001
1000
0010
0000
0000
0000
1001
0000
0000
0000
1001
0000
0000
0000
,
1001
0000
0000
0000
1000
0000
0001
0000
1000
0000
0001
0000
0100
0010
0100
0010
,
0100
0010
1000
0001
0010
0000
0100
1000
0010
0000
0100
0000
0000
0100
0001
0000
,
0000
0000
0001
0000
1000
0000
0100
0010
0001
0000
1000
0000
0000
1000
0010
0000
,
1000
0000
0001
0000
1000
0000
0100
1000
0001
0000
0100
0000
0000
0100
0010
0000
,
0000
0000
0100
0000
0001
0000
1000
0100
1000
0000
0100
0000
0010
0000
0010
0000
,
1001
0000
1001
0000
0001
0000
0010
0100
1000
0000
0001
0000
0000
0001
1000
0000
,
0000
1000
0100
0000
1000
0000
0010
0100
0001
0000
0010
0000
0000
0010
0100
0000
,
0010
0000
0100
0000
1000
0000
0001
1000
0010
0000
0100
0000
0000
0010
0100
0000
,
0010
0000
1000
0000
1001
0000
1001
0000
1100
0000
1100
0000
1000
0010
1000
0000
,
0001
0100
0001
0000
1000
0000
0100
0000
1000
0000
0010
0000
0100
0000
0001
0000
,
0010
0100
0010
0001
0100
0010
1000
0001
,
0010
0000
0100
0010
0001
0000
1000
0000
0010
0000
0100
0000
0001
0000
1000
0000
,
0100
0000
0010
0000
0001
0000
0001
0000
0001
0000
0000
0000
1100
0000
0010
0001
,
0100
0101
0001
1000
0001
0010
0100
0010
,
0001
1000
0010
1000
0100
0010
0100
0010
,
0001
0000
0100
0010
1000
0000
0100
0000
0010
0000
0001
0000
1000
0010
0100
0001
,
0010
0000
0000
0100
0000
0000
1000
0000
0000
0010
0000
0000
1000
0000
0000
0000
0000
0000
0000
0000
0100
0000
0000
0000
0010
0000
0000
0000
0000
0000
0000
0000
0010
0000
0000
0000
0000
0000
0000
0000
0010
0000
0000
0000
0100
0000
0000
0000
,
1000
0010
0100
0001
0000
1000
0100
1000
0010
0100
0000
0001
,
0010
0100
0010
0001
1000
0100
0010
0000
0010
0200
0000
0000
,
0310
0001
1000
0010
1000
0001
0010
0000
0010
0100
0000
0100
,
0010
0001
0100
0010
1000
0001
0100
0000
0000
1001
0000
0000
,
1000
1000
1000
0001
0010
0001
0100
0000
0100
0010
0000
0010
,
0100
0001
0010
0100
1000
0100
0010
0000
0010
0200
0000
0310
,
0100
0010
0001
1000
0001
0010
0100
0000
0100
0010
0000
0010
,
0100
1000
0001
1001
0000
0000
1001
0000
0000
1001
0000
1000
,
0040
0000
0000
0130
0001
0010
0100
0010
0001
1000
0100
0010
,
0100
1000
0001
0010
0100
1000
0100
0010
0100
1000
0001
0010
,
0100
1000
0001
1000
0001
0100
0010
0100
0001
1000
0010
0100
,
0010
1000
0001
1000
0000
1000
1000
0000
1000
1000
0000
0000
,
0001
0001
0001
0001
0100
0010
1000
0001
0010
0100
1000
0001
,
0100
0010
1000
0001
0010
0100
1000
0100
0010
0001
0010
0100
,
0010
0001
1000
0001
0010
0100
1000
0100
0010
0100
1000
0001
,
0010
0100
0010
0011
0000
1000
1100
0000
0001
0101
0000
1000
,
0001
1000
0001
1000
0001
1000
0001
0000
0000
0000
0000
0000
0010
0000
0000
0000
0000
0000
0001
0000
0000
0000
0000
0000
,
0010
0001
1000
0100
,
1000
0010
0100
0000
0010
0000
0100
0000
,
0001
0000
0010
0000
0100
0000
1000
0100
,
0010
0001
0010
0000
0100
0000
1000
0000
0100
0000
0010
0000
0100
0000
1000
0000
,
0001
0010
0100
0010
0001
0100
0010
1000
,
0001
0000
0010
0000
0100
0000
1000
0000
0001
0000
0100
0000
0010
1000
0010
0000
,
0100
0001
0100
0000
1001
0000
0000
0000
0201
0000
0000
0000
0301
0000
0012
0000
,
0000
0013
0210
0000
1300
1200
0000
1300
,
1002
0000
0103
0001
0012
0000
0013
0120
,
0000
0130
1200
0000
1300
2001
0000
3001
,
0100
0000
1000
0000
0100
0001
1000
0000
1002
0000
0000
0000
1003
0000
1020
0000
,
0000
0130
0102
0100
0103
2010
0000
3001
,
0010
0001
0010
0000
0100
1000
0100
0000
2010
0000
0000
0000
3001
0000
2010
0000
,
0000
0000
3001
0000
1000
0010
0100
0000
0000
0000
1001
0000
0000
0000
1001
0000
,
0001
0100
0001
0000
1000
0100
1000
0000
2001
0000
0000
0000
3001
0000
1020
0000
,
0000
1030
0021
0000
0130
1002
0000
0103
,
1020
0000
0130
0001
1002
0000
0013
1200
,
0000
0310
0021
0000
0130
1200
0000
0310
,
0011
0000
1100
0000
1000
0100
0010
0000
0012
0000
0000
0000
0010
0000
0010
0000
,
0000
0010
0013
0100
1000
0000
0010
0100
,
0101
2020
0000
0030
3010
0100
0001
1000
,
0100
0000
0010
0000
0001
0000
0010
0000
0100
1000
0010
0100
0001
1000
0100
0010
,
0001
0010
0100
0000
0010
0100
1000
0001
1000
0000
0010
0000
1000
0000
0010
0000
,
0100
0001
0100
0001
1000
0100
0010
0100
,
1000
0001
0100
0010
0100
0001
0010
0001
,
1000
0100
0010
0000
2002
0000
0000
0000
,
3003
0000
0000
0000
;
