#TITLE:1.5;
#SUBTITLE:;
#ARTIST:Zovi;
#TITLETRANSLIT:;
#SUBTITLETRANSLIT:;
#ARTISTTRANSLIT:;
#GENRE:;
#CREDIT:;
#MUSIC:1.5.ogg;
#BANNER:1.5-bn.png;
#BACKGROUND:1.5-bg.png;
#CDTITLE:;
#SAMPLESTART:6.841;
#SAMPLELENGTH:18.500;
#SELECTABLE:YES;
#OFFSET:0.909;
#BPMS:0.000=240.000
,25.000=120.000
,28.000=240.000
,102.000=80.000
,114.000=120.000
,116.000=240.000
,119.000=80.000
,121.000=240.000
,158.000=80.000
,170.000=120.000
,172.000=240.000
,175.000=120.000
,177.000=240.000
,232.000=80.000
,244.000=240.000
,250.000=80.000
,252.000=240.000
,253.000=480.000
;
#STOPS:119.875=0.254
,178.000=0.375
,180.000=0.125
,182.000=0.125
,184.500=0.125
,186.500=0.125
,188.500=0.125
,244.000=0.875
,247.500=1.125
,253.000=0.125
,254.000=0.125
,255.000=0.125
,256.000=0.125
,257.000=0.125
,258.000=0.125
;
#BGCHANGES:4.000=1.5.mp4=1.000=1=0=1===CrossFade==,
99999.000=-nosongbg-=1.000=0=0=0=StretchNoLoop====
;
#FGCHANGES:;

//--------------- dance-single - ----------------
#NOTES:
     dance-single:
     :
     Beginner:
     8:
     0,0,0,0,0:
0000
0000
0000
0000
,
0000
0000
0000
0000
,
0000
0000
0000
0000
,
0000
0000
0000
0000
,
0000
0000
0000
0000
,
0000
0000
0000
0000
,
0000
0000
0000
0000
,
0001
0000
0001
0000
,
1000
0000
1000
0000
,
0010
0000
0010
0000
,
0100
0000
0100
0000
,
0010
0100
0001
0000
,
1000
0000
0100
0000
,
1000
0000
0010
0000
,
0100
0000
0001
0000
,
0010
0000
0100
0010
,
0100
1000
0000
0001
,
0000
0100
0000
0001
,
0000
0000
1000
0000
0000
1000
0000
0000
,
0000
0000
1000
0000
0000
1000
0000
0000
,
0000
0001
1000
0010
,
0000
1000
0000
0100
,
0000
0010
0000
0001
,
0000
0001
0000
0000
0000
0000
0001
0000
,
0000
0001
0000
0000
0000
0000
0100
0000
,
0100
0010
1000
0000
,
0100
0000
0010
0001
,
0100
0000
0010
0100
,
0001
1000
0110
0000
,
0001
0001
0001
1001
,
0000
1000
0000
0001
,
0000
0100
0000
0001
,
0000
0000
0010
0000
0000
0100
0000
0000
,
0000
0000
0010
0000
0000
0100
0000
0000
,
0000
0010
0001
1000
,
0000
0010
0000
1000
,
0000
0100
0000
0000
0000
0000
1000
0000
,
0000
0010
0000
0000
0000
0000
0100
0000
,
0000
0001
0000
0000
0000
0000
1000
0000
,
0001
0100
0010
0000
,
0100
0000
0001
1000
,
0100
0000
0010
0100
,
1000
0001
0110
0000
,
1000
0001
0100
0010
,
0000
0000
0100
0000
0100
0010
0000
0000
,
0010
0000
0100
0000
,
0000
0001
0000
0000
0000
1000
0000
0000
,
0000
0001
1000
0000
0000
0000
0001
0000
,
0001
0001
0001
0100
,
0001
0000
0000
0010
,
0100
0000
0000
1000
,
0100
0000
0000
1000
,
0010
0000
0000
0110
,
1001
0001
0000
1000
,
0000
0010
0000
1000
,
0000
0100
0000
0010
,
0000
0001
0000
1000
,
0000
0010
0010
0010
,
0100
0000
0001
0000
,
0010
0100
1000
0000
,
0001
1000
0010
0100
,
1001
0001
0000
0100
0000
0010
0000
1010
,
0010
0000
1001
0000
,
0000
1000
0001
1000
,
0001
1000
0001
1000
;

//--------------- dance-single - ----------------
#NOTES:
     dance-single:
     :
     Easy:
     12:
     0,0,0,0,0:
0000
0000
0000
0000
,
0000
0000
0000
0000
,
0000
0000
0000
0000
,
0000
0000
0000
0000
,
0000
0000
0000
0000
,
0000
0000
0000
0000
,
0000
0000
0000
0000
,
0001
0100
0000
0000
,
0000
0010
0000
2000
0000
0000
0001
0000
,
3001
0100
0000
0000
,
0000
0010
0000
0200
0000
0000
0310
0000
,
1001
0110
1000
0001
,
0000
0000
0000
0000
0000
0010
0000
0002
,
0000
1000
1003
0100
,
0000
0000
0000
0000
0000
0010
0200
0000
,
0000
1300
1100
0011
,
1001
0001
0100
0010
,
0000
0100
0001
1000
,
0001
0000
1000
0100
1000
0100
0000
0000
,
0000
0000
0010
0001
0010
0001
0000
0000
,
0000
1001
0110
0001
,
0100
0001
1000
0100
,
0010
0000
0001
0000
1000
0000
0001
0100
,
0001
0100
0000
0000
0000
0000
0010
1000
,
0010
1000
0000
0000
0000
0000
1001
0000
,
0110
0000
0000
1001
0000
0000
0102
0000
0000
0000
0000
1003
,
0200
0000
0000
0000
0000
0310
0100
1000
0010
0200
0000
0000
,
0320
0000
0000
0000
0000
0130
0001
0000
0001
0010
0000
0010
,
0001
1000
0100
0020
0000
0000
0130
0000
0000
0000
0000
0000
,
0010
0000
0000
0000
0000
0000
0001
0000
0000
0000
0000
0000
0100
0000
0000
0000
0000
0000
0220
0000
0000
0000
0000
0330
,
0000
1000
0001
0010
,
0001
0100
0010
1000
,
0001
0000
0010
0100
0010
0100
0000
0000
,
0000
0000
0001
1000
0001
1000
0000
0000
,
0000
1001
0101
0001
,
1000
0010
1000
0001
,
0010
0000
0100
0000
1000
0000
0010
1000
,
0010
0100
0000
0000
0000
0000
0010
0100
,
0001
0010
0000
0000
0000
0000
0011
0000
,
1100
0000
0000
1001
0000
0000
2010
0000
0000
0000
0000
3100
,
0020
0000
0000
0000
0000
0130
0010
0001
0100
0020
0000
0000
,
0230
0000
0000
0000
0000
0301
0100
0000
0001
1000
0000
0001
,
0010
0001
1000
0200
0000
0000
0310
0000
0000
0000
0000
0000
,
0002
2003
3002
1003
,
0000
0000
0001
0000
0001
1000
0000
0000
,
0100
1000
0000
0000
0010
0000
0100
0000
,
0000
0001
0010
0000
0000
0100
0010
0000
,
0000
0001
1000
0000
0001
0000
0100
0000
,
0001
0001
0001
1000
,
0001
0000
0000
0010
0001
0000
0100
0000
,
0010
0000
0000
1000
0100
0000
1000
0000
,
0001
0000
0000
0100
0010
0000
0100
0000
,
0001
0000
0000
1000
0100
0000
1100
0000
,
0011
0001
0100
0010
,
1000
0001
1000
0000
0001
0000
0010
0000
,
0100
1000
0100
0000
1000
0000
0010
0000
,
0100
0001
0100
0000
0001
0000
0010
0000
,
0100
1100
0011
1100
,
2001
0000
0000
0000
0000
3010
0200
0000
0000
0000
0000
0301
,
0010
0100
1000
0002
0000
0000
2003
0000
0000
0000
0000
3010
,
1000
0000
0010
0100
0000
0010
1000
0100
0010
0012
0000
0000
,
0103
0010
0000
0100
0000
0001
0000
1001
,
1000
0100
0010
0001
2000
0000
0000
0000
,
0000
3001
1000
0010
,
0100
0001
1000
0110
;

//--------------- dance-single - ----------------
#NOTES:
     dance-single:
     :
     Medium:
     15:
     0,0,0,0,0:
0000
0000
0000
0000
,
0000
0000
0000
0000
,
0000
0000
0000
0000
,
0000
0000
0000
0000
,
0000
0000
0000
0000
,
0000
0000
0000
0000
,
0000
0000
0000
0000
,
0001
0100
0010
0000
1000
0000
0001
0000
,
0010
0100
0000
0020
0000
0000
0031
0000
,
0100
1000
0010
0000
0100
0001
1000
0000
,
0001
1000
0000
0200
0000
0000
0310
0000
,
0110
0000
1100
0000
0001
1000
0010
0000
,
0100
0001
0010
0000
0100
1000
0000
0020
,
0000
0000
0130
0000
0010
1000
0001
0000
,
0010
0001
1000
0000
0100
0010
0000
0002
,
0000
0103
1010
0101
,
1001
0000
1000
0000
0100
0010
0001
0000
,
0010
0000
0001
0100
0010
0100
0000
0010
,
1000
0000
0001
0100
0010
1000
0100
0010
,
0001
0000
1000
0010
0100
0001
1000
0100
,
0010
0011
1100
0001
,
0100
0001
1000
0100
,
0010
0100
0000
0010
0001
0000
1000
0100
,
0010
0001
1000
0010
1000
0000
0001
0010
,
0100
1000
0001
0100
0001
0000
0101
0000
,
1010
0000
0000
1100
0000
0000
0002
0000
0000
0013
0000
0100
,
2000
0000
0000
0000
0000
0000
3010
0000
0000
0000
0100
0000
1000
0000
0100
0000
0001
0000
1000
0100
0010
0100
1000
0001
,
0200
0000
0000
0310
0000
0100
0002
0000
0013
0200
0000
0310
,
0001
0000
0100
0000
1000
0000
0100
0001
0010
0100
1000
0001
1001
0000
0000
0000
0000
0000
0000
0000
0000
0000
0000
0000
,
1000
0000
0010
0000
0100
0000
0001
0000
0010
0000
0100
0000
2000
0000
0000
3000
,
0002
0000
1003
0000
0100
0000
1000
0010
,
0100
0000
0001
0000
0010
0100
0000
0010
,
0001
0000
1000
0100
0001
0100
1000
0001
,
1000
0000
0001
0100
1000
0100
0001
1000
,
0001
0000
0101
0000
1010
0000
0001
1000
,
0100
1000
0000
0000
1000
0000
0010
0000
,
0100
0010
0000
0010
1000
0000
0001
0010
,
1000
0010
0001
1000
0001
0000
1000
0010
,
0001
0010
1000
0001
1000
0000
1001
0000
,
1010
0000
0000
0101
0000
0000
0012
0000
0000
0013
0000
0100
,
1100
0000
0000
0000
0000
0000
0001
0000
0000
0000
0100
0000
0001
0000
0010
0000
0100
0000
1000
0100
1000
0010
0100
0001
,
0020
0000
0000
0130
0000
0010
0001
0000
1000
0100
0000
0010
,
0001
0000
0100
0000
0001
0000
1000
0100
0010
0100
1000
0001
0100
0000
0000
0000
0000
0000
0000
0000
0000
0000
0000
0000
,
0001
0100
0010
1000
0001
1000
1001
0000
,
0000
0000
0001
1000
0002
1003
0010
0100
,
0020
0130
0001
1000
0002
0013
0100
0010
,
0100
2000
3100
0010
0001
2000
3001
1000
,
0010
0200
0301
0100
0001
1000
0100
0001
,
0100
1000
0100
0001
0100
0000
2000
0000
,
3020
0000
0130
0001
0010
0100
2000
0000
,
3002
0000
0103
0001
1000
0100
0020
0000
,
0230
0000
0310
0001
1000
0001
0200
0000
,
0302
0000
1003
0100
1000
0000
0101
0000
,
1010
0000
0001
0100
0010
1000
0001
0010
,
0100
0000
0010
0001
1000
0010
1000
0100
,
0010
0000
0100
1000
0001
0010
0100
1000
,
0001
0000
1000
0001
0100
0001
0010
0100
,
1000
1100
0011
1100
,
2001
0000
0000
3010
0000
0100
0102
0000
0000
0013
0000
0100
,
0010
0000
0001
0000
1000
0000
0001
0100
0010
1000
0100
0010
0200
0000
0000
0000
0000
0000
1300
0000
0000
0000
1000
0010
,
0200
0000
0000
0000
0301
0000
2001
0000
0000
0000
3100
0000
0011
0000
1100
0000
0011
0000
1000
0010
0100
0001
0010
0100
,
1000
1001
0000
0110
0000
1001
0000
0110
,
0001
0100
0010
1000
0200
0000
0000
0000
,
0000
0310
0001
0000
0100
0000
0010
0000
,
1000
1001
0110
1001
;

//--------------- dance-single - ----------------
#NOTES:
     dance-single:
     :
     Hard:
     18:
     0,0,0,0,0:
0000
0000
0000
0000
,
0000
0000
0000
0000
,
0000
0000
0000
0000
,
0000
0000
0000
0000
,
0000
0000
0000
0000
,
0000
0000
0000
0000
,
0000
0000
0000
0000
,
1001
1000
0100
0000
0100
1000
0010
0000
,
0010
0001
0010
1000
0100
0010
0001
0000
,
1000
0001
0010
0000
0010
0001
0100
0000
,
0100
1000
0100
0001
1000
0001
0010
0000
,
1010
0000
0011
0000
1001
0001
0010
0000
,
0010
0001
1000
0000
0001
0100
0010
0001
,
0010
0100
0001
0000
1001
1000
0100
0000
,
0100
1000
0001
0000
1000
0010
0100
1000
,
0100
0010
1000
0000
1010
0000
0101
0000
,
1001
0000
1000
0100
1000
0000
0001
0010
,
0001
0000
0100
0001
0100
0000
0010
1000
,
0200
0000
0310
0001
0010
1000
0010
0001
,
0100
0000
1000
0100
0001
0100
1000
0100
,
0010
0000
1001
0000
0011
0000
0001
0010
,
0001
0000
1000
0001
1000
0000
0100
1000
,
0100
0000
1000
0010
1000
0000
0001
0100
,
1000
0100
0010
1000
0100
0000
1000
0010
,
0001
0010
0100
0001
0010
0000
0011
0000
,
0110
0000
0000
1001
0000
0000
1200
0000
0000
0301
0000
0100
,
2100
0000
0000
0000
0000
0000
0000
0000
0000
0000
0000
0000
3010
0000
0000
0000
0000
0000
0000
0000
0100
0000
0000
0000
1000
0000
0000
0000
0100
0000
0000
0000
0001
0000
0000
0000
1000
0010
1000
0100
0010
0001
1000
0001
0010
0001
0100
0010
,
0200
0000
0000
1300
0000
0001
0020
0000
0130
2000
0000
3001
,
1000
0000
0000
0000
0001
0000
0000
0000
0010
0000
0000
0000
0100
1000
0100
0010
0001
0010
0001
0100
0001
0100
0010
1000
0001
0000
0000
0000
0000
0000
0000
0000
0000
0000
0000
0000
0000
0000
0000
0000
0000
0000
0000
0000
0000
0000
0000
0000
,
1000
0000
0100
0000
0020
0000
0000
0000
0130
0000
0010
0000
0002
0000
0000
0000
0013
0000
0100
0000
1000
0000
0000
0000
2002
0000
0000
0000
0000
0000
0000
3003
,
0020
0000
0130
0000
1001
0000
0001
1000
,
1100
0000
0010
0000
1001
0000
1000
0001
,
0011
0000
0001
0100
1000
0100
0001
1000
,
1100
0000
1000
0010
0001
0010
1000
0001
,
0011
0000
0110
0000
1001
0000
0010
1000
,
0100
0010
0100
1000
0010
0100
0001
0010
,
0100
0010
0001
1000
0200
0000
1300
0010
,
0001
0010
0100
0001
1000
0000
0001
0100
,
1000
0100
0010
1000
0001
0000
1001
0000
,
0101
0000
0000
1010
0000
0000
0021
0000
0000
1030
0000
0010
,
0002
0000
0000
0000
0000
0000
0000
0000
0000
0000
0000
0000
0103
0000
0000
0000
0000
0000
0000
0000
0010
0000
0000
0000
0100
0000
0000
0000
0010
0000
0000
0000
1000
0000
0000
0000
0001
0010
0001
0010
0100
1000
0010
1000
0100
0010
0001
1000
,
0020
0000
0000
0130
0000
0010
0200
0000
0301
2000
0000
3100
,
0010
0000
0000
0000
0100
0000
0000
0000
1000
0000
0000
0000
0010
0100
0010
1000
0001
0010
0001
0100
0010
1000
0001
0010
0100
0000
0000
0000
0000
0000
0000
0000
0000
0000
0000
0000
0000
0000
0000
0000
0000
0000
0000
0000
0000
0000
0000
0000
,
1000
0001
0020
0000
0130
1000
0020
0000
0130
0001
0020
0000
0130
0000
0000
0000
,
0000
0000
0010
0001
0101
0100
0010
1010
,
1001
1000
0100
0010
0011
0001
0100
0010
,
0101
1001
1000
0001
0100
0110
0010
0100
,
0001
0000
1001
0000
1000
0000
0100
0000
0010
0000
0001
0000
0100
0001
0100
0010
,
1000
0000
0100
0010
0001
0000
0010
0100
1000
0000
0000
0000
0201
0000
0000
0000
,
1000
0000
0000
0000
0000
0000
0000
0000
0000
0000
0000
0000
0000
0000
0000
0000
0000
0000
0000
0000
0000
0000
0000
0000
0000
0000
0000
0000
0000
0000
0000
0000
0000
0000
0000
0000
0000
0000
0000
0000
0000
0000
0000
0000
0000
0000
0000
0000
0001
0000
0000
0000
0000
0000
0000
0300
0000
0000
0000
0000
0000
0000
0000
0000
0000
0000
0000
0000
0000
0000
0000
0000
0010
0000
0000
0000
0000
0000
0000
0000
0000
0000
0000
0000
0000
0000
0000
0000
0000
0000
0000
0000
0000
0000
0000
0000
1000
0000
0000
0000
0000
0000
0000
0000
0000
0000
0000
0000
0000
0000
0000
0000
0000
0000
0000
0000
0000
0000
0000
0000
0010
0000
0000
0000
0000
0000
0000
0000
0000
0000
0000
0000
0000
0000
0000
0000
0000
0000
0000
0000
0000
0000
0000
0000
0021
0000
0000
0000
0000
0000
0000
0000
0000
0000
0000
0000
0000
0000
0000
0000
0000
0000
0000
0000
0000
0000
0000
0000
0000
0000
0000
0000
0000
0000
0000
0000
0000
0000
0000
0000
0000
0000
0000
0000
0000
0000
0000
0000
0000
0000
0000
0000
,
1000
0000
0031
0100
1000
0100
0201
0000
,
1000
0000
0301
0010
0100
1000
1200
0000
,
0001
0000
1300
0100
1000
0001
1001
0000
,
0110
0000
0001
0001
1000
0100
0100
0010
,
0100
1000
0010
0100
0010
0000
0010
0000
0100
0000
0001
0000
0001
0000
0010
0000
,
0100
0010
0001
0100
0010
0000
0100
0000
0001
0000
1000
0000
0100
0000
0010
0100
,
1000
0000
0001
0000
1000
0000
0010
0000
0100
0001
1000
0000
1000
0100
0010
0000
,
0001
0000
1000
0001
0200
0000
0310
1000
0200
0000
0310
0001
0200
0000
0310
1000
,
0200
0000
0000
0001
0000
1300
1020
0000
0000
0001
0000
0130
,
0101
0000
0000
0000
1010
0000
0000
0000
1100
0000
0000
0000
1000
0100
1000
0010
0100
0001
0010
0100
1000
0001
0100
0010
0200
0000
0000
0000
0000
0000
0000
0000
0000
0000
0000
0000
1300
0000
0000
0000
0000
0000
0000
0000
0100
0000
0001
0000
,
0201
0000
0000
0000
0000
0000
0000
0000
0301
0000
0000
0000
0021
0000
0000
0000
0000
0000
0000
0000
0130
0000
0000
0000
0110
0000
0000
0000
0011
0000
0000
0000
0110
0000
0000
0000
1000
0100
0010
0001
0010
0100
1000
0010
0100
0001
1000
0010
,
0200
0300
0110
0000
0000
0000
0101
0000
0000
0000
1010
0000
0000
0000
2002
3003
,
1100
0110
0011
0101
2002
0000
0000
0000
,
3003
0000
0020
0030
2002
0000
3003
0000
2020
0000
3030
0000
2200
0000
3300
0000
,
0022
0033
2002
3003
0220
0330
2002
0000
,
0000
3003
0000
0000
;
