#TITLE:symptom;
#SUBTITLE:;
#ARTIST:kobo vs krague;
#TITLETRANSLIT:;
#SUBTITLETRANSLIT:;
#ARTISTTRANSLIT:;
#GENRE:;
#CREDIT:;
#MUSIC:symptom.ogg;
#BANNER:;
#BACKGROUND:;
#CDTITLE:;
#SAMPLESTART:17.411;
#SAMPLELENGTH:16.588;
#SELECTABLE:YES;
#OFFSET:2.354;
#BPMS:0.000=85.000
,20.000=170.000
;
#STOPS:117.000=0.706;
#BGCHANGES:0.000=symptom.mp4=1.000=0=0=1,
99999.000=-nosongbg-=1.000=0=0=0=StretchNoLoop====
;
#FGCHANGES:;

//--------------- dance-single - Pandemonium X ----------------
#NOTES:
     dance-single:
     Pandemonium X:
     Beginner:
     5:
     0,0,0,0,0:
0000
0000
0000
0000
,
0000
0000
0000
0000
,
0000
0000
0000
0000
,
0000
0000
0000
0000
,
0000
0000
0000
0000
,
0001
0000
0000
1000
,
0100
0000
0000
0010
,
0100
0000
0000
0010
,
0001
0000
0200
0000
,
0310
0000
0000
0100
,
0000
0000
0001
0001
,
1000
0000
0000
0000
,
0100
0000
0010
0000
,
0001
0000
0000
1000
,
0000
0000
0010
0010
,
0100
0000
0000
0000
,
0010
0010
0100
0100
,
0001
0000
0000
1000
,
0000
0000
0100
1000
,
0010
0000
0000
0000
,
0100
0100
0100
0100
,
0001
0000
0000
0001
,
0000
0000
0001
0001
,
1000
0000
0000
1000
,
0000
0000
1000
1000
,
0010
0000
0000
0010
,
0000
0000
0010
0010
,
0100
0000
0000
0100
,
0000
0000
0100
0100
,
0010
1001
0001
0000
,
1000
0000
0200
0000
,
0000
0000
0000
0000
,
0000
0000
0000
0000
,
0300
0000
0010
0000
,
0001
0000
1000
0000
,
0010
0000
0100
0000
,
0010
0000
0100
0001
,
1000
0000
0001
0000
,
1000
0000
1020
0000
,
0000
0000
0000
0000
,
0000
0000
0030
0000
,
0000
0000
0100
0000
,
0001
0000
0010
0000
,
0100
0000
1000
0000
,
0100
0000
0010
0001
,
1000
0000
0001
0000
,
0001
0000
0001
0001
,
0001
0000
1000
0000
,
1000
0000
1000
1000
,
1000
0000
0110
0000
,
0010
0000
0100
0100
,
0100
0000
1001
0000
,
1000
0000
0001
0001
,
0001
0000
0010
0000
,
0000
0100
0000
0000
,
1000
0010
0100
0000
,
0000
0010
0000
0000
,
0100
0001
0010
0000
,
0000
0100
0000
0000
,
0010
0001
1000
0000
,
0000
0010
0000
0000
,
0100
0001
1000
0000
,
1000
0000
1000
0000
,
1000
0000
0001
0000
,
0001
0000
0001
0000
,
0001
0000
0100
0000
,
0100
0000
0100
0000
,
0100
0000
0010
0000
,
0010
0000
0010
0000
,
0010
0000
0100
0000
,
0000
0001
0000
0000
,
0010
0100
1000
0000
,
0000
0100
0000
0000
,
0010
0001
1000
0000
,
0000
0001
0000
0000
,
0100
0001
1000
0000
,
0000
0100
0000
0000
,
0010
0001
1000
0000
,
0000
0000
0001
0000
,
0000
0000
0100
0000
,
0000
0000
0010
0000
,
0000
0000
0000
0002
0000
0000
0000
0000
,
0003
0000
0000
0000
;

//--------------- dance-single - Pandemonium X ----------------
#NOTES:
     dance-single:
     Pandemonium X:
     Easy:
     8:
     0,0,0,0,0:
0000
0000
0000
0000
,
0000
0000
0000
0000
,
0000
0000
0000
0000
,
0001
0000
1000
0000
0220
0000
0000
0330
,
1000
0000
0001
0000
0220
0000
0000
0330
,
1001
0000
0001
0000
,
1000
0010
1000
0000
,
0001
0000
0010
0000
,
0100
0010
0002
0000
,
0103
0000
0000
0010
0000
0000
1000
0000
,
0000
0001
0000
0000
0010
0000
0100
0000
,
1000
0000
0000
0001
0000
1000
0000
0000
,
0010
0010
0100
0100
,
0001
0000
0000
0010
0000
0000
0001
0000
,
0000
1000
0000
0000
0010
0000
0100
0000
,
0010
0000
0000
1000
0000
0010
0000
0000
,
1000
0100
0010
0001
,
1000
0000
0000
0001
0000
0000
0010
0000
,
0000
0001
0000
0000
1000
0000
0100
0000
,
1000
0000
0000
0010
0000
0100
0000
0000
,
0010
0100
0001
1000
,
1001
0001
0010
0001
,
1000
0100
0110
0011
,
1001
1000
0100
1000
,
0001
0010
0110
1001
,
0101
0100
0010
1000
,
0001
0100
0011
1001
,
1100
1000
0100
0010
,
0001
0100
0110
1001
,
0110
0000
0001
0000
1000
0000
0000
1000
,
0000
1000
0020
0000
,
0100
0000
0100
0000
,
0100
0000
0130
0000
,
0010
0000
0100
0100
,
0001
0001
1000
1000
,
0010
0010
0100
0000
,
0001
0000
0010
0100
,
1000
0000
0100
0000
,
1000
0000
0200
0000
,
0010
0000
0010
0000
,
0010
0000
0310
0000
,
0100
0000
0010
0010
,
0001
0001
1000
1000
,
0010
0010
0100
0000
,
0001
0000
2002
0000
,
0000
3003
0001
0001
,
1000
1000
0010
0100
,
0100
0010
1000
1000
,
0001
0001
0010
0100
,
1000
1001
0001
1000
,
0010
1000
0001
0010
,
0100
1000
0100
0100
,
1000
1000
0010
0100
,
0001
0000
1000
0000
0001
0000
0000
0010
,
0000
0000
0100
0000
0000
1000
0000
0000
,
1100
0000
0011
0000
0001
0000
0000
1000
,
0000
0000
0001
0000
0000
0100
0000
0000
,
1010
0000
0101
0000
0001
0000
0000
1000
,
0000
0000
0100
0000
0000
1000
0000
0000
,
1010
0000
0110
0000
0100
0000
0000
0001
,
0000
0000
0010
0000
0000
0100
0000
0000
,
0110
0000
0011
0000
0000
0001
0000
0000
,
1000
0000
0000
0010
0000
0000
1000
0000
,
0000
0001
1000
0000
0000
0001
0000
0000
,
0010
0000
0000
0100
0000
0000
1000
0000
,
0000
0010
0100
0000
0000
0001
0000
0000
,
1000
0000
0000
0010
0000
0000
1000
0000
,
0000
0100
0010
0000
0000
0100
0000
0000
,
1000
0000
0000
0001
0000
0000
0100
0000
,
0000
0010
0100
0000
1001
0000
0100
0000
,
0010
0001
1000
0100
,
1001
0110
1001
0010
,
0100
1000
0001
0010
,
1001
0110
1001
0001
,
0010
0001
0100
0010
,
1001
0110
1000
0010
,
0100
0001
1000
0010
,
1001
0000
0110
0000
1001
0000
0000
0001
,
0000
0001
0200
0000
,
0000
0000
0300
0000
0001
0000
0000
0001
,
0000
0001
2000
0000
,
0000
0000
0000
3000
0000
0000
0000
0000
;

//--------------- dance-single - Pandemonium X ----------------
#NOTES:
     dance-single:
     Pandemonium X:
     Medium:
     12:
     0,0,0,0,0:
0000
0000
0000
0000
,
0000
0000
0000
0000
,
0000
0000
0000
0000
,
0102
0010
2000
3003
,
2100
0000
0010
0000
0002
0000
0000
3003
,
1000
0100
0000
0100
1000
0000
0100
0010
,
0001
0100
0000
0100
0001
0000
0001
0010
,
0100
1000
0000
1000
0100
0000
1000
0010
,
0100
0001
0000
0001
0020
0000
0000
0000
,
0130
0000
0100
0010
0000
0100
1000
0000
,
0100
0010
0000
0100
1100
0000
0011
0000
,
1001
0000
0001
0100
0000
0010
0000
0100
,
0101
0011
0101
1001
,
0101
0000
0001
0010
0000
0010
0001
0000
,
0001
1000
0000
1000
0010
0000
0110
0000
,
1010
0000
1000
0100
0000
0100
0000
0010
,
0110
1001
0110
1001
,
1000
0000
1000
0100
0000
0010
0001
0000
,
0001
0100
0000
0010
1000
0000
1001
0000
,
1000
0100
0001
0100
0000
1000
0000
0001
,
0100
0100
0010
0010
1000
1000
1001
0000
,
0001
0002
0000
1000
2003
0000
0010
3020
,
0000
0100
0230
0000
0301
0000
1010
0000
,
1000
2000
0000
0100
3200
0000
0010
0320
,
0000
0001
0032
0000
0013
0000
1100
0000
,
0001
0002
0000
0100
0203
0000
1000
2300
,
0000
0100
3200
0000
0301
0000
1001
0000
,
1000
2000
0000
0010
3020
0000
0001
0032
,
0000
0010
0023
0000
1030
0000
0101
0000
,
1001
0000
0010
0000
1001
1000
0000
0001
,
0100
0000
0001
0010
0200
0000
0000
0000
,
1000
0000
0010
0000
,
1000
0000
0310
0100
,
0010
0001
0101
0101
,
1010
1010
1001
1001
,
1100
0000
1100
0000
1000
0100
0000
0100
,
0010
0000
0001
0000
0100
0001
1000
0100
,
0020
0000
0000
0000
0130
1000
0000
0100
,
0010
0000
0100
1000
0002
0000
0000
0000
,
0100
0000
0010
0000
,
0100
0000
0013
0100
,
0010
0001
0101
0101
,
1010
1010
1100
1100
,
1001
0000
1001
0000
1000
0001
0000
0010
,
0100
0000
0010
0000
0001
0100
1000
0100
,
0002
0000
0000
0000
1003
0100
1000
0000
,
0100
0010
0100
0000
0010
0001
0010
0000
,
0011
0000
0001
0100
0010
0100
0001
0000
,
1000
0010
0100
0001
0010
0100
1000
0000
,
0010
0000
1001
0000
1000
1000
0100
0000
,
0010
0010
0001
0000
0100
0100
0010
0000
,
0100
0100
0001
0000
0100
0001
0010
0000
,
0100
1000
0010
0000
0100
0001
0010
0000
,
0100
1000
1001
0000
0001
0000
0100
0001
,
0000
0010
0100
0000
0010
0001
0000
1000
,
0100
0000
1001
0000
1000
0000
0001
0010
,
0000
0001
1000
0000
0100
0010
0000
0100
,
1000
0000
1010
0000
0010
0000
0100
0001
,
0000
0010
0100
0000
0010
0001
0000
1000
,
0100
0000
0011
0000
0001
0000
0100
0001
,
0000
0010
0100
0000
0010
0001
0000
1000
,
0010
0000
0101
0000
0000
0001
1000
0000
,
0001
1000
0000
0001
1000
0000
0001
1000
,
0000
0010
0010
0000
0000
1000
0001
0000
,
1000
0001
0000
1000
0001
0000
1000
0001
,
0000
0100
0100
0000
0000
0001
0100
0000
,
0010
1000
0000
0001
0100
0000
0010
1000
,
0000
0001
0001
0000
0000
1000
0100
0000
,
0010
0001
0000
1000
0100
0000
0010
0001
,
0000
0001
1000
0000
0001
0100
0010
0100
,
0001
0100
0010
0100
0001
0100
0010
0100
,
0001
0000
1001
0000
1000
0010
0100
0010
,
1000
0010
0100
0010
1000
0010
0100
0010
,
1000
0000
1001
0000
1000
0100
0010
0001
,
0010
0100
1000
0100
0010
0001
0010
0100
,
1100
0000
0011
0000
0001
0010
0100
1000
,
0100
0010
0100
1000
0001
0010
0100
0010
,
0001
0000
1001
0000
0120
0000
0000
1000
,
0000
0100
0130
0000
0210
0000
0000
0001
,
0000
0010
0310
0000
2010
0000
0000
0001
,
0000
0100
3100
0000
0220
0000
0000
0000
,
0000
0000
0000
0330
0000
0000
0000
0000
;

//--------------- dance-single - Pandemonium X ----------------
#NOTES:
     dance-single:
     Pandemonium X:
     Hard:
     15:
     0,0,0,0,0:
0000
0000
0000
0000
,
0000
0000
0000
0000
,
0000
0000
0000
0000
0000
0000
0000
0000
0000
0000
0000
0000
0000
0000
0000
0000
0000
0000
1000
0010
0100
0000
0000
0000
,
0010
2000
3002
0000
,
0013
0000
0100
0000
2100
0001
0010
3001
,
1001
0001
0000
1000
0010
0000
1000
0100
,
0010
0100
0000
1000
0001
0000
0001
0010
,
0100
0010
0000
0001
1000
0000
0001
0100
,
0010
0000
1000
0000
0000
0000
0100
0000
0020
0000
0000
0000
0000
0000
0000
0030
,
1001
0000
0001
0010
0000
0010
0100
0000
,
0100
1000
0000
0001
1001
0000
0101
0000
,
1001
0000
1000
0100
0000
0100
0000
0010
,
0110
1100
0011
1001
,
1100
0000
1000
0100
0000
0100
0010
0000
,
0010
0001
0000
0001
1000
0000
1001
0000
,
1010
0000
1000
0010
0000
0010
0000
0100
,
0110
1001
1010
0101
,
1001
0000
0001
0020
0000
0130
2000
0000
,
3001
0200
0000
0310
1000
0000
1001
0000
,
0001
0010
0100
0010
0000
1001
0000
0001
,
0100
0100
0010
0010
1000
1000
1001
0000
,
0001
0000
0100
0010
0100
0000
0001
0000
1000
0000
0100
0000
0010
0000
0100
0010
,
0100
0000
0010
0000
0001
0000
1000
0000
0001
0100
0010
0000
0100
0001
1000
0000
,
0100
0000
0010
0001
0010
0000
0001
0000
0010
0000
0100
0000
1000
0000
0010
1000
,
0010
0000
0100
0000
0001
0000
1000
0000
0100
0010
0100
0000
1000
0001
1000
0001
,
1000
0000
0001
0100
0010
0000
1000
0000
0001
0000
1000
0000
0100
0000
0010
0100
,
1000
0000
0001
0000
0100
0000
1000
0000
0100
0001
0010
0000
0100
1000
0001
0000
,
1000
0000
0100
0010
0100
0000
0010
0000
0001
0000
1000
0000
0010
0000
0100
0001
,
0100
0000
0001
0000
0010
0000
0100
0000
1000
0100
0010
0001
0100
0010
1000
0100
,
0010
0000
1001
0000
1001
0000
0001
0010
,
0000
0000
0100
0000
0010
0000
0001
0100
0020
0000
0000
0000
0000
0000
0000
0000
,
0001
0000
0100
0000
,
1000
0000
0000
0000
0130
0000
0100
0010
,
0100
0010
1000
0000
0021
0000
0130
0000
,
1020
0130
0102
1003
,
2100
0000
3001
0000
0001
0010
0000
0001
,
0100
0000
0010
1000
0001
0010
1000
0010
,
0200
0000
2300
0000
3001
0000
0100
0010
,
0000
0000
1000
0000
0001
0000
0010
0001
0200
0000
0000
0000
0000
0000
0000
0000
,
0001
0000
0010
0000
,
1000
0000
0000
0000
0310
0000
0010
0100
,
0001
1000
0001
0000
1200
0000
0310
0000
,
0120
0031
0012
0103
,
2010
0000
3100
0000
1000
0100
0010
0001
,
0010
0100
1000
0010
0100
0001
0010
0100
,
1000
0000
0000
0000
0000
0000
0000
0000
0001
0000
1000
0100
1000
0000
0001
0000
,
0010
0000
0100
0010
0100
0000
0010
0000
0001
0000
0100
0000
0010
0000
0000
0000
,
1010
0000
0000
0000
1000
0000
0001
0000
0010
0000
0100
1000
0100
0000
1000
0000
,
0001
0000
0100
0010
0100
0000
0001
0000
1000
0000
0100
0000
0001
0000
0100
0000
,
0010
0000
0001
0000
1100
0000
0000
0000
1001
0000
0001
0100
0001
0000
0001
1000
,
0001
0000
0001
0010
0001
0000
1000
0000
1001
0000
1000
0010
1000
0000
1000
0001
,
1000
0000
1000
0100
1000
0000
0001
0000
1001
0000
1000
0001
1000
0000
0001
1000
,
0001
0000
1000
0001
1000
0000
0001
1000
0001
0000
1000
0001
1000
0000
0000
0000
,
0001
1000
0110
0000
1001
0000
1000
0100
,
0000
0100
0010
0000
0010
0001
0000
0001
,
1001
0000
0101
0000
1001
0000
1000
0010
,
0000
0010
0100
0000
0100
0010
0000
0010
,
1010
0000
0101
0000
1001
0000
0001
0010
,
0000
0010
1000
0000
1000
0010
0000
0010
,
0011
0000
1001
0000
1001
0000
0001
0100
,
0000
0100
1000
0000
1000
0100
0000
0100
,
0101
0000
1001
0000
1000
0100
0010
0100
,
1000
0001
0010
0100
0010
0001
1000
0100
,
0010
0100
1001
0000
0000
1000
0100
0010
,
0100
1000
0100
0010
0001
1000
0100
0010
,
0100
1000
1001
0000
0000
0001
0100
0010
,
0100
0001
0010
0001
0100
0010
0100
0001
,
0010
0001
0101
0000
0000
1000
0010
0100
,
0010
1000
0100
1000
0010
0100
0010
1000
,
0100
0000
1000
0000
1001
0000
0000
0000
1010
0000
0010
1000
0010
0000
0100
0000
,
0001
0000
0010
0000
0100
0000
0010
0001
0010
0000
0001
0000
1000
0000
0100
0000
,
0010
0001
0100
0000
0010
1000
0001
0000
0010
0000
0100
1000
0100
0000
1000
0000
,
0010
0000
1000
0000
0001
0000
0010
0100
0010
0000
0001
0000
1000
0000
0010
0000
,
0100
0001
0100
0000
0001
0010
0001
0000
0010
0000
0100
0010
0001
0000
0010
0000
,
0001
0000
1000
0000
0010
0000
0100
0010
1000
0000
0001
0000
0010
0000
0001
0000
,
1000
0100
1000
0000
0001
0100
0001
0000
0100
0000
0010
1000
0001
0000
0010
0000
,
0100
0000
0010
0000
0001
0000
1000
0100
0010
0000
0100
0000
1000
0000
0010
0000
,
0100
0001
0010
0000
0100
1000
0010
0100
0001
0000
0000
0000
0001
0000
0010
0000
,
0000
0010
0100
0000
0020
0000
0000
0100
,
0000
0031
1001
0000
1000
0000
0100
0020
,
0000
0100
0130
0000
1000
0000
1000
0100
,
0010
0001
0200
0020
0000
0000
0000
0000
,
0000
0330
0000
0000
;

//--------------- dance-single - Pandemonium X ----------------
#NOTES:
     dance-single:
     Pandemonium X:
     Challenge:
     17:
     0,0,0,0,0:
0000
0000
0000
0000
,
0000
0000
0000
0000
,
0000
0000
0000
0000
0000
0000
0000
0000
0000
0000
0000
0000
0000
0000
0000
0000
0000
0000
0001
0100
0010
0000
0000
0000
,
0100
0002
2003
0000
,
3100
0000
0000
0000
0000
0000
0000
0000
0010
0000
0000
0000
0000
0000
0001
1000
0020
0000
0000
0000
1000
0000
0000
0000
0100
0000
0000
0000
1030
0000
0000
0000
,
1001
0000
1000
0000
0000
0000
0001
0000
0100
0000
0000
0000
0001
0000
0010
0100
,
1000
0001
0000
0001
1000
0000
1000
0100
,
0010
0000
0001
0000
0000
0000
1000
0000
0001
0000
0000
0000
1000
0000
0010
0100
,
0001
0000
0010
0000
0000
0000
0010
0000
0200
0000
0000
0000
0000
0000
0000
0300
,
1001
0000
1000
0100
0000
0100
0001
0000
,
0001
0100
0000
0100
1000
0000
1010
0000
,
1001
0000
0001
0010
0000
0010
0000
1000
,
1010
0011
1100
1001
,
0011
0000
0001
0010
0000
0010
1000
0000
,
1000
0010
0000
0010
0001
0000
1001
0000
,
0101
0000
0001
0100
0000
0100
0000
1000
,
1100
1000
1001
0001
1001
1000
1010
0000
,
1001
0000
1000
0200
0000
0310
0002
0000
,
1003
0020
0000
0130
0001
0000
1001
0000
,
1000
0100
0010
0100
0000
1001
0000
1000
,
0010
0010
0100
0100
0001
0001
1001
0000
,
1000
0100
0010
0001
0010
0100
1000
0100
0010
0100
1000
0001
1000
0100
0010
0001
,
1000
0100
0010
0100
1000
0100
0010
0100
1000
0100
0010
0001
1000
0100
0010
0001
,
1000
0100
0010
0001
0010
0100
1000
0100
0010
0100
1000
0001
1000
0100
0010
0001
,
1000
0100
0010
0100
1000
0100
0010
0100
1000
0100
0010
0001
1000
0100
0010
0001
,
1000
0010
0100
0001
0100
0010
1000
0010
0100
0010
1000
0001
1000
0010
0100
0001
,
1000
0010
0100
0010
1000
0010
0100
0010
1000
0010
0100
0001
1000
0010
0100
0001
,
1000
0010
0100
0001
0100
0010
1000
0010
0100
0010
1000
0001
1000
0010
0100
0001
,
1000
0010
0100
0010
1000
0010
0100
0010
1000
0010
0100
0001
1000
0010
0100
0001
,
1000
0000
0220
0330
1001
0000
1000
0100
,
0000
0000
0010
0000
0100
0000
1000
0010
0200
0000
0000
0000
0000
0000
0000
0000
,
1000
0000
0010
0000
,
0001
0000
0000
0000
0310
0000
0010
0001
,
0010
0000
1000
0000
0001
0000
0000
1000
0100
0000
0000
0100
0010
0000
0000
0010
,
0001
0000
0000
0001
0100
0000
0000
0100
0010
0000
0000
0010
1000
0000
0000
1000
,
0001
0000
0000
0001
1000
0000
0000
1000
0200
0000
0001
0000
0300
0000
0200
0000
,
1000
0300
1000
0100
1000
0100
0010
0002
,
2000
0000
3003
0000
1001
0000
0001
0100
,
0000
0000
0010
0000
1000
0000
0100
1000
0020
0000
0000
0000
0000
0000
0000
0000
,
1000
0000
0100
0000
,
1000
0000
0000
0000
0130
0000
0010
0001
,
0010
0000
1000
0000
0001
0000
0000
0001
0010
0000
0000
0010
0100
0000
0000
0100
,
1000
0000
0000
1000
0010
0000
0000
0010
0100
0000
0000
0100
0001
0000
0000
0001
,
1000
0000
0000
1000
0100
0000
0000
0000
0010
0000
0001
0000
0100
0000
1000
0000
,
0100
0000
0010
0000
1000
0000
0001
0000
0010
0000
0100
1000
0002
0000
2003
0000
,
0020
0000
0000
0000
3030
0000
0000
0000
0101
0000
0001
0100
0001
0000
1000
0000
,
0100
1000
0100
0000
0010
0000
0100
1000
0100
0010
0100
1000
0001
0000
1000
0000
,
0001
0100
0001
0000
0010
0000
0100
0010
0100
0000
0010
0000
0001
1000
0001
0000
,
1000
0010
1000
0000
0010
0100
0000
0100
0001
0010
0100
0000
1000
0000
0100
0000
,
1000
0000
0010
0000
1001
0000
0000
0000
1000
0100
1000
0000
0001
0100
0001
0000
,
0010
0100
0010
0000
0100
1000
0100
0000
1000
0010
1000
0000
0001
0100
0001
0000
,
0010
0100
0010
0000
0100
1000
0100
0000
1000
0000
1000
0001
0010
0000
0010
0100
,
1000
0000
1000
0010
0100
0000
0100
0001
0010
0000
0100
0000
1100
0000
0000
0000
,
0011
1000
0101
0000
1010
0000
0001
0010
,
0000
0010
1000
0000
1000
0010
0000
0010
,
0001
0000
0110
0000
1001
0000
0001
0100
,
0000
0100
1000
0000
1000
0100
0000
0100
,
0110
0000
1001
0000
1000
0010
0010
0001
,
0010
0010
1000
0010
0010
0001
0010
0010
,
1000
0000
1001
0000
1000
0100
0100
0001
,
0100
0100
1000
0100
0100
0001
0100
0100
,
1001
0000
0110
0000
1001
1000
1000
0100
,
0010
0010
0100
1000
1000
0100
0010
0010
,
0100
1000
1001
0000
0001
0100
0100
0010
,
0100
0100
0001
0010
0010
0100
0010
0010
,
0001
1000
0001
0000
1000
0100
0010
0100
,
1000
0001
0010
0100
0010
0001
1000
0001
,
0100
0010
1001
0000
0001
0010
0100
0010
,
0001
1000
0100
0010
0100
1000
0100
0001
,
0100
0000
1000
0000
1001
0000
0000
0000
0001
0010
0100
1000
0100
0010
0001
0010
,
0100
0010
0001
1000
0001
0010
0100
1000
0001
0010
0100
0010
0001
0010
0100
0010
,
0001
0010
0100
1000
0001
0010
0100
1000
0001
0010
0100
1000
0100
0010
0001
0010
,
0100
0010
0001
1000
0001
0010
0100
1000
0001
0010
0100
0010
0001
0010
0100
0010
,
0001
0010
0100
1000
0001
0010
0100
1000
0001
0100
0010
1000
0010
0100
0001
0100
,
0010
0100
0001
1000
0001
0100
0010
1000
0001
0100
0010
0100
0001
0100
0010
0100
,
0001
0100
0010
1000
0001
0100
0010
1000
0001
0100
0010
1000
0010
0100
0001
0100
,
0010
0100
0001
1000
0001
0100
0010
1000
0001
0100
0010
0100
0001
0100
0010
0100
,
0001
0100
0010
1000
0001
0100
0010
1000
0001
0000
0000
0000
1000
0000
0100
0000
,
0000
1000
0010
0000
0200
0000
0000
0010
,
0000
0301
1001
0000
0001
0000
0010
0200
,
0000
0010
0310
0000
0001
0000
0001
0010
,
0100
1000
0010
0200
0300
0000
0200
0300
,
0000
0200
0300
0000
0000
0000
0000
0000
;

//--------------- dance-double - Pandemonium X ----------------
#NOTES:
     dance-double:
     Pandemonium X:
     Easy:
     7:
     0,0,0,0,0:
00000000
00000000
00000000
00000000
,
00000000
00000000
00000000
00000000
,
00000000
00000000
00000000
00000000
,
00010000
00000000
00002000
00000000
00020000
00000000
00000000
00033000
,
00001000
00000000
00020000
00000000
00002000
00000000
00000000
00033000
,
00010000
00000000
00000100
00000000
,
00001000
00000010
00000100
00000000
,
00000001
00000000
00001000
00000000
,
00000100
00010000
00002000
00000000
,
01003000
00000000
00000000
00100000
00000000
00000000
01000000
00000000
,
00000000
00010000
00000000
00000000
00100000
00000000
01000000
00000000
,
10000000
00000000
00000000
00010000
00000000
10000000
00000000
00000000
,
01000000
00100000
00001000
00010000
,
00000100
00000000
00000000
00001000
00000000
00000000
00000010
00000000
,
00000000
00010000
00000000
00000000
00001000
00000000
00100000
00000000
,
00010000
00000000
00000000
01000000
00000000
01000000
00000000
00000000
,
00100000
10000000
00010000
00100000
,
00001000
00000000
00000000
00010000
00000000
00000000
00000010
00000000
,
00000000
00000100
00000000
00000000
00000001
00000000
00000010
00000000
,
00000100
00000000
00000000
00000010
00000000
00000010
00000000
00000000
,
00000100
00000010
00000001
00001000
,
00001100
00000000
00000000
00010100
,
00000000
00000000
00011000
01001000
,
01100000
00000000
00000000
10010000
,
00000000
00000000
11000000
00110000
,
00101000
00000000
00000000
00011000
,
00000000
00000000
00010100
00001100
,
00001010
00000000
00000000
00000101
,
00000000
00000000
00001001
00000110
,
00001001
00000010
00001001
00000000
,
00001000
00000000
00002200
00000000
,
00000000
00003000
00020000
00000000
,
00000000
00000000
00030300
00000000
,
00000000
00000000
00001000
00001000
,
01000000
01000000
00100000
00010000
,
00100000
10000000
00010000
00000000
,
10000000
00000000
01000000
00100000
,
00002000
00000000
00013000
00000000
,
00001000
00000000
02002000
00000000
,
00000000
00003000
00200000
00000000
,
00000000
00000000
03300000
00000000
,
00000000
00000000
00100000
00100000
,
10000000
10000000
00010000
00010000
,
00100000
00100000
00001000
00000000
,
00010000
00000000
00000100
00001000
,
00000020
00000000
00000130
00001000
,
00000100
00000001
00001000
00001000
,
00001000
00000100
00010000
00001000
,
01000000
00100000
00010000
00100000
,
01000000
00010000
10000000
00000000
00010000
00000000
00100000
00000000
,
10000000
00100000
00010000
00001000
,
00000100
00001000
00000010
00000100
,
00000001
00000010
00000100
00001000
,
00000001
00001000
00000001
00000000
00000100
00000000
00000000
00000010
,
00000000
00000000
00001000
00000000
00000000
00000100
00000000
00000000
,
00010000
00000000
00001000
00000000
01000000
00000000
00000000
00100000
,
00000000
00000000
10000000
00000000
00000000
00010000
00000000
00000000
,
00100000
00000000
01000000
00000000
10000000
00000000
00000000
00010000
,
00000000
00000000
00100000
00000000
00000000
00001000
00000000
00000000
,
00010000
00000000
00000010
00000000
00000100
00000000
00000000
00000010
,
00000000
00000000
00001000
00000000
00000000
00000100
00000000
00000000
,
00000010
00000001
00000100
00000000
,
00000001
00000000
00000000
00001000
00000000
00000000
00000100
00000000
,
00000000
00010000
00000100
00000000
00000000
00010000
00000000
00000000
,
00001000
00000000
00000000
01000000
00000000
00000000
00100000
00000000
,
00000000
10000000
00010000
00000000
00000000
00100000
00000000
00000000
,
00001000
00000000
00000000
00010000
00000000
00000000
00000010
00000000
,
00000000
00000100
00000001
00000000
00000000
00000010
00000000
00000000
,
00000100
00000000
00000000
00001000
00000000
00000000
00000100
00000000
,
00000000
00010000
00001000
00000000
00010000
00000000
00001000
00000000
,
01000000
00100000
10000000
00010000
,
00100000
00100000
01000000
10000000
,
01000000
00100000
00010000
00001000
,
00010000
00010000
00000100
00001000
,
00000010
00000100
00000001
00000010
,
00000100
00000100
00000010
00000001
,
00001000
00000100
00010000
00001000
,
01000000
01000000
00100000
00000000
,
10000000
00000000
02000000
00000000
,
00000000
03000000
00100000
00000000
,
00001000
00000000
00020000
00000000
,
00000000
00000000
00000000
00031000
00000000
00000000
00000000
00000000
;

//--------------- dance-double - Pandemonium X ----------------
#NOTES:
     dance-double:
     Pandemonium X:
     Medium:
     11:
     0,0,0,0,0:
00000000
00000000
00000000
00000000
,
00000000
00000000
00000000
00000000
,
00000000
00000000
00000000
00000000
,
00001000
00000000
00200000
00000000
00020000
00000000
00000000
00330000
,
01000000
00000000
20000000
00000000
00020000
00000000
00000000
30030000
,
10000000
00100000
00000000
01000000
00010000
00000000
00110000
00000000
,
00100000
00001000
00000000
00010000
00000010
00000000
00001100
00000000
,
00001000
00000010
00000000
00000100
00000001
00000000
00001001
00000000
,
00000001
00000010
00000000
00000100
00000020
00000000
00000000
00000000
,
00000031
00000000
00000000
00000010
00000000
00000000
00000100
00000000
,
00000000
00001000
00000000
00000000
00001100
00000000
00011000
00000000
,
00001000
00000000
00000000
01000000
00000000
00100000
00000000
10000000
,
01000000
00010000
01000000
10000000
,
10100000
00000000
00000000
00100000
00000000
00000000
01000000
00000000
,
00000000
00001000
00000000
00000000
00010000
00000000
00000100
00000000
,
00001000
00000000
00000010
00001000
00000000
00000100
00000000
00010000
,
00011000
01010000
01100000
10010000
,
10000000
00000000
01000000
10000000
00000000
01000000
00100000
00000000
,
00000000
00010000
00000000
00000000
00100000
00000000
00001000
00000000
,
00010000
00000000
00000100
00001000
00000000
00000010
00000000
00000100
,
00000101
00000110
00001100
00001001
,
00000100
00020000
00000000
00031000
02000000
00000000
03100000
20000000
,
00000000
32000000
00000000
03100000
00001000
00000000
00011000
00000000
,
00010000
00000200
00000000
00001300
00000020
00000000
00000130
00000002
,
00000000
00000023
00000000
00000130
00001000
00000000
00011000
00000000
,
00010000
00000200
00000000
00001300
00000020
00000000
00000130
00000002
,
00000000
00000023
00000000
00000031
00001000
00000000
00001100
00000000
,
00000100
00020000
00000000
00031000
02000000
00000000
03100000
20000000
,
00000000
30020000
00000000
00130000
02000000
00000000
13000000
00000000
,
00010000
00000000
00011000
00000000
00010100
00000000
00000000
00001000
,
00000000
00000000
00000010
00000100
00000002
00000000
00000000
00000000
,
00000010
00000000
00000100
00000000
,
00001003
00000000
00000000
00000000
00000000
00000000
00000001
00000010
,
00000100
00000010
00000001
00000000
00000001
00000000
00000100
00000000
,
00001000
00010000
00100000
01000000
,
10000000
00000000
10010000
00000000
10000000
01000000
00000000
10000000
,
00100000
00000000
01000000
00000000
00010000
00100000
01000000
00100000
,
00002000
00000000
00000000
00000000
00013000
00000000
00000000
00000100
,
00000000
00001000
00002001
00000000
,
00000010
00000000
00000100
00000000
,
00003001
00000000
00000000
00000000
00000000
00000000
00000010
00010000
,
00001000
00010000
00000010
00000000
00000100
00000000
00001000
00000000
,
00010000
00100000
10000000
01000000
,
00100000
10010000
10000000
01000000
,
00100000
00000000
00010000
00000000
00001000
00100000
00010000
00100000
,
00002000
00000000
00000000
00000000
00013000
00000100
00010000
00000000
,
00000100
00001000
00000100
00000000
00001000
00000010
00001000
00000000
,
00001010
00000000
00000010
00000000
00000100
00000001
00000100
00000000
,
00000001
00000010
00000001
00000000
00000010
00000100
00000010
00000000
,
00000100
00001001
00000001
00000100
,
00001000
00010000
00100000
10000000
,
00010000
00000000
00000000
00000000
00100000
00000000
00000000
00000000
01000000
00000000
00000000
01000000
10000000
00000000
00000000
10000000
,
00010000
00000000
00000000
00010000
01000000
00000000
00000000
01000000
00100000
00000000
00000000
00000000
01000000
00000000
00000000
00000000
,
00100000
10000000
10010000
00000000
00010000
00000000
00000000
00100000
,
00000000
00000000
00001000
00000000
00000000
00010000
00000000
00000000
,
00001010
00000000
00000110
00000000
00000010
00000000
00000000
00001000
,
00000000
00000000
00000001
00000000
00000000
00000010
00000000
00000000
,
00000110
00000000
00000011
00000000
00000001
00000000
00000000
00001000
,
00000000
00000000
00000100
00000000
00000000
00010000
00000000
00000000
,
00011000
00000000
01001000
00000000
01000000
00000000
00000000
00100000
,
00000000
00000000
10000000
00000000
00000000
00010000
00000000
00000000
,
00110000
00000000
11000000
00000000
00000000
10000000
01000000
00000000
,
10000000
00100000
00000000
01000000
00010000
00000000
00100000
00002000
,
00000000
00010000
00013000
00000000
00000000
00010000
00000100
00000000
,
00001000
00000010
00000000
00000100
00000001
00000000
00000010
00000200
,
00000000
00010000
00010300
00000000
00000000
00001000
00010000
00000000
,
00000100
00001000
00000000
00000010
00000100
00000000
00000010
00020000
,
00000000
00001000
00031000
00000000
00000000
00010000
00001000
00000000
,
01000000
00100000
00000000
10000000
01000000
00000000
01000000
00100000
,
00000000
00110000
11000000
00000000
10000000
00100000
01000000
00010000
,
00100000
00001000
00010000
00000100
00001000
00000010
00000100
00000001
,
00000010
00000000
00001001
00000000
00000001
00000100
00000010
00001000
,
00000100
00010000
00001000
01000000
00010000
00100000
01000000
10000000
,
00010000
00000000
01100000
00000000
10000000
00010000
01000000
00010000
,
00100000
00001000
00010000
00000100
00001000
00000010
00000100
00000001
,
00000010
00000000
00001100
00000000
00000100
00010000
00001000
01000000
,
00001000
00010000
00001000
01000000
00100000
10000000
00010000
00100000
,
01000000
00000000
00110000
00000000
21000000
00000000
00000000
30010000
,
00000000
01000000
01000000
00000000
01020000
00000000
00000000
00100000
,
00000000
10030000
10010000
00000000
00210000
00000000
00000000
00302000
,
00000000
00010000
00013000
00000000
02000000
00000000
00000000
00000000
,
00000000
00000000
00000000
03100000
00000000
00000000
00000000
00000000
;

//--------------- dance-double - Pandemonium X ----------------
#NOTES:
     dance-double:
     Pandemonium X:
     Hard:
     15:
     0,0,0,0,0:
00000000
00000000
00000000
00000000
,
00000000
00000000
00000000
00000000
,
00000000
00000000
00000000
00000000
,
00011000
00000100
00002000
00000000
,
00003010
00010000
02001000
00000000
,
03100000
01000000
00000000
00010000
00100000
00000000
01000000
00100000
,
00001000
00010000
00000000
00000100
00001000
00000000
00000100
00001000
,
00000010
00000100
00000000
00000010
00001000
00000000
00000100
00010000
,
00001000
00100000
00000000
00010000
20000000
00000000
00000000
00000000
,
30100000
00000000
01000000
00010000
00000000
00100000
00001000
00000000
,
00010000
00000100
00000000
00001000
00001010
00000000
00000101
00000000
,
00000001
00000000
00000010
00000110
00000000
00001100
00000000
00000100
,
00010000
00010000
00001000
00001000
01000000
01000000
00100000
00000000
,
10010000
00000000
00010000
00100000
00000000
01000000
10000000
00000000
,
00100000
01000000
00000000
00001000
00010000
00000000
00010100
00000000
,
00011000
00000000
00010000
00000010
00000000
00000110
00000000
00000100
,
00000001
00000001
00000010
00000010
00000100
00000100
00000010
00000000
,
00000210
00000000
00010300
00002000
00000000
01003000
00200000
00000000
,
01300000
00020000
00000000
00130000
00002000
00000000
00013000
00000000
,
00011000
00010000
00000100
00001000
00000000
00001020
00000000
00000130
,
00000001
00000001
00000010
00000010
00000001
00000001
00001001
00000000
,
00001000
00000000
00000100
00010000
00000100
00000000
00010000
00000000
00001000
00000000
01000000
00000000
00100000
00000000
10000000
00010000
,
10000000
00000000
01000000
00000000
00100000
00000000
00010000
00000000
00100000
00001000
00100000
00000000
00001000
00010000
00001000
00000000
,
00010000
00000000
00000100
00001000
00000100
00000000
00001000
00000000
00000010
00000000
00000100
00000000
00000001
00000000
00000010
00000100
,
00000010
00000000
00000001
00000000
00001000
00000000
00000010
00000000
00010000
00001000
00010000
00000000
00001000
01000000
00001000
00000000
,
00100000
00000000
01000000
00100000
01000000
00000000
00100000
00000000
01000000
00000000
10000000
00000000
10000000
00000000
00010000
01000000
,
00001000
00000000
00010000
00000000
00000100
00000000
00001000
00000000
00000010
00000100
00000001
00000000
00000010
00000100
00001000
00000000
,
00000100
00000000
00010000
00001000
00100000
00000000
00010000
00000000
10000000
00000000
01000000
00000000
00100000
00000000
00001000
00010000
,
00000100
00000000
00001000
00000000
00000100
00000000
00000010
00000000
00000001
00001000
00000010
00000000
00000100
00000001
00001000
00000000
,
00000100
00000000
00011000
00000000
00001000
00000000
01000000
00100000
,
00000000
00000000
10000000
00000000
00010000
00000000
00100000
01000000
20000000
00000000
00000000
00000000
00000000
00000000
00000000
00000000
,
01000000
00000000
00100000
00000000
,
30010000
00000000
00000000
00000000
00000000
00000000
00010000
01000000
,
00100000
01000000
00010000
00000000
00110000
00000000
00110000
00000000
,
00011000
00011000
00001100
00000110
,
00000011
00000000
00001001
00000000
00000001
00000100
00000000
00000010
,
00001000
00000000
00000100
00000000
00010000
00001000
00010000
00001000
,
00020000
00000000
00000000
00000000
00030100
00000000
00000000
00001100
,
00000000
00000000
00001000
00000000
00000010
00000000
00000100
00000001
00000020
00000000
00000000
00000000
00000000
00000000
00000000
00000000
,
00000001
00000000
00000100
00000000
,
00000031
00000000
00000000
00000000
00000000
00000000
00000010
00000100
,
00001000
00000100
00000010
00000000
00000011
00000000
00000110
00000000
,
00001100
00010100
00011000
01001000
,
01100000
00000000
10010000
00000000
10000000
01000000
00000000
10000000
,
00100000
00000000
01000000
10000000
01000000
00010000
10000000
01000000
,
00200000
00000000
00000000
00000000
00310000
01000000
00200000
00000000
,
01300000
00010000
00100000
10000000
00100000
00001000
00010000
00000000
,
00001002
00000000
00000103
00001000
00000100
00000010
00000200
00000000
,
00000301
00000100
00001000
00010000
00100000
01000000
00010000
00100000
,
01000000
00000000
10000000
00000000
00110000
00000000
00000000
00000000
10000000
00000000
00100000
10000000
00100000
00000000
01000000
00010000
,
01000000
00000000
00010000
00100000
00010000
00000000
00100000
00000000
00001000
00000000
00010000
00000100
00010000
00000000
00000100
00001000
,
00000100
00000000
00001000
00000010
00001000
00000000
00000010
00000000
00000100
00000000
00000100
00000001
00000100
00000000
00000100
00000010
,
00000100
00000000
00000100
00001000
00000100
00000000
00000100
00000010
00000100
00000000
00000100
00000001
00000100
00000000
00000000
00000000
,
00001010
00000100
00001100
00000000
00010100
00000000
00010000
00001000
,
00000000
01000000
00100000
00000000
10000000
01000000
00000000
00100000
,
00110000
00000000
00011000
00000000
00000100
00000000
00010000
00001000
,
00000000
00010000
00000100
00000000
00001000
00000010
00000000
00000100
,
00000001
00000000
00001100
00000000
00001020
00000000
00000130
00000001
,
00000000
00000100
00001000
00000000
00010000
00100000
00000000
01000000
,
00100000
00000000
10010000
00000000
01100000
00000000
10000000
01000000
,
00000000
00100000
00010000
00000000
00001000
00000100
00000000
00000010
,
00000001
00000000
00001001
00000000
00000000
00000001
00000100
00000010
,
00001000
00000100
00010000
00000100
00001000
00000010
00010000
00001000
,
01000000
00100000
01000000
00000000
00000000
00100000
10000000
00010000
,
00100000
01000000
00100000
00001000
00010000
00000100
00001000
00000100
,
00010000
00001000
01000000
00000000
00000000
10000000
01000000
00010000
,
00100000
01000000
10000000
01000000
00010000
01000000
10000000
01000000
,
00100000
00001000
00010000
00000000
00000000
00000100
00001000
00000010
,
00000001
00000010
00001000
00000001
00000010
00001000
00000010
00000000
,
00000001
00000000
00001000
00000000
00001001
00000000
00000000
00000000
00001000
00000000
00000100
00010000
00000100
00000000
00010000
00000000
,
00001000
00000000
01000000
00000000
00010000
00000000
00100000
01000000
00100000
00000000
01000000
00000000
10000000
00000000
00100000
00000000
,
01000000
00010000
01000000
00000000
00010000
00100000
00010000
00000000
10000000
00000000
01000000
00100000
01000000
00000000
00100000
00000000
,
00001000
00000000
00010000
00000000
00000100
00000000
00001000
00000010
00001000
00000000
00000010
00000000
00001000
00000000
00000001
00000000
,
00001000
00000010
00001000
00000000
00000001
00001000
00000001
00000000
00001000
00000000
00000100
00010000
00001000
00000000
00010000
00000000
,
00001000
00000000
01000000
00000000
00100000
00000000
10000000
00010000
00100000
00000000
01000000
00000000
10000000
00000000
00010000
00000000
,
01000000
00001000
00010000
00000000
00000100
00001000
00000010
00000000
00000100
00000000
00000010
00001000
00000001
00000000
00000010
00000000
,
00000100
00000000
00001000
00000000
00000001
00000000
00001000
00000100
00010000
00000000
00001000
00000000
01000000
00000000
00100000
00000000
,
01000000
00010000
01000000
00000000
00100000
10000000
00100000
10000000
00010000
00000000
00000000
00000000
00100000
00000000
02000000
00000000
,
00000000
13000000
11000000
00000000
10200000
00000000
00000000
01000000
,
00000000
10300000
10010000
00000000
00110000
00000000
00100000
00002000
,
00000000
00013000
00011000
00000000
00000200
00000000
00000000
00000000
,
00000000
00000000
00000000
00010300
00000000
00000000
00000000
00000000
;

//--------------- dance-double - Pandemonium X ----------------
#NOTES:
     dance-double:
     Pandemonium X:
     Challenge:
     17:
     0,0,0,0,0:
00000000
00000000
00000000
00000000
,
00000000
00000000
00000000
00000000
,
00000000
00000000
00000000
00000000
00000000
00000000
00000000
00000000
00000000
00000000
00000000
00000000
00000000
00000000
00000000
00000000
00000000
00000000
00100000
00001000
00010000
00000000
00000000
00000000
,
00000100
00000000
00002020
00003030
00000202
00000000
00000000
00000000
,
00000303
00000000
00000000
00000000
00000000
00000000
00000000
00000000
00001001
00000000
00000000
00000000
00000000
00000000
00001000
00000100
00020000
00000000
00000000
00000000
00001000
00000000
00000000
00000000
00000100
00000000
00000000
00000000
00001000
00030000
00000000
00000000
,
00010000
00001000
00100000
00000000
00000000
00000000
00010000
00100000
01000000
00000000
00000000
00000000
00110000
00000000
00010000
01000000
,
00100000
00000000
10000000
00000000
00000000
00000000
01000000
10000000
00100000
00000000
00000000
00000000
01000000
00000000
00100000
01000000
,
00010000
00100000
00001000
00000000
00000000
00000000
00010000
00000100
00001000
00000000
00000000
00000000
00000010
00000000
00000100
00000001
,
00001000
00000100
00000000
00000010
00002002
00000000
00003000
00000000
,
00000103
00000000
00000010
00001000
00000000
00000100
00010000
00000000
,
00001000
01000000
00000000
00100000
10010000
00000000
11000000
00000000
,
01000000
00000000
00100000
00110000
00000000
11000000
00000000
10000000
,
00010000
00010000
00100000
00100000
00001000
00001000
00010000
00000000
,
00001010
00000000
00001000
00001001
00000000
00000010
00000110
00000000
,
00000010
00000011
00000000
00001000
00001100
00000000
00011000
00000000
,
00010100
00000000
00000100
00001100
00000000
00001010
00000000
00000010
,
00000100
00000100
00000001
00000001
00001000
00001000
00001100
00000000
,
00000200
00000000
00010300
00002000
00000000
01003000
00200000
00000000
,
01300000
00020000
00000000
00130000
02000000
00000000
13000000
00000000
,
01000000
00100000
00010000
00001000
00000000
00011000
00000000
00010000
,
00000100
00000100
00001000
00001000
00000010
00000010
00001001
00000000
,
00000001
00000100
00000010
00001000
00000010
00000100
00000001
00001000
00000100
00000010
00000001
00001000
00000001
00000100
00000010
00001000
,
00000010
00000100
00000001
00001000
00000100
00000010
00000001
00001000
00000001
00000010
00000100
00001000
00000100
00010000
00001000
01000000
,
00010000
01000000
00100000
10000000
00010000
00100000
01000000
10000000
00010000
01000000
00100000
10000000
00010000
01000000
00100000
10000000
,
00010000
00100000
01000000
10000000
00010000
01000000
00100000
10000000
01000000
00100000
00010000
00100000
00001000
00010000
00000100
00001000
,
00000010
00000100
00000001
00001000
00000001
00000010
00000100
00001000
00000001
00000100
00000010
00001000
00000010
00000100
00000001
00001000
,
00000001
00000010
00000100
00001000
00000001
00000100
00000010
00001000
00000001
00001000
00000100
00010000
00001000
00100000
00010000
00100000
,
01000000
10000000
01000000
00100000
00010000
01000000
00010000
10000000
00010000
00100000
00010000
10000000
01000000
10000000
01000000
00100000
,
00010000
01000000
00010000
10000000
00010000
00100000
00010000
10000000
01000000
00100000
00001000
00010000
00000100
00001000
00000010
00001000
,
00000100
00000000
00000000
00000000
00022000
00000000
00000000
00033000
00011000
00000000
00000000
00000000
00010000
00000000
00000100
00000000
,
00000000
00000000
00001000
00000000
00000010
00000000
00000100
00000001
00000020
00000000
00000000
00000000
00000000
00000000
00000000
00000000
,
00001000
00000000
00000001
00000000
,
00000130
00000000
00000000
00000000
00000000
00000000
00000010
00000001
,
00000100
00001000
00010000
00000000
00021000
00000000
00030100
00000000
,
00012000
01003000
00021000
00030010
,
00012000
00000000
00103000
00000000
00010000
00100000
00000000
01000000
,
10000000
00000000
00000000
00000000
01000000
00000000
00100000
00000000
00010000
00000000
01000000
00100000
20000000
00000000
00010000
00000000
,
00020000
00000000
00000000
00000000
00000000
30030000
00000000
00000000
01010000
00000000
00000000
00000000
00000000
00000000
00101000
00000000
,
00000000
00000000
00001000
00000000
00010000
00000000
00000100
00010000
00002000
00000000
00000000
00000000
00000000
00000000
00000000
00000000
,
00010000
00000000
00100000
00000000
,
00013000
00000000
00000000
00000000
00000000
00000000
00001000
01000000
,
00100000
10000000
00010000
00000000
00210000
00000000
00301000
00000000
,
00001020
00010030
00001200
00010300
,
01002000
00000000
00013000
00000000
00010000
00000100
00000000
00001000
,
00000010
00000000
00000000
00000000
00000100
00000000
00001000
00000000
00000100
00000000
00000100
00000001
00001000
00000000
00000100
00000000
,
00000020
00000000
00000000
00000000
00000000
00000000
00000000
00000000
00000130
00000000
00001000
00000100
00001000
00000000
00000000
00000000
,
00000100
00000000
00010000
00000000
00001000
01000000
00001000
00000000
01000000
00100000
01000000
00100000
10000000
00000000
01000000
00000000
,
00100000
00010000
00100000
00000000
01000000
10000000
01000000
10000000
01000000
00100000
01000000
00000000
01000000
00100000
00000000
00100000
,
00001000
00010000
00001000
00000000
00010000
00000100
00000000
00000100
00001000
00000000
00000010
00000000
00000200
00000000
00000000
00000000
,
00000310
00000000
00000110
00000000
00001001
00000000
00000000
00000000
00000001
00000000
00000100
00000010
00000100
00000000
00000010
00001000
,
00000010
00000000
00001000
00000100
00001000
00000000
00000100
00000000
00010000
00000000
00001000
01000000
00001000
00000000
01000000
00100000
,
01000000
00000000
00100000
10000000
00100000
00000000
10000000
00000000
00010000
00000000
00010000
00100000
01000000
00000000
01000000
10000000
,
00100000
00000000
00100000
01000000
00001000
00000000
00001000
00010000
00000200
00000000
00010000
00000000
00001300
00000000
00000000
00000000
,
00021000
00031000
00011000
00000000
00201000
00000000
00310000
02010000
,
00000000
03100000
20010000
00000000
31000000
00210000
00000000
00301000
,
00011000
00000000
00001100
00000000
00000021
00000000
00000130
00002001
,
00000000
00003010
00020010
00000000
00031000
00012000
00000000
00013000
,
00011000
00000000
01100000
00000000
21000000
00000000
30100000
02010000
,
00000000
03010000
00102000
00000000
00013000
00001020
00000000
00000130
,
00001001
00000000
00000101
00000000
00001020
00000000
00000130
00001002
,
00000000
00000013
00001200
00000000
00010300
00012000
00000000
01003000
,
01100000
00000000
10010000
00000000
10000000
01000000
10000000
00100000
,
01000000
00010000
00100000
00001000
00010000
00000010
00000100
00000001
,
00000010
00000100
00001000
00000000
00000000
00000001
00000010
00000001
,
00000100
00000010
00001000
00000100
00010000
00000100
00010000
00001000
,
01000000
10100000
11000000
00000000
00000000
01000000
00100000
00001000
,
00010000
00000100
00001000
00000010
00000100
00000001
00000010
00000100
,
00000010
00000001
00001000
00000000
00000000
00000100
00010000
00001000
,
01000000
00100000
10000000
00010000
00100000
01000000
00100000
00010000
,
10000000
00000000
01100000
00000000
10010000
00000000
00000000
00000000
10000000
00100000
01000000
00010000
01000000
00100000
10000000
00010000
,
00100000
01000000
10000000
00010000
10000000
00100000
01000000
00010000
01000000
00100000
10000000
00010000
00100000
01000000
10000000
00010000
,
10000000
01000000
00100000
00010000
00100000
00001000
00010000
00000010
00001000
00000010
00000100
00000001
00001000
00000100
00000010
00000001
,
00001000
00000010
00000100
00000001
00001000
00000010
00000100
00000001
00001000
00000100
00000010
00000001
00001000
00000010
00000100
00000001
,
00000010
00000100
00001000
00000100
00010000
00001000
00100000
00010000
01000000
00100000
10000000
00010000
10000000
01000000
00100000
00010000
,
10000000
00100000
01000000
00010000
01000000
00100000
10000000
00010000
10000000
01000000
00100000
00010000
10000000
00100000
01000000
00010000
,
10000000
00010000
00100000
00001000
00010000
00000100
00001000
00000100
00000010
00000001
00000010
00000100
00001000
00000010
00001000
00000001
,
00001000
00000100
00001000
00000001
00000010
00000001
00000010
00000100
00001000
00000010
00001000
00000001
00001000
00000100
00001000
00000001
,
00000010
00000100
00010000
00001000
00100000
00010000
01000000
00010000
00200000
00000000
00000000
00000000
00000000
00000000
00301000
00000000
,
00000000
00010000
00000200
00000000
00002300
00000000
00000000
00000010
,
00000000
00003001
00001001
00000000
00000020
00000000
00000000
00020030
,
00000000
00001000
00031000
00000000
00020000
00000000
00000000
00000000
,
00000000
00000000
00000000
00032000
00003000
00000000
00002000
00003000
,
00000000
00002000
00000000
00003000
00000000
00000000
00000000
00000000
;
