#TITLE:snow storm;
#SUBTITLE:;
#ARTIST:dj TAKA;
#TITLETRANSLIT:;
#SUBTITLETRANSLIT:;
#ARTISTTRANSLIT:;
#GENRE:;
#CREDIT:;
#MUSIC:snow storm.ogg;
#BANNER:;
#BACKGROUND:snow storm-bg.png;
#CDTITLE:;
#SAMPLESTART:28.002;
#SAMPLELENGTH:13.276;
#SELECTABLE:YES;
#OFFSET:0.136;
#BPMS:0.000=145.000
,132.000=72.500
,149.000=145.000
;
#STOPS:132.000=5.793
,212.750=1.655
;
#BGCHANGES:0.000=snow storm-bg.png=1.000=0=0=1,
0.000=snow storm.mp4=1.000=0=0=1,
99999.000=-nosongbg-=1.000=0=0=0=StretchNoLoop====
;
#FGCHANGES:;

//--------------- dance-single - Pandemonium X ----------------
#NOTES:
     dance-single:
     Pandemonium X:
     Beginner:
     5:
     0,0,0,0,0:
0000
0000
0000
0000
,
0000
0000
0000
0000
,
0000
0000
0000
0000
,
0000
0000
0000
0000
,
0000
0000
0000
0000
,
0000
0000
0000
0000
,
0000
0000
0000
0000
,
0000
0000
0000
0000
,
0000
0000
0000
0000
,
1000
0000
1000
0000
,
1000
0000
1000
0000
,
0001
0000
1000
0000
,
0001
0001
0001
0000
,
0100
0000
0010
0000
,
0100
0000
0001
0000
,
0100
0000
0010
0000
,
1000
1000
1000
0000
,
0001
0000
0010
0000
,
0100
0000
1000
0000
,
0001
0000
0010
0000
,
0100
0000
1000
0000
,
0001
0000
0010
0000
,
0100
0000
1000
0000
,
0001
0000
0010
0000
,
0100
0100
0010
0010
,
0001
0000
0100
0000
,
0010
0000
1000
0000
,
0001
0000
0100
0000
,
0010
0010
1000
1000
,
0100
0000
0010
0000
,
0100
0000
1000
0000
,
0001
0000
0100
0000
,
0010
0010
0010
0000
,
1001
0001
0000
1000
,
0000
0010
0100
0010
,
0000
2000
0000
3002
,
0000
0000
0103
0000
0010
0000
1000
1000
,
0001
0001
1001
0000
0000
0000
0000
0000
,
0000
0001
0000
0000
,
0000
1000
0000
0100
,
0000
1000
0000
0010
,
0000
0100
0000
0001
,
0000
0010
0000
0100
,
0000
0010
0000
0001
,
0000
1000
0000
0010
,
0000
0100
0000
0000
,
0000
0010
0000
0000
,
0000
1000
0000
1000
,
0000
0001
0000
0001
,
0000
0100
0100
0100
,
0000
0010
0010
0010
,
0000
1000
0000
0001
,
0000
0100
0000
0010
,
0000
1001
0000
0000
,
0000
0001
0000
0000
,
0000
1000
0000
0001
,
0000
0100
0000
0001
,
0000
0010
0000
0100
,
0000
1000
0000
0100
,
0000
0010
0000
0100
,
0000
1000
0000
0001
,
0000
0110
0000
1000
,
0000
0001
0000
0010
,
0000
0100
0000
0000
,
0000
0010
0000
0000
,
0000
0001
0001
0001
,
0000
1000
1000
1000
,
0000
0010
0000
0100
,
0000
0001
0000
1000
,
0000
0110
0000
0000
;

//--------------- dance-single - Pandemonium X ----------------
#NOTES:
     dance-single:
     Pandemonium X:
     Easy:
     7:
     0,0,0,0,0:
0000
0000
0000
0000
,
0000
0000
0000
0000
,
0000
0000
0000
0000
,
0000
0000
0000
0000
,
0000
0000
0000
0000
,
0000
0000
0000
0000
,
0000
0000
0000
0000
,
0000
0000
0000
0000
,
0000
0000
0000
0000
,
0001
0000
0010
0000
,
0001
0000
1000
0000
,
0100
0000
1000
0000
,
0010
0010
0100
0001
,
1000
0000
0100
0000
,
1000
0000
0010
0000
,
0100
0000
0001
0000
,
1000
0100
0010
0001
,
0100
0001
0010
0001
,
0100
0001
0010
0001
,
1000
0010
1000
0100
,
1000
0010
1000
0100
,
0010
0001
0010
0100
,
0010
0001
0010
0100
,
1000
0100
0010
0100
,
1000
0100
0010
0001
,
1001
0001
0100
0001
,
0010
0001
0100
0001
,
1000
0010
1000
0100
,
1000
1000
0100
0100
,
0010
0001
0100
0001
,
0010
0001
0100
0001
,
1000
0100
1000
0010
,
1000
0100
0010
0001
,
1001
0000
1000
0000
0001
0100
0001
0000
,
1000
0100
1000
0000
0001
0000
1000
0000
,
0010
0100
0002
0000
0023
0000
0230
0000
,
2300
0000
3200
0000
0320
0000
0031
0010
,
0100
1000
0001
0000
0000
0000
1000
0000
,
0000
0010
0000
0100
,
0000
0001
0000
0010
,
0100
1000
0000
0100
,
1000
1010
0100
0001
,
0010
0001
1000
0010
,
0100
0001
0010
0100
,
0010
0001
1000
0100
,
1000
1001
0000
0101
,
0000
1001
0000
1100
,
0000
0001
0001
1000
,
1000
0010
0010
0100
,
0100
0001
0001
0001
,
0001
1000
1000
0001
,
1000
0010
0100
0001
,
1000
0100
0010
0001
,
1000
0001
0001
0001
,
1000
0010
0010
0010
,
0100
0001
0100
0010
,
0100
0001
1000
0100
,
0010
0100
1000
0010
,
0100
0001
0010
0100
,
1000
0100
1000
0010
,
0100
0001
1000
0100
,
0010
0011
0000
1100
,
0000
1010
0000
0101
,
0000
0001
0001
1000
,
1000
0010
0100
0001
,
1000
0100
0100
0100
,
0100
0010
0010
0100
,
0010
0001
0100
0010
,
1000
0001
0010
0100
,
1000
1001
0000
0000
;

//--------------- dance-single - Pandemonium X ----------------
#NOTES:
     dance-single:
     Pandemonium X:
     Medium:
     12:
     0,0,0,0,0:
0000
0000
0000
0000
,
0000
0000
0000
0000
,
0000
0000
0000
0000
,
0000
0000
0000
0000
,
0000
0000
0000
0000
,
0000
0000
0000
0000
,
0000
0000
0000
0000
,
0000
0000
0000
0000
,
0000
0000
0000
0000
,
0001
0000
1000
0000
,
0100
0000
0000
0000
0000
0000
0000
0000
0010
0000
0000
0000
0000
0000
0000
0001
,
1000
0000
0000
0000
0000
0000
0000
1000
0001
0000
0000
0000
0000
0000
0000
0001
,
1000
0000
0000
1000
0100
0000
0000
0100
0010
0000
0000
0010
0001
0000
0010
0000
,
0100
0000
0000
0000
0000
0000
0000
1000
0100
0000
0000
0000
0000
0000
0000
0100
,
0010
0000
0000
0000
0000
0000
0000
0010
0001
0000
0000
0000
0000
0000
0010
0001
,
1000
0000
0010
0000
,
0100
0000
0000
0010
0100
0000
0000
0100
0001
0000
0000
0001
1000
0000
0000
0000
,
0001
0101
0100
0110
,
0010
0000
1010
0000
1000
0000
1001
1000
,
0100
0110
0010
0011
,
0001
0000
0101
0000
0100
0000
0110
0100
,
0001
1001
1000
1100
,
0100
0000
0110
0000
0010
0000
0011
0010
,
0100
0000
0000
0000
1100
0000
0000
0000
0100
0000
0000
0000
0110
0000
0000
0100
,
0010
0000
0000
0010
0001
0000
0000
0001
0100
0000
0000
0100
0010
0000
1000
0000
,
0001
0011
0010
0110
,
0100
0000
0000
0000
1100
0000
0000
0000
1000
0000
0000
0000
1100
0000
1000
0010
,
0100
0000
0000
0000
0110
0000
0000
0001
1000
0000
0000
0000
1001
0000
0000
1000
,
0100
0000
0000
0100
0010
0000
0000
0010
0001
0000
0000
0010
0100
0000
1000
0000
,
0010
0101
0001
1100
,
1000
0101
0100
0110
,
0001
1100
0001
0110
,
1000
0100
0000
0100
0010
0000
0001
0000
0001
0100
0000
0100
0010
0000
1000
0000
,
1001
0000
1000
0000
1000
0100
1000
0000
,
0100
0000
0000
0000
1000
0000
0000
0000
0010
0000
0000
0000
0100
0000
0000
0000
0001
0000
0100
0000
0010
0000
1000
0000
0001
0000
0000
0000
0000
0000
1000
0001
,
1000
0000
1001
0000
0001
0010
0100
1000
0100
0010
0001
0010
0100
1000
0100
0010
,
0001
0010
0100
1000
0100
0010
0001
0010
0100
1000
0100
0010
0001
0000
0100
0000
,
0010
0000
1000
0000
0001
0000
0000
0001
0000
0000
0001
0000
1000
0000
0000
1000
,
0000
0000
1000
0000
0010
0000
0000
0010
0000
0000
0010
0000
0100
0000
0000
0100
,
0000
0000
0100
0000
0010
0000
0000
1000
0000
0000
0010
0000
0100
0000
0000
0001
,
0000
0000
0100
0000
0010
0000
0000
0000
0100
0000
0000
0001
0000
0000
1000
0000
,
0001
0000
1000
0100
1000
0000
0100
0010
,
0100
0000
0010
0001
0010
0000
0001
0100
,
0001
0000
0100
0010
0100
0000
0010
1000
,
0010
0000
1000
0010
0100
0001
0010
0100
,
1000
0000
1001
0000
0001
0000
1000
0100
,
0001
0000
1000
0000
0010
0000
0001
0010
,
1000
0001
0001
1000
,
1000
0010
0100
0001
,
1000
0000
0001
0100
0001
0100
0001
0001
,
0001
0000
1000
0010
1000
0010
1000
1000
,
0010
0010
0100
0010
0100
0000
0001
1000
,
0001
0000
1000
0100
0010
0001
0010
0100
,
1000
0000
0010
0000
0100
0000
0000
0100
0000
0000
0100
0000
0010
0000
1000
0000
,
0010
0000
0000
0000
1000
0000
0000
1000
0000
0000
1000
0000
0100
0000
0010
0000
,
0100
0000
0010
0001
0100
0000
0010
1000
,
0100
0000
0010
0100
1000
0010
0100
0001
,
1000
0000
0001
0100
0010
0000
0100
0010
,
1000
0000
0001
0010
0100
0000
0010
0001
,
1000
0000
0100
1000
0010
0100
0001
0010
,
0100
0010
0001
1000
0100
0010
0100
1000
,
0010
0100
1001
0000
1000
0000
0001
0010
,
1000
0000
0001
0000
0100
0000
1000
0100
,
0001
1000
1000
0001
,
0001
0100
0010
1000
,
0001
0000
1000
0010
1000
0010
1000
1000
,
1000
0000
0001
0100
0001
0100
0001
0001
,
0100
0100
0010
0100
0010
0000
1000
0001
,
1000
0000
0001
0010
0100
1000
0100
0010
,
0001
1000
0110
0000
0000
0000
0000
0000
;

//--------------- dance-single - Pandemonium X ----------------
#NOTES:
     dance-single:
     Pandemonium X:
     Hard:
     16:
     0,0,0,0,0:
0000
0000
0000
0000
,
0000
0000
0000
0000
,
0000
0000
0000
0000
,
0000
0000
0000
0000
,
0000
0000
0000
0000
,
0000
0000
0000
0000
,
0000
0000
0000
0000
,
0000
0000
0000
0000
,
0000
0000
0000
0000
,
0101
0001
1100
0100
,
1001
0000
0000
0000
0010
0000
0000
0000
0101
0000
0000
0000
0001
0000
1000
0100
,
0010
0000
0000
0000
1100
0000
0000
0100
0010
0000
0000
0000
0011
0000
0000
0001
,
0100
0010
0000
0100
0010
1000
0000
0100
0010
0001
0000
0010
0100
1000
0001
0100
,
0010
0000
0000
0000
1000
0000
0000
0001
0010
0000
0000
0000
0100
0000
0000
0010
,
0001
0000
0000
0000
0100
0000
0000
0010
1000
0000
0000
0000
0001
0000
1000
0100
,
0010
0001
1001
1000
,
0001
1000
0000
0010
1000
0010
0000
0100
0001
0100
0000
0001
1000
0000
0000
0000
,
0101
0001
0100
0010
1000
0010
0100
0001
,
0010
0000
0100
0000
0010
0000
0001
0000
1000
0000
0010
0000
1000
0000
0001
1000
,
0001
0010
0100
1000
0010
1000
0010
0100
,
0001
0000
1000
0000
0100
0000
0010
0000
0001
0000
1000
0000
0001
0000
0100
0010
,
0100
0010
1000
0010
0100
0001
0010
0100
,
0010
0000
0001
0000
0100
0000
0010
0000
1000
0000
0001
0000
0010
0000
0100
1000
,
0100
0000
1000
0000
0010
0000
0100
0000
0001
0000
0010
0000
0100
0010
0001
1000
,
0001
0000
0100
0001
0100
0000
0010
0100
0010
0000
1000
0010
1000
0000
0001
1000
,
0100
0001
0100
1000
0010
0001
0010
1000
,
0010
0000
0001
0000
0010
0000
0100
0000
0001
0000
0100
0000
1000
0000
0100
0010
,
1000
0000
0100
0000
0001
0000
0100
1000
0001
0000
1000
0000
0010
0000
0100
0001
,
0010
0100
0000
0010
0100
1000
0000
0100
0010
0001
0000
0010
0100
1000
0010
0100
,
0001
0000
1000
0000
0100
0000
0000
0010
0001
0000
1000
0000
0010
0000
0000
0100
,
0001
0000
1000
0000
0100
0000
0000
0010
0100
0000
1000
0000
0001
0000
1000
0010
,
0100
0001
0010
0000
1100
1000
0001
0000
,
1000
0001
0000
0001
0010
0100
0000
0010
0100
1000
0000
0100
0010
0000
0000
0000
,
1001
0000
0001
0000
0100
0001
0010
0100
,
0010
0000
0010
0000
0100
0000
1000
0000
0010
0000
0100
0000
0001
0000
1000
0000
0100
0010
0100
0010
0001
0010
0001
1000
0001
0000
0000
0000
0000
0000
1000
0100
,
0010
0000
0000
0000
0011
0000
0000
0000
1000
0010
1000
0010
1000
0000
0010
0000
0100
0001
0100
0001
0100
0000
0001
0000
1000
0100
0010
0001
1000
0000
0001
0000
,
0010
0000
0000
0100
0000
0000
1000
0000
0000
0001
0000
0000
0100
0000
0000
0000
0000
0000
0010
0000
0000
0000
0000
0000
0100
0000
0000
0010
0000
0000
1000
0000
0000
0001
0000
0000
0010
0000
0000
0100
0000
0000
0010
0000
0000
0001
0000
0000
1000
0000
0000
0000
0000
0000
0000
0000
0011
0000
0000
0000
0000
0000
0000
0000
1100
0000
0000
0000
0000
0000
0000
0000
1001
0000
0000
0000
0000
0000
0000
0000
0000
0000
0000
0000
0110
0000
0000
0000
0000
0000
0000
0000
0000
0000
0000
0000
,
1001
0000
0110
0000
1001
0000
0001
0100
0000
0001
0100
0000
0010
0000
1000
0100
,
0000
1000
0100
0000
0010
0000
0001
0010
0000
0001
0010
0000
0100
0000
1000
0001
,
0000
1000
0001
0000
0100
0000
0010
1000
0000
0010
0100
0000
0010
0000
0100
0001
,
0000
0001
0010
0000
0100
0010
0000
0100
1000
0001
0100
0001
0000
0000
1000
0000
,
0100
0000
0010
0000
0001
0010
0001
0000
0010
0100
0010
0000
0100
1000
0100
0000
,
1000
0001
1000
0000
0010
1000
0010
0000
0100
0001
0100
0000
0001
0010
0001
0000
,
1000
0001
1000
0000
0001
0100
0010
0000
0100
0010
1000
0000
0001
0010
0100
0000
,
0010
0001
1000
0000
0001
0100
0001
0100
0010
0100
0001
1000
0010
0100
0010
1000
,
0001
1000
0001
0000
1001
0000
0001
0100
0010
0000
0100
0000
0010
0001
0010
1000
,
0001
0000
1000
0000
1001
0000
1000
0010
0100
0000
1000
0000
0100
0010
0001
0010
,
1000
0001
1000
0100
1000
0010
0100
0001
,
0010
0100
0010
0100
0010
0001
1000
0100
,
1000
0000
0001
0000
0100
0000
0100
0000
0100
0000
0100
0000
0100
0001
0100
0010
,
0100
0000
0010
0000
1000
0000
1000
0000
1000
0001
1000
0100
1000
0001
1000
0100
,
1000
0001
1000
0010
1000
0001
1000
0000
0001
0100
0001
0000
0100
0010
0100
0000
,
0010
1000
0010
0000
1000
0100
1000
0100
0010
0100
0010
0001
0010
0100
1000
0001
,
1000
0010
0100
0001
1001
0000
1000
0010
0000
1000
0010
0100
0010
0000
0010
0000
,
0010
0100
0001
1000
0001
0000
0010
0001
0000
0010
0001
0010
0100
0000
0100
0000
,
0100
0010
0001
1000
0010
0100
0001
0010
0001
0000
0100
0000
0010
1000
0010
0100
,
0001
0000
1000
0000
0100
0010
0100
1000
0001
0010
0100
0010
0001
1000
0010
0100
,
0001
1000
0100
1000
0001
0100
0001
0000
1000
0010
1000
0000
0001
1000
0001
0000
,
0010
0001
0010
0000
0100
1000
0010
0000
0100
0001
1000
0000
0001
0010
0100
0000
,
0010
0001
1000
0000
0001
0100
0010
0000
1000
0001
0010
0000
0100
0010
0001
0000
,
0010
0100
1000
0100
0010
0001
1000
0010
0100
0010
1000
0010
0100
0001
0010
0100
,
0010
0001
1000
0000
1001
0000
1000
0010
0100
0000
0010
0000
0100
1000
0100
0001
,
1000
0000
0001
0000
1001
0000
0001
0100
0010
0000
0001
0000
0010
0100
1000
0100
,
0001
1000
0001
0010
0001
0100
0010
1000
,
0100
0010
0100
0010
0100
1000
0001
0010
,
0001
0000
1000
0000
0010
0000
0010
0000
0010
0000
0010
0000
0010
1000
0010
0100
,
0010
0000
0100
0000
0001
0000
0001
0000
0001
1000
0001
0010
0001
1000
0001
0010
,
0001
1000
0001
0100
0001
1000
0001
0000
1000
0010
1000
0000
0010
0100
0010
0000
,
0100
0001
0100
0000
0001
0010
0001
0010
0100
0010
0100
1000
0100
0010
0001
1000
,
0001
0100
0010
1000
0100
0000
0000
0000
0000
0000
0000
0000
0000
0000
0000
0000
;

//--------------- dance-single - Pandemonium X ----------------
#NOTES:
     dance-single:
     Pandemonium X:
     Challenge:
     17:
     0,0,0,0,0:
0000
0000
0000
0000
,
0000
0000
0000
0000
,
0000
0000
0000
0000
,
0000
0000
0000
0000
,
0000
0000
0000
0000
,
0000
0000
0000
0000
,
0000
0000
0000
0000
,
0000
0000
0000
0000
,
0000
0000
0000
0000
,
1001
0001
0011
0010
,
0110
0000
0000
0000
0000
0000
0100
0000
0000
0000
0000
0000
1100
0000
0000
0000
0000
0000
1000
0000
0000
0010
0100
0001
,
0100
0000
0000
0000
0010
0000
0000
1000
0001
0000
0000
0000
0100
0000
0000
0001
,
0100
0000
0000
1000
0000
0000
0000
0000
0000
1000
0000
0000
0100
0000
0000
0001
0000
0000
0000
0000
0000
0001
0000
0000
0100
0000
0000
1000
0000
0000
0000
0000
0000
1000
0000
0000
0100
0000
0000
0010
0000
0000
1000
0000
0001
0000
1000
0000
,
0001
0000
0000
0000
0010
0000
0000
0100
1000
0000
0000
0000
0100
0000
0000
0010
,
0001
0000
0000
0000
1000
0000
0000
0010
1000
0000
0000
0000
0100
0000
0010
1000
,
0100
0100
0011
0001
,
1000
0100
0000
0100
0010
0001
0000
0001
0010
0100
0000
0100
1000
0000
0000
0000
,
0001
0100
0110
0100
0001
1000
1100
0100
,
0010
0000
0001
0000
0110
0000
0100
0000
1000
0000
0010
0000
0110
0000
0100
0001
,
0010
0100
1100
0100
1000
0010
0110
0100
,
0001
0000
0010
0000
0011
0000
0010
0000
0100
0000
1000
0000
1010
0000
0010
0100
,
0001
1000
1100
1000
0010
0100
0101
0001
,
0010
0000
0100
0000
1100
0000
0100
0000
1000
0000
0010
0000
0110
0000
0100
0001
,
1000
0000
0001
0000
0011
0000
0001
0000
0100
0000
0010
0000
1010
0010
0100
0001
,
1000
0000
0000
0000
0000
0000
1000
0000
0000
0100
0000
0000
0001
0000
0000
0000
0000
0000
0001
0000
0000
0100
0000
0000
1000
0000
0000
0000
0000
0000
1000
0000
0000
0100
0000
0000
0010
0000
0000
0000
0000
0000
0010
0000
0001
0000
0100
0000
,
0001
0100
1010
0010
0100
0001
1100
1000
,
0010
0000
0000
1000
0000
0000
0011
0000
0000
0010
0000
0000
0100
0000
0000
1000
0000
0000
1001
0000
0000
1000
0100
1000
,
0001
0000
0100
0000
0110
0000
0000
0100
0010
0000
1000
0000
1001
0000
0000
1000
,
0100
0000
0000
0001
0000
0000
0000
0000
0000
0001
0000
0000
0100
0000
0000
1000
0000
0000
0000
0000
0000
1000
0000
0000
0100
0000
0000
0001
0000
0000
0000
0000
0000
0001
0000
0000
0100
0000
0000
0010
0000
0000
0001
0000
1000
0000
0001
0000
,
0100
0000
0010
0000
1010
0000
0000
0010
0100
0000
0001
0000
0011
0000
0000
0010
,
0100
0000
1000
0000
1001
0000
0000
1000
0010
0000
0100
0000
0101
0000
0001
0010
,
0100
0000
1000
0000
1100
0000
0000
1000
0010
0000
0100
0000
0101
0000
0000
0000
,
0001
1000
0000
1000
0010
0100
0000
0100
0001
0010
0000
0100
1000
0000
0000
0000
,
2002
3003
0000
0000
0001
0000
0000
0000
0100
0000
1000
0000
0100
0000
0001
0000
,
0010
0000
1000
0000
0010
0000
0001
0000
1000
0000
0010
0000
0100
0000
0001
0000
0010
0100
0010
0001
0100
0010
1000
0100
1000
0000
0000
0000
0000
0000
0100
0010
,
0001
0000
0000
0000
0000
0000
0000
0000
0000
0000
0000
0000
1100
0000
0000
0000
0000
0000
0000
0000
0000
0000
0000
0000
0001
0000
0000
0100
0000
0000
0010
0000
0000
1000
0000
0000
0001
0000
0100
0000
0001
0000
0100
0000
0010
0000
1000
0000
0010
0000
0000
1000
0000
0000
0100
0000
0000
0010
0000
0000
0001
0000
1000
0000
0001
0000
1000
0000
0010
0000
1000
0000
0010
0000
0000
0100
0000
0000
0010
0000
0000
1000
0000
0000
0001
0000
0010
0000
0001
0000
0100
0000
0001
0000
0100
0000
,
0010
0000
0000
0100
0000
0000
0010
0000
0000
1000
0000
0000
0001
0000
0010
0000
0001
0000
0010
0000
0000
0000
0000
0000
0001
0000
0010
0000
0100
0000
1000
0000
0100
0000
0010
0000
0001
0000
0010
0000
0100
0000
1000
0000
0100
0000
0010
0000
0001
0000
0010
0000
0100
0000
1000
0000
0100
0000
0010
0000
0001
0000
0010
0000
0100
0000
1000
0000
0100
0000
0010
0000
0001
0000
0000
0000
0000
0000
0000
0000
0000
0000
0000
0000
1000
0000
0010
0000
0000
0000
0000
0000
0000
0000
0000
0000
,
0101
0000
0011
0000
1001
0000
1000
0010
0000
0010
0100
0001
0010
0000
0010
0100
,
0000
0010
0100
0010
0001
0000
1000
0001
0000
1000
0001
0100
0001
0000
0001
0010
,
0000
0001
0010
0100
0010
0000
0010
0100
0000
0010
0100
1000
0001
0000
1000
0001
,
0000
1000
0001
0000
0001
0010
0000
0100
0010
0100
1000
0001
0000
0000
0100
0000
,
0010
0000
1000
0000
0001
0010
0001
0000
0010
0100
0010
0000
0100
1000
0100
0000
,
1000
0010
1000
0000
0010
0100
0010
0000
0100
0001
0100
0000
0001
0010
0001
0000
,
0010
0100
0010
0000
0100
0010
0001
0100
0010
1000
0010
0100
0010
1000
0010
0100
,
0001
0010
0100
0010
0001
1000
0100
1000
0010
0100
0001
0010
0100
1000
0001
0100
,
0010
0000
1000
0000
1001
0000
0001
0100
0010
0000
0100
0000
1000
0100
0001
1000
,
0001
0000
1000
0000
1001
0000
1000
0100
0010
0000
0001
0000
0010
1000
0010
0001
,
1000
0000
0010
0000
0100
0001
0100
0001
0100
0010
0100
0010
1000
0010
1000
0010
,
0100
0010
0100
0010
1000
0001
1000
0100
0010
0001
0010
0100
0010
0001
1000
0100
,
1000
0001
1000
0000
0101
0000
0101
0000
1010
0000
1010
0000
1000
0100
0010
0001
,
1000
0000
0001
0000
1001
0000
0110
0000
1001
1000
0010
1000
0001
0010
0001
1000
,
0100
1000
0010
0100
0001
0100
0010
1000
0001
0010
0100
0010
0001
1000
0010
0100
,
0001
1000
0100
0010
0001
0010
1000
0010
0001
0100
1000
0100
0001
0100
0010
1000
,
0001
0010
0100
1000
1001
0000
0001
0100
0000
0001
0100
0001
0010
0000
0010
0000
,
0010
0001
0100
0001
1000
0000
1000
0100
0000
1000
0100
1000
0100
0000
0100
0000
,
0100
0010
0001
1000
0010
0100
0010
1000
0010
0100
0001
0100
0010
1000
0001
0010
,
0001
1000
0100
0010
0100
1000
0010
0100
0001
0010
0001
0100
0010
1000
0001
0010
,
0100
0010
0001
1000
0010
0100
0010
1000
0001
0010
0100
0010
0001
0100
0010
1000
,
0100
0010
0001
0010
0100
0010
0001
0100
0010
1000
0010
0100
0001
0010
0100
0010
,
0001
1000
0100
0010
0001
0010
0001
0100
0010
1000
0010
0100
0010
1000
0001
0010
,
0100
0010
0001
0100
0001
0010
0100
1000
0001
0010
0100
0010
0001
1000
0100
0010
,
0100
1000
0001
1000
1001
0000
1000
0010
0100
0000
0010
0000
0001
0010
1000
0001
,
1000
0000
0001
0000
1001
0000
0001
0010
0100
0000
1000
0000
0100
0001
0100
1000
,
0001
0000
0100
0000
0010
1000
0010
1000
0010
0100
0010
0100
0001
0100
0001
0100
,
0010
0100
0010
0100
0001
1000
0001
0010
0100
1000
0100
0010
0100
1000
0001
0010
,
0001
1000
0001
0000
1010
0000
1010
0000
0101
0000
0101
0000
0001
0010
0100
1000
,
0001
0000
1000
0000
1001
0000
0110
0000
1001
0001
0100
0001
1000
0100
1000
0001
,
0010
0001
0100
0010
1000
0010
0100
0001
1000
0100
0010
0100
1000
0001
0100
0010
,
1000
0001
0010
0100
1000
0100
0001
0100
1000
0010
0001
0010
1000
0010
0100
0001
,
1000
0100
0010
0001
0020
0000
0000
0000
0000
0000
0000
0000
0000
0000
0000
0000
,
0000
0000
0000
0000
,
0000
0030
0000
0000
;

//--------------- dance-double - Pandemonium X ----------------
#NOTES:
     dance-double:
     Pandemonium X:
     Easy:
     7:
     0,0,0,0,0:
00000000
00000000
00000000
00000000
,
00000000
00000000
00000000
00000000
,
00000000
00000000
00000000
00000000
,
00000000
00000000
00000000
00000000
,
00000000
00000000
00000000
00000000
,
00000000
00000000
00000000
00000000
,
00000000
00000000
00000000
00000000
,
00000000
00000000
00000000
00000000
,
00000000
00000000
00000000
00000000
,
00001000
00000000
00100000
00000000
,
00010000
00000000
10000000
00000000
,
00100000
00000000
01000000
00000000
,
00001000
00001000
00010000
00000100
,
00001000
00000000
00000010
00000000
,
00000100
00000000
00000001
00000000
,
00001000
00000000
00000100
00000000
,
00010000
00010000
00001000
00001000
,
01000000
00000000
00001000
00000000
,
00010000
00000000
00000000
00000000
00000010
00000000
00000000
00000100
,
00000001
00000000
00000010
00000000
,
00000100
00000000
00000000
00000000
00010000
00000000
00000000
00001000
,
01000000
00000000
00100000
00000000
,
10000000
00000000
00000000
00000000
00010000
00000000
00000000
00100000
,
00001000
00000000
00010000
00000000
,
00000100
00000100
00001000
00001000
,
00000101
00000000
00000001
00000000
,
00000010
00000000
00000000
00000000
00000100
00000000
00000000
00010000
,
00001000
00000000
00001000
00000000
,
01000000
00100000
10000000
00010000
,
00100000
00000000
00001000
00000000
,
00010000
00000000
00000100
00000000
,
00001000
00000000
00000010
00000000
,
00000100
00000010
00010000
00001000
,
00011000
00100000
00010000
10000000
,
00100000
01000000
00010000
10000000
01000000
00100000
01000000
00000000
,
10000000
00010000
20000000
00000000
32000000
00000000
03200000
00000000
,
00320000
00000000
00032000
00000000
00003200
00000000
00000310
00000001
,
00000100
00000010
00001000
00000000
00000000
00000000
00000100
00000000
,
00000000
00010000
00000000
00001000
,
00000000
01000000
00000000
00100000
,
01000000
00010000
00100000
00001000
,
00010000
00000010
00000010
00000100
,
00000100
00000001
00000001
00001000
,
00001000
00000100
00010000
00001000
,
01000000
00100000
10000000
01000000
,
00100000
00110000
00100000
00001000
,
00010000
00001100
00001000
00000010
,
00000100
00000001
00000001
00000001
,
00000001
00000001
00000010
00000100
,
00001000
00010000
00010000
00010000
,
00011000
00001000
00001000
00001000
,
00011000
00001000
01000000
00100000
,
10000000
00010000
00100000
01000000
,
10000000
00010000
01000000
00100000
,
00100000
01000000
00001000
00010000
,
00010000
00000100
00001000
00000010
,
00000100
00000001
00000010
00000100
,
00010000
00001000
01000000
00100000
,
10000000
00010000
00100000
00001000
,
00010000
00000010
00000100
00000001
,
00001000
00000100
00010000
00001000
,
01000000
01100000
01000000
00010000
,
00100000
01100000
01000000
10000000
,
00010000
01000000
01000000
00001000
,
00001000
00010000
00000100
00001000
,
00000010
00000100
00000100
00000100
,
00001001
00000010
00000010
00000010
,
00001001
00000001
00000100
00000010
,
00010000
00001000
01000000
00100000
,
10000000
01010000
00000000
00000000
;

//--------------- dance-double - Pandemonium X ----------------
#NOTES:
     dance-double:
     Pandemonium X:
     Medium:
     12:
     0,0,0,0,0:
00000000
00000000
00000000
00000000
,
00000000
00000000
00000000
00000000
,
00000000
00000000
00000000
00000000
,
00000000
00000000
00000000
00000000
,
00000000
00000000
00000000
00000000
,
00000000
00000000
00000000
00000000
,
00000000
00000000
00000000
00000000
,
00000000
00000000
00000000
00000000
,
00000000
00000000
00000000
00000000
,
00110000
00000000
00010100
00000000
,
00001100
00000000
00000000
00000000
00000000
00000000
00000000
00000000
00000011
00000000
00000000
00000000
00000000
00000000
00000000
00000100
,
00001000
00000000
00000000
00000000
00000000
00000000
00000000
00000100
00010000
00000000
00000000
00000000
00000000
00000000
00000000
00010000
,
00001000
00000000
00000000
00001000
01000000
00000000
00000000
01000000
00100000
00000000
00000000
01000000
00010000
00000000
01000000
00000000
,
00100000
00000000
00000000
00000000
00000000
00000000
00000000
01000000
00001000
00000000
00000000
00000000
00000000
00000000
00000000
00010000
,
00000010
00000000
00000000
00000000
00000000
00000000
00000000
00000100
00000001
00000000
00000000
00000000
00000000
00000000
00000010
00000100
,
00001000
00000000
00000100
00000000
,
00010000
00001000
01000000
00100000
,
10010000
00000000
11000000
00000000
,
00101000
00000000
00000000
00000000
00000000
00000000
00000000
00000000
00011000
00000000
00000000
00000000
00000000
00000000
00010000
00000100
,
00001000
00000000
00001010
00000000
,
00000101
00000000
00000000
00000000
00000000
00000000
00000000
00000000
00000011
00000000
00000000
00000000
00000000
00000000
00000010
00000001
,
00001000
00000000
00001100
00000000
,
00010010
00000000
00000000
00000000
00000000
00000000
00000000
00000000
00011000
00000000
00000000
00000000
00000000
00000000
00001000
01000000
,
00100000
00000000
00000000
00000000
10010000
00000000
00000000
10000000
,
01000000
00000000
00000000
01000000
00001000
00000000
00000000
00010000
00001000
00000000
00000000
00001000
01000000
00000000
00000000
00001000
,
00010000
00000000
00010100
00000000
,
00001010
00000000
00000000
00000000
00000000
00000000
00000000
00000000
00000101
00000000
00000000
00000000
00000000
00000000
00000001
00000010
,
00000100
00000000
00000000
00000000
00000000
00000000
00000000
00000100
00001000
00000000
00000000
00000000
00000000
00000000
00000000
00000100
,
00010000
00000000
00000000
00010000
00001000
00000000
00000000
00001000
01000000
00000000
00000000
01000000
00100000
00000000
10000000
00000000
,
00010000
00000000
00000000
00000000
00000000
00000000
00000000
00100000
00001000
00000000
00000000
00000000
00000000
00000000
00000000
00010000
,
00000010
00000000
00000000
00000000
00000000
00000000
00000000
00000100
00000001
00000000
00000000
00000000
00000000
00000000
00000100
00000010
,
00001000
00000000
00000100
00000000
,
00010000
00000000
00000000
00001000
01000000
00000000
00000000
01000000
00100000
00000000
00000000
00100000
10000000
00000000
00010000
00000000
,
10010000
00000000
10000000
00000000
01000000
00100000
00010000
00001000
,
00010000
00000000
00000100
00000000
00001000
00000000
00000010
00000000
00000100
00000000
00000001
00000000
00000010
00000000
00000100
00000000
00000010
00000000
00000001
00000000
00000100
00000000
00000010
00000000
00001000
00000000
00000000
00000000
00000000
00000000
00000100
00010000
,
00001000
00011000
00002000
02003000
03200000
20300000
32000000
03200000
,
00320000
00032000
00003020
00000032
00000203
00000310
00001010
00001010
,
00001100
00000000
00010100
00000000
00011000
00000000
00000000
00001000
00000000
00000000
00001000
00000000
00010000
00000000
00000000
00010000
,
00000000
00000000
00010000
00000000
00000100
00000000
00000000
00000100
00000000
00000000
00000100
00000000
00001000
00000000
00000000
00001000
,
00000000
00000000
00001000
00000000
00000010
00000000
00000000
00000010
00000000
00000000
00000010
00000000
00010000
00000000
00000000
00010000
,
00000000
00000000
00010000
00000000
00001000
00000000
00000000
00000000
00010000
00000000
00000000
00001000
00000000
00000000
01000000
00000000
,
00100000
00000000
10000000
01000000
10000000
00000000
00010000
00100000
,
00010000
00000000
00100000
00001000
00100000
00000000
00001000
00010000
,
00001000
00000000
00010000
00000100
00001000
00000010
00000100
00000001
,
00000010
00000100
00000010
00000001
00000100
00000010
00001000
00000100
,
00010000
00000000
00001000
00000000
01000000
00000000
00100000
10000000
,
00010000
00000000
00100000
00000000
01000000
00000000
10000000
01000000
,
00100000
01000000
01000000
10000000
,
10000000
00010000
00100000
00001000
,
00010000
00000000
00000100
00001000
00000100
00001000
00000100
00001000
,
00000011
00000000
00000001
00000100
00000001
00000100
00000001
00000100
,
00000010
00001000
00000100
00000100
00010000
00001000
01000000
01000000
,
00100000
10000000
00010000
00100000
10000000
00100000
00001000
00010000
,
00000100
00000000
00010000
00000000
00000100
00000000
00000000
00000100
00000000
00000000
00000100
00000000
00001000
00000000
00000010
00000000
,
00000100
00000000
00000000
00000000
00000001
00000000
00000000
00000001
00000000
00000000
00000001
00000000
00000010
00000000
00000001
00000000
,
00001000
00000000
00000100
00010000
00001000
00000000
00010000
00001000
,
01000000
00000000
00100000
01000000
00010000
10000000
01000000
00100000
,
01000000
10000000
00010000
00100000
00001000
00000000
00010000
00000100
,
00001000
00000000
00000010
00000100
00000001
00000000
00000010
00000100
,
00001000
00000000
00000100
00010000
00001000
01000000
00100000
10000000
,
01000000
00010000
01000000
00100000
00010000
00100000
00001000
00010000
,
00000100
00001000
00000010
00000000
00000100
00000000
00000001
00000010
,
00000100
00000000
00001000
00000000
00000100
00000000
00010000
00001000
,
01000000
00100000
00100000
01000000
,
01000000
00010000
00100000
01000000
,
10000000
00000000
00010000
01000000
00010000
01000000
00010000
01000000
,
10100000
00000000
10000000
01000000
10000000
01000000
10000000
01000000
,
00100000
00010000
00001000
00000100
00010000
00000100
00001000
00000010
,
00010000
00001000
00100000
00010000
00001000
00010000
00000010
00010000
,
00001000
01000000
00100000
00000000
00000000
00000000
00000000
00000000
;

//--------------- dance-double - Pandemonium X ----------------
#NOTES:
     dance-double:
     Pandemonium X:
     Hard:
     16:
     0,0,0,0,0:
00000000
00000000
00000000
00000000
,
00000000
00000000
00000000
00000000
,
00000000
00000000
00000000
00000000
,
00000000
00000000
00000000
00000000
,
00000000
00000000
00000000
00000000
,
00000000
00000000
00000000
00000000
,
00000000
00000000
00000000
00000000
,
00000000
00000000
00000000
00000000
,
00000000
00000000
00000000
00000000
,
00101000
00010000
00010010
00001000
,
00011000
00000000
00000000
00000000
00100000
00000000
00000000
00000000
00011000
00000000
00000000
00000000
00000100
00000000
00001000
00000010
,
00000100
00000000
00000000
00000000
00000010
00000000
00000000
00010000
00001000
00000000
00000000
00000000
00101000
00000000
00000000
00001000
,
01000000
00100000
00000000
01000000
00010000
10000000
00000000
01000000
00100000
00010000
00000000
00100000
00001000
00010000
00000100
00010000
,
00001000
00000000
00000000
00000000
00010000
00000000
00000000
00100000
01000000
00000000
00000000
00000000
00010000
00000000
00000000
00100000
,
00001000
00000000
00000000
00000000
00010000
00000000
00000000
00000100
00001000
00000000
00000000
00000000
00000010
00000000
00000100
00000001
,
00001000
00000100
00011000
01000000
,
00001000
00010000
00000000
00010000
00000100
00001000
00000000
00001000
00000010
00000100
00000000
00000100
00000001
00000000
00000000
00000000
,
00001100
00000100
00010000
00000000
00011000
00001000
01000000
00000000
,
01100000
00000000
01000000
00000000
00010000
00000000
00000000
00000000
11000000
00000000
01000000
00000000
00100000
00000000
00001000
00010000
,
00000100
00001000
00000010
00000000
00000110
00000001
00001000
00000000
,
00000110
00000000
00001000
00000000
00000001
00000000
00000000
00000000
00001100
00000000
00000100
00000000
00000010
00000000
00000001
00000010
,
00000100
00001000
00000010
00000000
00001010
00001000
00000100
00000000
,
00001100
00000000
00000100
00000000
00010000
00000000
00000000
00000000
00011000
00000000
00001000
00000000
01000000
00000000
00100000
10000000
,
00010000
00000000
00100000
00000000
01000000
00000000
00000000
00000000
01100000
00000000
00010000
00000000
10000000
01000000
10000000
00010000
,
01000000
00000000
01000000
00010000
00100000
00000000
01000000
10000000
00100000
00000000
01000000
00010000
00100000
00000000
01000000
10000000
,
00010000
00100000
00001000
00000000
00011000
00001000
00100000
00000000
,
00010100
00000000
00000100
00000000
00001000
00000000
00000000
00000000
00000110
00000000
00000010
00000000
00000001
00000000
00001000
00000010
,
00000100
00000000
00000001
00000000
00000100
00000000
00000000
00000001
00000100
00000000
00000010
00000000
00001000
00000000
00000000
00000100
,
00001000
00000100
00000000
00010000
00001000
00010000
00000000
00000100
00001000
00000100
00000000
00010000
00001000
01000000
00001000
00010000
,
00001000
00000000
01000000
00000000
00100000
00000000
00000000
01000000
00010000
00000000
00100000
00000000
01000000
00000000
00000000
00100000
,
00001000
00000000
00010000
00000000
00000100
00000000
00000000
00001000
00000010
00000000
00000100
00000000
00000001
00000000
00000010
00000100
,
00001000
00000100
00010000
00000000
00011000
00001000
01000000
00000000
,
00100000
01000000
00000000
01000000
00010000
00100000
00000000
00100000
01000000
10000000
00000000
01000000
00100000
00000000
00001000
00000000
,
00011000
00000000
00010000
00000000
00000100
00001000
00000100
00010000
,
00001000
00000000
01000000
00000000
00100000
00000000
10000000
00000000
00010000
00000000
00100000
00000000
00001000
00000000
00010000
00000000
00000010
00000100
00000001
00000100
00000010
00001000
00000010
00000100
00000001
00000000
00000000
00000000
00000000
00000000
00000010
00000100
,
00001000
00000000
00000000
00000000
00011000
00000000
00000000
00000000
00001000
01000000
00001000
01000000
00100000
00000000
01000000
00000000
00010000
10000000
00010000
10000000
01000000
00000000
00100000
00000000
00001000
00010000
00001000
00010000
00000100
00000000
00001000
00000000
,
00000010
00000000
00000000
00000100
00000000
00000000
00000010
00000000
00000000
00000100
00000000
00000000
00000001
00000000
00000000
00000000
00000000
00000000
00001000
00000000
00000000
00000000
00000000
00000000
00000100
00000000
00000000
00010000
00000000
00000000
00000100
00000000
00000000
00010000
00000000
00000000
00001000
00000000
00000000
00010000
00000000
00000000
00001000
00000000
00000000
01000000
00000000
00000000
00001000
00000000
00000000
01000000
00000000
00000000
00100000
00000000
00000000
01000000
00000000
00000000
00000000
00000000
00000000
00000000
00100000
00000000
00000000
00000000
00000000
00000000
00000000
00000000
01000000
00000000
00000000
00000000
00000000
00000000
00000000
00000000
00000000
00000000
00000000
00000000
00010000
00000000
00000000
10000000
00000000
00000000
00000000
00000000
00000000
00000000
00000000
00000000
,
00100000
00000000
01000000
00000000
00011000
00000000
00010000
00000100
00000000
00010000
00000100
00000000
00001000
00000000
00000010
00000100
,
00000000
00000010
00000100
00000000
00000001
00000000
00000010
00000100
00000000
00000010
00000100
00000000
00001000
00000000
00000100
00010000
,
00000000
00000100
00010000
00000000
00001000
00000000
00010000
00001000
00000000
00010000
00001000
00000000
01000000
00000000
00100000
01000000
,
00000000
00100000
01000000
00000000
00100000
10000000
00000000
10000000
01000000
00000000
01000000
00100000
00000000
00010000
01000000
00000000
,
00010000
00000000
00100000
00000000
00100000
00001000
00100000
00000000
00001000
00010000
00001000
00000000
00010000
00000100
00010000
00000000
,
00000100
00001000
00000100
00000000
00001000
00000010
00001000
00000000
00000010
00000100
00000010
00000000
00000100
00000001
00000100
00000000
,
00000001
00001000
00000001
00000000
00001000
00000100
00001000
00000100
00010000
00001000
00010000
00001000
00100000
00001000
00100000
00001000
,
00010000
00000100
00001000
00000010
00000100
00000001
00000010
00000001
00001000
00000100
00010000
00001000
01000000
00010000
00100000
01000000
,
10000000
00000000
01000000
00000000
00110000
00000000
00100000
00001000
00010000
00000000
00000010
00000000
00000100
00001000
00000100
00000001
,
00001000
00000000
00000010
00000000
00001010
00000000
00000010
00010000
00001000
00000000
00100000
00000000
00010000
01000000
10000000
01000000
,
00010000
00000000
10000000
00000000
00010000
00100000
00010000
00000000
10000000
01000000
10000000
00000000
00010000
00100000
00010000
00000000
,
10000000
01000000
10000000
00000000
00010000
00100000
01000000
10000000
01000000
00100000
00001000
00010000
00000100
00001000
00000010
00000100
,
00000001
00000000
00000000
00000000
00001000
00000000
00001000
00000000
00001000
00000000
00001000
00000000
00001000
00000010
00001000
00000001
,
00001000
00000000
00000100
00000000
00001000
00000000
00001000
00000000
00001000
00000100
00010000
00000100
00001000
00000100
00010000
00001000
,
01000000
00001000
00010000
00000100
00010000
00000100
00001000
00000010
00000100
00000000
00000001
00000000
00000010
00000100
00001000
00000100
,
00010000
00000000
00001000
00000000
01000000
00100000
10000000
00010000
00100000
00001000
00010000
00000010
00000100
00000010
00001000
00000100
,
00010000
00001000
01000000
00010000
10000000
00000000
10000000
01000000
00000000
01000000
00100000
00000000
00010000
00000000
00100000
00000000
,
00001000
00010000
00001000
00000000
00010000
00000000
00000100
00010000
00000000
00010000
00001000
00000000
00010000
00000000
00010000
00000000
,
00010000
00000100
00001000
00000000
00000010
00000100
00000010
00000100
00000010
00000000
00001001
00000000
00000100
00000010
00000100
00000010
,
00000100
00000000
00001001
00000000
00000001
00000100
00000010
00001000
00000100
00000000
00001100
00000000
00000100
00010000
00001000
01000000
,
00100000
00000000
10010000
00000000
10000000
01000000
00100000
00000000
01000000
10000000
00010000
00000000
00100000
00001000
00010000
00000000
,
00000100
00001000
00000010
00000000
00000100
00000001
00000010
00000000
00000100
00000010
00000001
00000000
00001000
00000100
00000010
00000000
,
00000100
00010000
00001000
00000000
01000000
00100000
10000000
00000000
00010000
00100000
01000000
00000000
00100000
00001000
00010000
00000000
,
00000100
00001000
00000010
00000100
00000001
00000010
00000100
00001000
00000100
00010000
00001000
01000000
00100000
10000000
00010000
00100000
,
01000000
00000000
10000000
00000000
00110000
00000000
00100000
00001000
00010000
00000000
00000010
00000000
00000100
00001000
00000100
00000001
,
00001000
00000000
00000010
00000000
00001010
00000000
00000010
00010000
00001000
00000000
00100000
00000000
00010000
01000000
10000000
01000000
,
00010000
00000000
10000000
00000000
00010000
00100000
00010000
00000000
10000000
01000000
10000000
00000000
00010000
00100000
00010000
00000000
,
10000000
01000000
10000000
00000000
00010000
00100000
01000000
10000000
01000000
00100000
00001000
00010000
00000100
00001000
00000010
00000100
,
00000001
00000000
00000000
00000000
00001000
00000000
00001000
00000000
00001000
00000000
00001000
00000000
00001000
00000010
00001000
00000001
,
00001000
00000000
00000100
00000000
00001000
00000000
00001000
00000000
00001000
00000100
00010000
00000100
00001000
00000100
00010000
00001000
,
01000000
00001000
00010000
00000100
00010000
00000100
00001000
00000010
00000100
00000000
00000001
00000000
00000010
00000100
00001000
00000100
,
00010000
00000000
00001000
00000000
01000000
00100000
10000000
00010000
00100000
00001000
00010000
00000010
00000100
00000010
00001000
00000100
,
00010000
00001000
01000000
00010000
00100000
00000000
00000000
00000000
00000000
00000000
00000000
00000000
00000000
00000000
00000000
00000000
;

//--------------- dance-double - Pandemonium X ----------------
#NOTES:
     dance-double:
     Pandemonium X:
     Challenge:
     17:
     0,0,0,0,0:
00000000
00000000
00000000
00000000
,
00000000
00000000
00000000
00000000
,
00000000
00000000
00000000
00000000
,
00000000
00000000
00000000
00000000
,
00000000
00000000
00000000
00000000
,
00000000
00000000
00000000
00000000
,
00000000
00000000
00000000
00000000
,
00000000
00000000
00000000
00000000
,
00000000
00000000
00000000
00000000
,
00101000
00010000
01001000
00010000
,
00001010
00000000
00000000
00000000
00000000
00000000
00010000
00000000
00000000
00000000
00000000
00000000
01001000
00000000
00000000
00000000
00000000
00000000
01000000
00000000
00000000
00100000
01000000
00010000
,
01000000
00000000
00000000
00000000
00010000
00000000
00000000
00100000
00001000
00000000
00000000
00000000
00010000
00000000
00000000
00000100
,
00001000
00000000
00000000
00000010
00000000
00000000
00000000
00000000
00000000
00000001
00000000
00000000
00000010
00000000
00000000
00001000
00000000
00000000
00000000
00000000
00000000
00001000
00000000
00000000
00000100
00000000
00000000
00000010
00000000
00000000
00000000
00000000
00000000
00000001
00000000
00000000
00001000
00000000
00000000
00000100
00000000
00000000
00010000
00000000
00001000
00000000
00010000
00000000
,
00001000
00000000
00000000
00000000
00010000
00000000
00000000
00001000
00100000
00000000
00000000
00000000
00010000
00000000
00000000
00010000
,
00100000
00000000
00000000
00000000
00001000
00000000
00000000
00010000
00000010
00000000
00000000
00000000
00000100
00000000
00000010
00001000
,
00000001
00000010
00011000
00000100
,
00010000
00001000
00000000
00001000
01000000
00100000
00000000
01000000
00010000
10000000
00000000
10000000
01000000
00000000
00000000
00000000
,
00110000
00010000
01000000
00100000
10100000
10000000
00010000
00100000
,
00101000
00000000
00001000
00000000
00010000
00000000
00000100
00000000
00001100
00000000
00001000
00000000
00000010
00000000
00000100
00000001
,
00000010
00000100
00001000
00000100
00010100
00010000
00001000
00100000
,
00110000
00000000
00100000
00000000
01000000
00000000
10000000
00000000
10010000
00000000
00010000
00000000
01000000
00000000
00001000
00010000
,
00000100
00001000
00000010
00000100
00000101
00000001
00001000
00000100
,
00010100
00000000
00010000
00000000
00001000
00000000
01000000
00000000
01010000
00000000
00010000
00000000
00100000
00000000
01000000
00100000
,
00010000
00000000
00100000
00000000
00001000
00000000
00010000
00000000
00010100
00000000
00000100
00000000
00001000
00000010
00000001
00000010
,
00001000
00000000
00000000
00000000
00000000
00000000
00000010
00000000
00000000
00010000
00000000
00000000
00001000
00000000
00000000
00000000
00000000
00000000
00010000
00000000
00000000
00001000
00000000
00000000
01000000
00000000
00000000
00000000
00000000
00000000
00100000
00000000
00000000
10000000
00000000
00000000
00010000
00000000
00000000
00000000
00000000
00000000
00100000
00000000
01000000
00000000
10000000
00000000
,
00010000
01000000
00100000
10000000
01010000
00010000
00100000
00001000
,
00010100
00000000
00000000
00001000
00000000
00000000
00000010
00000000
00000000
00000100
00000000
00000000
00001010
00000000
00000000
00000010
00000000
00000000
00000100
00000000
00000000
00000001
00000010
00000100
,
00000010
00000000
00000001
00000000
00000100
00000000
00000010
00001000
00000100
00000000
00010000
00000000
00001000
00000000
01000000
00100000
,
10000000
00000000
00000000
00010000
00000000
00000000
00000000
00000000
00000000
00010000
00000000
00000000
00100000
00000000
00000000
10000000
00000000
00000000
00000000
00000000
00000000
10000000
00000000
00000000
01000000
00000000
00000000
00100000
00000000
00000000
00000000
00000000
00000000
00100000
00000000
00000000
00010000
00000000
00000000
00100000
00000000
00000000
00001000
00000000
00010000
00000000
00000010
00000000
,
00000100
00000000
00000001
00000000
00000010
00000000
00000100
00001000
00000001
00000000
00001000
00000000
00000100
00000000
00000010
00000001
,
00001000
00000000
00000100
00000000
00010000
00000000
00001000
00100000
00010000
00000000
10000000
00000000
01000000
00000000
10000000
00100000
,
01000000
00000000
00010000
00000000
00100000
00000000
00001000
00010000
00000100
00000000
00001000
00000000
00000010
00000000
00000100
00000000
,
00000001
00000100
00000000
00000010
00010000
00001000
00000000
00010000
00001000
01000000
00000000
00100000
10000000
00000000
00010000
00000000
,
01100000
00000000
00110000
00000000
00100000
00001000
00010000
00000010
,
00000100
00000000
00001000
00000000
00000100
00000000
00000001
00000000
00000010
00000000
00000100
00000000
00001000
00000000
00000100
00000000
00010000
00001000
01000000
00001000
00010000
00000100
00010000
00001000
00100000
00000000
00000000
00000000
00000000
00000000
00001000
01000000
,
00100000
00000000
00000000
00000000
00000000
00000000
10010000
00000000
00000000
00000000
00000000
00000000
10000000
01000000
00100000
00010000
01000000
00100000
10000000
00000000
00000000
00010000
00000000
00000000
00100000
00001000
00010000
00001000
00100000
00001000
00010000
00000000
00000000
00000100
00000000
00000000
00001000
00000010
00000100
00000010
00001000
00000001
00001000
00000000
00000000
00000001
00000000
00000000
,
00000010
00000001
00000100
00000001
00001000
00000100
00000010
00000000
00000000
00000100
00000000
00000000
00010000
00001000
01000000
00001000
00010000
00000100
00010000
00001000
01000000
00001000
00010000
00000100
00010000
00001000
00010000
00001000
00010000
00000000
00000000
00000000
00000100
00000000
00000000
00000000
00000011
00000000
00000000
00000000
00000000
00000000
00000100
00010000
00000000
00000000
00000000
00000000
,
00011000
00000000
01001000
00000000
00110000
00000000
00010000
00100000
00000000
00010000
00100000
01000000
10000000
00000000
00010000
10000000
,
00000000
00010000
10000000
00100000
01000000
00000000
00001000
01000000
00000000
00001000
01000000
00001000
00010000
00000000
00000100
00001000
,
00000000
00000100
00001000
00000100
00000010
00000000
00000010
00000001
00000000
00000010
00000001
00000100
00000010
00000000
00000100
00000010
,
00000000
00000100
00000010
00001000
00000100
00010000
00000000
00010000
00001000
01000000
00001000
00010000
00000000
00000000
00000100
00000000
,
00000010
00000000
00000001
00000000
00000001
00001000
00000010
00000000
00000100
00000010
00001000
00000000
00000100
00010000
00001000
00000000
,
00010000
00001000
01000000
00000000
00100000
01000000
00010000
00000000
10000000
01000000
00100000
00000000
01000000
10000000
00010000
00000000
,
00100000
01000000
10000000
00000000
00010000
00100000
01000000
10000000
00010000
01000000
00001000
00010000
00000100
00001000
00000010
00000100
,
00000001
00000010
00000100
00001000
00000001
00001000
00000010
00010000
00001000
00100000
00001000
00010000
00001000
01000000
00100000
01000000
,
00010000
10000000
00010000
00100000
00010000
00000000
00010000
00100000
10000000
00000000
00100000
00000000
00010000
00100000
01000000
10000000
,
00010000
00000000
10000000
00000000
01000000
00000000
00010000
00001000
00000010
00000000
00000001
00000000
00001000
00000010
00000001
00000010
,
00001000
00000000
00000001
00000000
00001000
00000100
00001000
00000000
00000100
00010000
00000100
00000000
00010000
00001000
00010000
00000000
,
00001000
01000000
00001000
00000000
01000000
00100000
10000000
00100000
01000000
00010000
00100000
00001000
00010000
00000010
00000100
00000001
,
00000010
00000000
00000100
00000000
00001100
00000000
00000011
00000000
00001100
00000000
00000011
00000000
00000010
00000100
00001000
00000100
,
00010000
00000000
00001000
00000000
01001000
00000000
01010000
00000000
00100000
10000000
00100000
01000000
00010000
00100000
10000000
00100000
,
00010000
01000000
10000000
01000000
00010000
10000000
00100000
01000000
00010000
00100000
00001000
00010000
00000100
00001000
00000010
00010000
,
00000100
00001000
00000010
00000100
00000001
00000010
00000100
00001000
00000100
00010000
00001000
01000000
00010000
01000000
00001000
00010000
,
00000100
00001000
00000010
00000100
00001001
00000000
00000001
00000100
00000000
00000100
00000010
00001000
00000100
00000000
00001100
00000000
,
00000100
00010000
00001000
01000000
00100000
00000000
01000000
00010000
00000000
00010000
00100000
01000000
00100000
00000000
00110000
00000000
,
00010000
00100000
01000000
10000000
00010000
01000000
00100000
10000000
00010000
01000000
00100000
10000000
00010000
00100000
00001000
00010000
,
00000010
00010000
00001000
00100000
00001000
00010000
00000100
00001000
00000010
00000100
00000001
00000010
00000100
00000010
00000001
00001000
,
00000100
00000010
00000001
00001000
00000010
00001000
00000010
00001000
00000001
00000100
00000001
00000100
00000001
00000010
00000001
00000010
,
00000100
00001000
00000100
00001000
00000100
00010000
00001000
00010000
00001000
01000000
00001000
01000000
00100000
01000000
00100000
01000000
,
00100000
10000000
00100000
10000000
00100000
01000000
00100000
01000000
00010000
00100000
00001000
00010000
00000100
00001000
00000010
00000100
,
00000010
00001000
00000010
00000100
00000001
00000010
00000100
00001000
00000001
00001000
00000100
00010000
00001000
01000000
00100000
10000000
,
00010000
00100000
01000000
10000000
00010000
00000000
00010000
00100000
10000000
00000000
00100000
00000000
00010000
00100000
01000000
10000000
,
00010000
00000000
10000000
00000000
01000000
00000000
00010000
00001000
00000010
00000000
00000001
00000000
00001000
00000010
00000001
00000010
,
00001000
00000000
00000001
00000000
00001000
00000100
00001000
00000000
00000100
00010000
00000100
00000000
00010000
00001000
00010000
00000000
,
00001000
01000000
00001000
00000000
01000000
00100000
10000000
00100000
01000000
00010000
00100000
00001000
00010000
00000010
00000100
00000001
,
00000010
00000000
00000100
00000000
00001100
00000000
00000011
00000000
00001100
00000000
00000011
00000000
00000010
00000100
00001000
00000100
,
00010000
00000000
00001000
00000000
01001000
00000000
01010000
00000000
00100000
10000000
00100000
01000000
00010000
00100000
10000000
00100000
,
00010000
01000000
10000000
01000000
00010000
10000000
00100000
01000000
00010000
00100000
00001000
00010000
00000100
00001000
00000010
00010000
,
00000100
00001000
00000010
00000100
00000001
00000010
00000100
00001000
00000100
00010000
00001000
01000000
00010000
01000000
00001000
00010000
,
00000100
00001000
00000010
00000100
00000001
00000000
00000000
00000000
00000000
00000000
00000000
00000000
00000000
00000000
00000000
00000000
;
