#TITLE:reunion;
#SUBTITLE:;
#ARTIST:Tatsh;
#TITLETRANSLIT:;
#SUBTITLETRANSLIT:;
#ARTISTTRANSLIT:;
#GENRE:;
#CREDIT:;
#MUSIC:reunion.ogg;
#BANNER:;
#BACKGROUND:;
#CDTITLE:;
#SAMPLESTART:34.308;
#SAMPLELENGTH:15.686;
#SELECTABLE:YES;
#OFFSET:-0.395;
#BPMS:0.000=184.000;
#STOPS:;
#BGCHANGES:;
#FGCHANGES:;

//--------------- dance-single - Pandemonium X ----------------
#NOTES:
     dance-single:
     Pandemonium X:
     Beginner:
     7:
     0,0,0,0,0:
0000
0000
0000
0000
,
0000
0000
0000
0000
,
1000
0000
0000
0000
,
0000
0000
0000
0000
,
0001
0000
0000
0000
,
0000
0000
0010
0010
,
0010
0000
0000
0000
,
0000
0000
0100
0000
,
1000
0000
0000
0000
,
1001
0000
0000
0000
,
0001
0000
1000
0000
,
0100
0000
0010
0000
,
0100
0000
1000
0000
,
0010
0000
0100
0100
,
0001
0000
0010
0000
,
0001
0000
1000
0000
,
0100
0000
0010
0000
,
0001
0000
1000
1000
,
0001
0000
0100
0000
,
0010
0000
1000
0001
,
1000
0000
0100
0000
,
0010
0000
0001
0010
,
0100
0000
0010
0000
,
0001
0000
1000
0010
,
0100
0000
0010
0000
,
1001
0000
0000
0000
,
1000
0001
0001
0010
,
0100
0000
0010
0010
,
0010
0001
0001
0001
,
1000
1000
1000
0100
,
0100
0100
0010
0010
,
0010
0001
0001
0001
,
1000
1000
1000
0010
,
0010
0010
0100
0100
,
0100
0001
0001
0001
,
1000
1000
0001
0100
,
0100
0010
1000
1000
,
0010
0100
0001
1000
,
0100
0000
0000
0010
,
0000
0000
0001
1000
,
0010
0000
0000
1000
,
0000
0000
0100
1000
,
0010
0000
0000
0100
,
0000
0000
0001
0010
,
0001
0000
1000
0000
,
0010
0000
0100
0010
,
1001
0000
0001
0000
,
1000
0000
0100
0000
,
0010
0000
0100
0000
,
1000
0000
0010
0010
,
1001
0000
0001
0000
,
0000
0000
0000
0010
,
0010
0000
0000
0000
,
0110
0000
0000
0000
,
0001
0000
1000
0000
,
0100
0000
0010
0000
,
0100
0000
1000
0000
,
0010
0000
0100
0000
,
0001
0000
0010
0000
,
0001
0000
1000
0000
,
0100
0000
1000
0000
,
0010
0000
0100
0000
,
0001
0001
0001
0000
,
1000
1000
1000
0000
,
0010
0010
0010
0000
,
0100
0100
0100
0000
,
0001
0100
0001
0000
,
1000
0010
1000
0000
,
0001
0010
0001
0000
,
1001
0000
0000
0000
,
0001
0100
0100
0010
,
1000
0000
0100
0010
,
0010
0001
0100
0100
,
0010
1000
1000
0100
,
0010
0010
0001
0100
,
0100
0001
1000
1000
,
0100
0010
0010
0100
,
1000
1000
0010
0100
,
0100
0001
0010
0010
,
0001
1000
1000
0100
,
0010
0010
0100
1000
,
1000
1001
0110
1001
,
0000
0000
0000
0000
0001
0000
0000
0001
,
0000
0000
0001
0000
0000
0001
0000
0000
,
0001
0000
0000
0000
1000
0000
0000
1000
,
0000
0000
1000
0000
0000
1000
0000
0000
,
1000
0000
0001
0000
,
0000
1000
0000
0000
0001
0000
0000
0000
,
0000
1000
0000
0000
0001
0001
0000
0000
;

//--------------- dance-single - Pandemonium X ----------------
#NOTES:
     dance-single:
     Pandemonium X:
     Easy:
     10:
     0,0,0,0,0:
0000
0000
0000
0000
,
0000
0000
0000
0000
,
1002
0000
0000
0000
,
0000
0000
0000
0000
,
0023
0000
0000
0000
,
0000
0000
0000
0000
0000
0000
0000
0000
0000
0000
0000
0000
0000
0000
0000
0000
0000
0000
0000
0000
0000
0000
0000
0000
0000
0000
0000
0000
0000
0000
0000
0000
0000
0000
0000
0000
0000
0000
0000
0000
0000
0000
0000
0000
0000
0000
0000
0000
0000
0000
0000
0000
0000
0000
0000
0000
0000
0000
0000
0000
0000
0000
0000
0000
0000
0000
0000
0000
0000
0000
0000
0000
0000
0000
0000
0000
0000
0000
0000
0000
0000
0000
0000
0000
0000
0000
0000
0000
0000
0000
0000
0000
0000
0000
0000
0000
0031
0002
0000
0000
0000
0000
0000
0000
0000
0000
0000
0000
0000
0000
0000
0000
0000
0000
0000
0000
0000
0000
0000
0000
0000
0000
0000
0000
0000
0000
0000
0000
0000
0000
0000
0000
0000
0000
0000
0000
0000
0000
0000
0000
0000
0000
0000
0000
2003
0000
0000
0000
0000
0000
0000
0000
0000
0000
0000
0000
0000
0000
0000
0000
0000
0000
0000
0000
0000
0000
0000
0000
0000
0000
0000
0000
0000
0000
0000
0000
0000
0000
0000
0000
0000
0000
0000
0000
0000
0000
0000
0000
0000
0000
0000
0000
,
3020
0100
0100
0100
,
0100
0130
0020
1030
,
0200
0000
0000
0000
,
0020
0000
0000
0330
,
1001
1000
0010
0100
,
0001
0010
0100
0010
,
0001
1000
0010
1000
,
0001
0000
0010
0000
0100
0000
0010
0001
,
1000
0010
1000
0001
,
0010
0100
1000
0100
,
1000
0010
0100
0001
,
0010
0100
0010
0001
,
1000
1000
0100
0100
,
0010
0010
0001
0011
,
0001
0001
0010
0010
,
0100
0100
1000
1100
,
1000
0010
0100
0001
,
1000
0010
0100
0101
,
0001
0100
0010
1000
,
2002
0000
0000
3003
,
0101
0001
0010
0110
,
0100
1000
1010
1000
,
0001
0011
0001
1000
,
0110
0010
0001
0101
,
0001
0100
1010
0010
,
0100
0101
0001
1000
,
0011
0001
0100
1010
,
1000
0001
0011
0001
,
0010
0110
0100
1000
,
0011
1100
0011
0101
,
1010
0101
1001
1001
,
0110
1001
1001
1002
,
0013
0000
0000
0100
0000
0000
1000
0000
,
0000
0010
0000
0000
0100
0001
0100
0000
,
0001
0000
0000
1000
0000
0000
0100
0000
,
0000
0010
0000
0000
0100
1000
0100
0000
,
1000
0000
0000
0010
0000
0000
0100
0000
,
0000
0001
0000
0000
1000
0000
0001
0010
,
0100
0010
0001
1000
,
0010
0100
0001
1000
,
1001
0001
1000
1000
,
0100
1000
0010
0010
,
0100
0001
0010
0100
,
0010
0001
1000
0010
,
0101
0000
0000
0000
0001
0000
0010
0100
,
0000
0000
0000
0000
0000
0010
0001
1000
,
0100
0000
0000
0000
,
2002
0000
0000
3003
,
0001
0100
0010
1000
,
0100
0010
0001
0010
,
0001
0100
0010
1000
,
0001
0000
0010
0000
0100
0000
0010
0001
,
0100
0001
1000
0100
,
0010
0100
1000
0010
,
0100
0001
1000
0010
,
1000
0000
0100
0000
0010
0000
0100
1000
,
0010
0010
0100
0001
,
1000
1000
0001
0010
,
0100
0100
0010
0001
,
1000
0000
1000
0000
0001
0000
0010
0001
,
1000
0001
0100
0100
,
0001
1000
0010
0010
,
1000
0100
0010
0001
,
0220
0000
0000
0330
,
1001
0001
0100
1010
,
1000
0100
0011
0001
,
1000
1100
1000
0001
,
0101
0001
1000
1010
,
1000
0100
0011
0001
,
0100
1010
0010
0100
,
1001
0001
0010
0011
,
0010
0100
1100
0100
,
0010
0011
0001
0100
,
0110
0101
0110
1010
,
0110
1010
1001
0101
,
1001
1100
0011
2002
,
0000
0000
3003
0000
0001
0000
0000
1000
,
0000
0000
0100
0000
0000
0010
0000
0000
,
0100
0000
1000
0000
0001
0000
0000
0100
,
0000
0000
0010
0000
0000
1000
0000
0000
,
0001
1000
0110
0000
,
0000
1001
0000
0000
0110
0000
0000
0000
,
0000
1001
0000
0000
0110
0220
0000
0000
,
0000
0000
0000
0000
,
0000
0000
0330
0000
;

//--------------- dance-single - Pandemonium X ----------------
#NOTES:
     dance-single:
     Pandemonium X:
     Medium:
     15:
     0,0,0,0,0:
0000
0000
0000
0000
,
0000
0000
0000
0000
,
1001
0001
1000
1000
,
0100
0010
0001
0100
,
1001
1000
0001
0001
,
1000
0000
0000
0000
0100
0000
0000
0000
0011
0000
0010
0000
0100
0000
0000
0100
,
0010
0000
0001
0010
0001
0010
0001
1000
,
0100
1000
0100
1000
1001
1000
0001
1000
,
0100
0010
0100
1000
0001
0100
0010
1000
,
0001
0000
0001
0000
0000
0000
0000
0000
1001
0000
1000
0001
1000
0000
0001
1000
,
0001
0010
0100
1000
0001
0100
0010
1000
,
0100
0010
0100
1000
0010
0100
1000
0100
,
0001
0100
0010
1000
0100
0010
0100
1000
,
0001
0010
0100
0010
0000
0100
1000
0001
,
0100
0010
1000
0100
1000
0001
0100
0001
,
0010
0100
0010
0001
1000
0001
0010
1000
,
0010
0100
0010
0100
1000
0010
0100
0001
,
1000
0000
0001
0010
0001
0000
0000
0000
1000
0001
1000
0001
1000
0001
1000
0001
,
0100
0010
1000
0001
0100
0010
1000
0001
,
0100
0000
0010
0000
1000
0000
0001
0000
0100
0000
0010
0000
1000
0010
1000
0010
,
1000
0100
0010
0001
1000
0100
0010
0001
,
1000
0000
0100
0000
0010
0000
0001
0000
1000
0000
0100
0000
0010
0100
1000
0001
,
0010
0100
1000
0001
0100
0010
1000
0001
,
0010
0000
0100
0000
1000
0000
0010
0000
0100
0000
0001
0000
1000
0100
1000
0001
,
0010
0100
1000
0001
0010
0100
1000
0001
,
0010
0001
1000
0100
0010
0100
1000
0001
,
0012
0100
1003
2010
,
0100
3001
1020
0100
,
1030
0201
0010
0301
,
2001
0100
3010
1002
,
0010
0103
0201
0010
,
0301
2010
0100
3010
,
1200
0010
1000
0010
,
0310
1001
0201
0010
,
0001
0010
0310
1001
,
2010
0100
3010
0012
,
0100
1003
1020
0130
,
0021
0130
0110
1002
,
0103
0001
0010
0100
0010
0001
0100
0010
,
1000
0100
0010
0100
1000
0001
0011
0000
,
0010
0001
0100
0010
1000
0100
0010
0100
,
1000
0001
0100
0001
1000
0010
1010
0000
,
1000
0001
0010
0100
1000
0010
1000
0100
,
0010
0000
0001
0000
0100
0000
0010
0000
1001
0000
0000
0000
1000
0100
0010
0001
,
2000
3100
0021
0130
,
2100
0000
0000
0000
3010
0000
0100
0000
0001
0000
0000
0000
1000
0100
1000
0100
,
0010
0001
0100
0001
1000
1000
0100
0000
,
0011
0000
0001
0010
0001
0100
0010
1000
,
0100
0010
0100
1000
0001
0010
0001
1000
,
0001
0000
0001
0010
1000
0010
0100
0010
,
0011
0000
0000
0001
0010
1000
0010
0100
,
0000
0000
0000
0000
0000
0010
0001
0100
,
1010
0000
0000
0000
,
0001
0100
0001
0000
0100
0010
0100
0000
0010
1000
0010
0000
1000
0100
1000
0000
,
0001
0010
0001
0100
0010
1000
0100
0010
,
0001
0010
0001
0100
0010
1000
0001
0010
,
0001
1000
0010
1000
0100
0010
0100
1000
,
0001
0100
0001
0010
0001
0100
0010
1000
,
0100
0010
0100
1000
0010
0100
0001
0010
,
0100
0010
0001
1000
0100
0010
0100
1000
,
0010
1000
0001
0100
0010
1000
0001
0010
,
0001
1000
0100
0010
0100
1000
1001
0000
,
0001
1000
0100
0001
0100
1000
0010
0100
,
0001
0010
1000
0010
0001
0010
0100
1000
,
0001
0100
1000
0100
0001
0100
0010
1000
,
0001
0100
1000
0100
0010
1000
0001
0010
,
0100
1000
0100
1000
0100
0010
0001
0100
,
0010
0100
0010
0100
0010
1000
0001
0010
,
0100
1000
0100
1000
0100
0010
0001
1000
,
0010
0100
0001
1000
0100
0010
0001
1000
,
1020
0100
1030
2100
,
0010
3001
0021
0100
,
0031
0201
0010
0301
,
1002
0100
0013
0021
,
0100
0031
2100
0010
,
3100
0201
0010
0301
,
0102
0010
0100
1000
,
1003
1001
2100
0010
,
0100
0001
3001
1001
,
0201
0010
0301
1020
,
0100
1030
2100
0010
,
3100
0102
0010
2000
,
0000
0000
3003
0000
0101
0100
0010
1010
,
1000
0100
0110
0010
0001
0101
0100
0001
,
1000
0100
0010
0001
1001
0001
0010
0110
,
0100
1000
1001
1000
0100
0110
0010
0001
,
0011
0010
0110
1100
1001
0000
0000
0000
,
0000
2100
0000
0000
3010
0000
0000
0000
,
0000
0201
0000
0000
0310
0220
0000
0000
,
0000
0000
0000
0000
,
0000
0000
0330
0000
;

//--------------- dance-single - Pandemonium X ----------------
#NOTES:
     dance-single:
     Pandemonium X:
     Hard:
     17:
     0,0,0,0,0:
0000
0000
0000
0000
,
1000
0100
0010
0001
0010
0100
0010
0001
1000
0100
0010
0001
0010
0100
1000
0000
,
0001
0001
0001
0001
,
0001
0001
0001
0001
,
1000
1000
1000
1000
,
1000
0000
0000
0000
1000
0000
0000
0000
1000
0000
1000
0000
1000
0000
0000
1000
,
0100
0100
0100
0100
,
0100
0100
0010
0010
,
0001
1000
0001
1000
0001
1000
0001
1000
0001
1000
0001
1000
0001
1000
0001
1000
,
0010
0000
0000
0000
0000
0000
0000
0000
0000
0000
0000
0000
0100
0000
0000
0010
0100
0010
0100
0000
0000
0010
0100
0010
,
0100
0001
0010
0001
1000
0010
1000
0100
,
0010
0100
1000
0010
0000
0100
0001
0010
,
0100
0010
0001
1000
0010
1000
0100
0010
,
0001
0000
0100
0000
0001
0000
0010
0000
0000
0000
0100
0000
0010
0000
0000
0001
,
1000
0100
1000
0010
0100
0010
1000
0100
,
1000
0001
0100
0001
0000
0010
0100
1000
,
0001
1000
0001
0100
0001
0010
0001
1000
,
1100
0000
0110
0000
0011
0000
0000
0000
0001
1000
0001
1000
0001
1000
0001
1000
,
0001
0001
0100
0100
0010
0010
1000
1000
,
0100
0000
0100
0000
0010
0000
0010
0000
0001
0000
0001
0000
0010
0100
1000
0100
,
0010
0010
0001
0001
0100
0100
0010
0010
,
1000
0000
1000
0000
0001
0000
0001
0000
0010
0000
0010
0000
0100
0010
0001
1000
,
0010
0010
0001
0001
0010
0010
1000
1000
,
0100
0000
0100
0000
0001
0000
0001
0000
0100
0000
0100
0000
0010
0100
0010
0001
,
1000
1000
0100
0100
0001
0001
0100
0100
,
0010
0001
0010
0001
0010
0001
0010
0001
0010
0001
0010
0001
0010
0001
0010
0001
,
0010
0000
0000
0000
0010
0100
0000
0000
0100
1000
0000
0000
1000
0010
0000
0000
,
0200
0000
0000
0000
0001
0000
0000
0000
0310
0100
0000
0000
0100
0010
0000
0000
,
0010
1000
0000
0000
1000
0100
0000
0000
0100
0010
0000
0000
0010
0001
0000
0000
,
0001
0010
0000
0000
0010
0100
0000
0000
0100
1000
0000
0000
1000
0001
0000
0000
,
0002
0000
0000
0000
0010
0000
0000
0000
1003
0001
0000
0000
0001
0010
0000
0000
,
0010
0100
0000
0000
0100
1000
0000
0000
1000
0010
0000
0000
0010
0100
0000
0010
,
1000
0000
0000
0000
1000
0100
0000
0000
0100
0010
0000
0000
0010
0001
0000
0000
,
0001
0100
0000
0000
0100
0010
0000
0000
0010
1000
0000
0000
0001
0100
0000
0000
,
0001
0010
0000
0000
0100
1000
0000
0000
0001
1000
0000
0000
0010
1000
0000
0000
,
0001
0010
0000
0000
0010
0100
0000
0000
0100
1000
0000
0000
0001
0100
0000
0000
,
0100
0010
0000
0000
0010
1000
0000
0000
0001
1000
0000
0000
1000
0100
0000
0000
,
0010
0001
0000
0000
0001
1000
0001
1000
0001
1000
0001
1000
0001
1000
0001
1000
,
0001
0100
0010
0100
0001
0010
0100
0010
,
0001
0100
0010
0100
0001
0010
1001
0000
,
1000
0010
0100
0010
1000
0100
0010
0100
,
1000
0000
0010
0000
0100
0000
0010
0000
1000
0000
0100
0000
1001
0000
0000
0001
,
0010
0001
1000
0010
1000
0001
0010
0001
,
1000
0000
0010
0000
1000
0000
0001
0000
0010
0000
0000
0000
0100
0010
0001
1000
,
0010
0000
0000
0010
0100
0000
0000
0010
1000
0000
0000
1000
0001
0000
0000
0001
,
0010
0000
0000
0010
0100
0000
0001
0000
0100
0000
1000
0000
0010
0100
0010
0100
,
0001
0000
1000
0001
0010
0010
0110
0000
,
0011
0000
0001
0100
0100
0001
1000
0100
,
0110
0010
0001
0100
0110
0010
1010
0000
,
1100
0000
1000
0100
0011
1100
1001
0101
,
1001
0000
0000
0001
0100
1000
0100
0101
,
0001
0000
1000
0000
0001
0001
0010
0100
,
1001
1000
0100
0010
,
2002
0000
0000
3003
,
0001
0100
0001
0000
0100
0010
0100
0000
0010
1000
0010
0000
1000
0000
0100
0000
,
1000
0100
1000
0000
0001
0010
0001
0000
0010
0100
0010
0000
0100
0000
0010
0000
,
0001
1000
0001
0000
0100
0001
0100
0000
0010
0100
0010
0000
0100
0000
0001
0000
,
0010
0100
0010
0000
0100
1000
0100
0000
1000
0010
1000
0000
0010
0000
1000
0000
,
0100
0010
0001
0000
0100
0010
1000
0000
0001
0010
0001
0000
0010
0000
0001
0000
,
1000
0010
0100
0000
0010
1000
0100
0000
0010
0100
0010
0000
0100
0000
1000
0000
,
0010
1000
0100
0000
1000
0001
0010
0000
0100
0010
0100
0000
0010
0000
0001
0000
,
1000
0000
0000
0010
0000
0000
0100
0000
0000
0000
0000
0000
0001
0000
0000
1000
0000
0000
0100
0000
0000
0000
0000
0000
0010
0000
0000
0100
0000
0000
0010
0000
0000
0000
0000
0000
0001
0000
0000
0000
0000
0000
1000
0000
0001
0000
1000
0000
,
0001
0100
0001
0100
0010
1000
0100
0010
0100
1000
0100
1000
0010
0100
0001
0100
,
0001
0010
0001
0010
0100
1000
0100
1000
0010
0100
0001
1000
0100
0000
0000
0000
,
1000
0010
1000
0100
0010
0100
0010
0100
1000
0001
1000
0100
0010
0100
1000
0010
,
1000
0001
0100
0001
0010
0001
0100
0010
1000
0001
0010
0100
1000
0000
0000
0001
,
0100
0010
0100
0010
1000
0010
1000
0001
0010
0100
0010
0001
1000
0010
1000
0001
,
0010
0001
0010
0100
0010
0001
1000
0001
1000
0100
0010
0001
1000
0000
0001
0000
,
0100
0001
0010
0001
1000
0010
1000
0100
0010
0100
1000
0001
0100
0010
1000
0100
,
0010
0001
0010
0001
0010
0001
0010
0001
0010
0001
0010
0001
0010
0001
0010
0001
,
0100
0000
0000
0000
0010
1000
0000
0000
1000
0100
0010
0001
1000
0000
0000
0000
,
0201
0000
0000
0000
0010
0000
0000
0000
0301
0010
0000
0000
0100
1000
0000
0000
,
1000
0010
0000
0000
0010
0100
0000
0000
0100
0001
0000
0000
0001
0010
0100
0000
,
1001
0000
0000
0000
0100
1000
0000
0000
1000
0001
1000
0000
1001
0000
0000
0001
,
0010
0000
0100
0000
0010
0000
0001
1000
0100
0000
0000
0000
0100
0010
0000
0000
,
0010
0001
0000
0000
0001
0100
0010
0000
1000
0000
0100
0000
0110
0000
0011
0000
,
1001
0000
0000
0000
0001
0010
0000
0000
0010
0100
0000
0000
2100
0000
0000
0000
,
0010
0000
0000
0000
3001
0000
0100
0001
0100
0000
0000
0000
0100
0010
0000
0100
,
0010
0000
0000
0000
1000
0100
0000
0000
0100
0010
0000
0000
0010
0001
0000
0000
,
1000
0010
0000
0000
0100
0001
0000
0000
0010
0100
0000
0000
0010
0001
0000
0000
,
1000
0100
0000
0000
0010
0001
0000
0000
1000
0010
0000
0000
0100
0001
0000
0000
,
0010
0100
0010
0100
0010
0100
0010
0100
0010
0100
0010
0100
0010
0001
1000
0010
,
0000
0000
0000
0000
1010
0010
0100
0101
,
0001
0010
0110
0100
1000
1010
0100
0001
,
0011
0110
1100
1001
0101
0100
0010
1010
,
1000
0100
0110
0010
0001
1001
0001
0100
,
0110
0101
0011
0110
1100
0000
0000
0000
,
0000
0011
0000
0000
1010
0000
0000
0000
,
0000
0110
0000
0000
1001
2002
0000
0000
,
0000
0000
0000
0000
,
0000
0000
3003
0000
;

//--------------- dance-double - Pandemonium X ----------------
#NOTES:
     dance-double:
     Pandemonium X:
     Easy:
     9:
     0,0,0,0,0:
00000000
00000000
00000000
00000000
,
00000000
00000000
00000000
00000000
,
00011000
00001000
00001000
00001000
,
00001000
00001000
00001000
00001000
,
01000000
01000000
01000000
01000000
,
01000000
01000000
10000000
01000000
,
00010000
00010000
00010000
00010000
,
00010000
00010000
00100000
00100000
,
00001000
00001000
00001000
00001000
,
00022000
00000000
00000000
00033000
,
00010000
00000100
00001000
00000010
,
00000100
00000001
00000010
00000001
,
00000100
00000010
00001000
00000100
,
00010000
00001000
01000000
00010000
,
00100000
01000000
00100000
00010000
,
01000000
10000000
01000000
00010000
,
00100000
00001000
00010000
00000100
,
00001000
00000100
00000010
00001000
,
00000001
00000001
00001000
00001000
,
00000100
00000000
00000100
00000000
00010000
00000000
00001000
01000000
,
00001000
00001000
01000000
01000000
,
00100000
00000000
00100000
00000000
10000000
00000000
01000000
00100000
,
01000000
01000000
10000000
10000000
,
00010000
00000000
00010000
00000000
01000000
00000000
00010000
01000000
,
00010000
00010000
00100000
00100000
,
00001000
00010000
00000100
00001000
,
00000010
00000100
00000100
00000001
,
00000010
00000010
00000100
00001000
,
00001000
00000100
00010000
00010000
,
00001000
01000000
01000000
00010000
,
00100000
00100000
01000000
10000000
,
10000000
00010000
00100000
00100000
,
00001000
00010000
00000100
00001000
,
00001000
00001000
00000010
00000100
,
00000001
00000010
00000010
00000010
,
00000100
00001000
00001100
00000100
,
00010000
00010100
00010000
00001000
,
01001000
01000000
01100000
20010000
,
31000000
00000000
00000000
00100000
00000000
00000000
00001000
00000000
,
00000000
00010000
00000000
00000000
00000100
00001000
00000100
00000000
,
00001000
00000000
00000000
00000010
00000000
00000000
00000100
00000000
,
00000000
00000001
00000000
00000000
00000010
00000100
00001000
00000000
,
00000100
00000000
00000000
00010000
00000000
00000000
00001000
00000000
,
00000000
01000000
00000000
00000000
00100000
00000000
01000000
00010000
,
00100000
00100000
01000000
01000000
,
10000000
00000000
01000000
00000000
00100000
00000000
00001000
00010000
,
00011000
00000000
00010000
00000010
,
00000100
00000001
00000010
00000010
,
00000100
00001000
00000100
00010000
,
00001000
01000000
00100000
10000000
,
11000000
00000000
00000000
00000000
10000000
00000000
01000000
00100000
,
00000000
00000000
00000000
00000000
00000000
00010000
00100000
00001000
,
00010000
00000000
00000000
00000000
,
00022000
00000000
00000000
00033000
,
00001000
00010000
00000100
00001000
,
00000010
00000100
00000001
00000010
,
00000100
00000010
00000001
00001000
,
00000100
00010000
00001000
01000000
,
01100000
00100000
01000000
00010000
,
00100000
01000000
10000000
00010000
,
00100000
00001000
00010000
00000010
,
00000100
00000001
00000010
00000100
,
00001000
00001000
00001000
00000100
,
00010000
00010000
00010000
00001000
,
01000000
01000000
01000000
00010000
,
00100000
01000000
10000000
00010000
,
00100000
00001000
00010000
00000100
,
00001000
00000010
00000100
00000001
,
00000010
00000100
00010000
00001000
,
00022000
00000000
00000000
00033000
,
01000000
00010000
00010000
00100000
,
01000000
01000000
10000000
01000000
,
00010000
00001000
00000100
00000010
,
00000001
00000001
00001000
00000001
,
00000001
00000100
00000100
00001000
,
00010000
00100000
01000000
00010000
,
00100000
00010000
00010000
00100000
,
00001000
00001000
00010000
00000100
,
00001000
00010000
00100000
01000000
,
00010000
10000000
10000000
01000000
,
10000000
10000000
10000000
01000000
,
00100000
00010000
00001000
00000200
,
00000000
00000000
00000000
00000000
00000310
00000000
00000000
00000001
,
00000000
00000000
00000100
00000000
00000000
00001000
00000000
00000000
,
00010000
00000000
00100000
00000000
01000000
00000000
00000000
00010000
,
00000000
00000000
00100000
00000000
00000000
00001000
00000000
00000000
,
00010000
00000100
00011000
00000000
,
00000000
01000000
00000000
00000000
00011000
00000000
00000000
00000000
,
00000000
00000100
00000000
00000000
00011000
00022000
00000000
00000000
,
00000000
00000000
00000000
00000000
,
00000000
00000000
00033000
00000000
;

//--------------- dance-double - Pandemonium X ----------------
#NOTES:
     dance-double:
     Pandemonium X:
     Medium:
     15:
     0,0,0,0,0:
00000000
00000000
00000000
00000000
,
00000000
00000000
00000000
00000000
,
00011000
00001000
00001000
00001000
,
00001000
00000000
00000000
00000000
00001000
00000000
00000000
00001000
00000000
00000000
00000000
00000000
00001000
00000000
00000000
00000000
,
00001200
00001000
00001000
00001000
,
00001000
00001300
00000011
00001001
,
00001020
00000100
00001000
00000100
,
00001000
00000130
00002001
00003100
,
00012000
00100000
00100000
00103000
,
22000000
00000000
00000000
33000000
,
00110000
00100000
10000000
00100000
00010000
01000000
00001000
00010000
,
00000100
00001000
00000010
00000100
00000000
00000100
00001000
00000100
,
00000001
00000100
00000010
00001000
00000100
00010000
00001000
01000000
,
00100000
10000000
01000000
00100000
00000000
00100000
10000000
00100000
,
00010000
01000000
00100000
10000000
00010000
00100000
00001000
00010000
,
00000010
00000100
00000001
00000010
00000000
00000010
00001000
00000010
,
00000001
00000100
00000010
00001000
00000100
00010000
00001000
01000000
,
00010000
00000000
00100000
00000000
01000000
00000000
00100000
00000000
00010000
00100000
00010000
00100000
00010000
00100000
00010000
00100000
,
00010000
01000000
00100000
10000000
00010000
00100000
00001000
00010000
,
00000010
00000000
00000100
00000000
00000001
00000000
00000010
00000000
00000100
00000000
00001000
00000000
00000001
00001000
00000001
00001000
,
00000001
00000010
00000100
00001000
00000100
00010000
00001000
01000000
,
00100000
00000000
10000000
00000000
00010000
00000000
00100000
00000000
01000000
00000000
10000000
00000000
00010000
01000000
00010000
01000000
,
00010000
00100000
00010000
10000000
01000000
00100000
00001000
00010000
,
00000010
00000000
00000100
00000000
00000001
00000000
00001000
00000000
00000100
00000000
00000010
00000000
00000001
00001000
00000001
00001000
,
00000001
00000100
00001000
00010000
00100000
10000000
01000000
00100000
,
00010000
00001000
00100000
00010000
01000000
00001000
00010000
00000100
,
00010200
00010000
00001300
00001020
,
00020030
00031000
00012000
00100000
,
00013000
02010000
00100000
03010000
,
00102000
00010000
00103000
00210000
,
00001000
00310000
00021000
00000100
,
00031000
00002100
00000010
00003100
,
00000102
00000010
00000100
00001000
,
00001003
00001010
00001200
00001000
,
00010000
00001000
00001300
00011000
,
00012000
01003000
01100000
02100000
,
03010000
00011000
00021000
00030100
,
00001100
00001020
00010030
00012000
,
00013000
00000100
00001000
00000100
00010000
00000100
00001000
00000100
,
00010000
00000100
00001000
00000100
00010000
00001000
00011000
00000000
,
00001000
01000000
00001000
00010000
00001000
01000000
00001000
00010000
,
00001000
00000000
01000000
00000000
00001000
00000000
00010000
00000000
00001000
00000000
01000000
00000000
01001000
00000000
00000000
00010000
,
01000000
00010000
00100000
00001000
00010000
00000010
00001000
00000010
,
00010000
00000000
00001000
00000000
00100000
00000000
00010000
00000000
01000000
00000000
00000000
00000000
00010000
00100000
00010000
00000000
,
21000000
30100000
02010000
03001000
,
00021000
00000000
00000000
00000000
00030100
00000000
00001000
00000000
00000010
00000000
00000100
00000000
00000001
00001000
00000001
00001000
,
00000001
00000000
00001000
00001000
00000100
00010000
00000010
00000000
,
00000110
00000000
00000100
00001000
00000100
00000001
00001000
00000100
,
00010000
00010000
00001000
01000000
00100000
00100000
00010000
00100000
,
10000000
00000000
10000000
01000000
00010000
01000000
00100000
00001000
,
00011000
00000000
00000000
00010000
00000100
00001000
00000010
00000010
,
00000000
00000000
00000000
00000000
00000000
00000100
00001000
00010000
,
00011000
00001000
00000000
00001000
,
00210000
01000000
00010000
01300000
,
00110000
00100000
00010000
01000000
00100000
10000000
00010000
00100000
,
00001000
00010000
00000010
00000100
00001000
00000100
00000001
00000010
,
00001000
00000010
00000001
00000010
00000100
00001000
00000010
00000100
,
00000010
00000000
00001000
00000000
00000100
00000000
00010000
00000000
00001000
00000000
01000000
00000000
00010000
00000000
00100000
01000000
,
00100000
01000000
10000000
00100000
01000000
00010000
00100000
00001000
,
00010000
00000010
00000100
00000001
00000010
00000001
00000100
00000010
,
00001000
00000100
00010000
00001000
01000000
00100000
10000000
00010000
,
00100000
00000000
01000000
00000000
00100000
00000000
00001000
00000000
00010000
00000000
00000100
00000000
00001000
00000000
00000010
00000100
,
00000010
00001000
00000010
00000000
00000100
00000001
00000100
00000000
00000001
00000010
00000001
00000000
00000010
00000000
00000100
00000000
,
00001000
00000100
00001000
00000000
00000100
00010000
00000100
00000000
00010000
00001000
00010000
00000000
00001000
00000000
01000000
00000000
,
00100000
10000000
00100000
00000000
01000000
00010000
01000000
00000000
00100000
10000000
00100000
00000000
10000000
00000000
00010000
00000000
,
00100000
00001000
00100000
00000000
00001000
00010000
00001000
00000000
00010000
00000100
00010000
00000000
00000100
00000000
00001000
00000000
,
00000010
00000100
00000001
00000000
00000010
00000100
00001000
00000000
00000100
00010000
00001000
00000000
00010000
00000000
00000100
00000000
,
00010000
00001000
01000000
00000000
00100000
10000000
00010000
00000000
00100000
01000000
10000000
00000000
00010000
00000000
01000000
00000000
,
00100000
10000000
01000000
00000000
00100000
00010000
01000000
00000000
00010000
00000000
00100000
00000000
00001000
00000000
00010000
00000000
,
00022000
00000000
00000000
00033000
,
00001020
00000100
00001030
00000102
,
00000023
00000130
00001200
00010000
,
00001300
00002010
00000100
00003010
,
00012000
00010000
00103000
00210000
,
00010000
01300000
21000000
00100000
,
30010000
01020000
00100000
01030000
,
10020000
00100000
01000000
10000000
,
10030000
01010000
00210000
00001000
,
00010000
00001000
00301000
00011000
,
00010200
00001000
00000310
00000021
,
00000100
00000031
00000101
00001010
,
00001100
00010100
01001000
00011000
,
00000000
00000000
00000000
00000000
00001000
01000000
01000000
00100000
,
10000000
10000000
01000000
00100000
00100000
00001000
00010000
00010000
,
00000100
00001000
00000010
00000001
00000010
00001000
00001000
00000100
,
00000010
00000010
00000001
00001000
00001000
00000100
00010000
00010000
,
00001000
01000000
00100000
10000000
10010000
00000000
00000000
00000000
,
00000000
00101000
00000000
00000000
00010100
00000000
00000000
00000000
,
00000000
00001001
00000000
00000000
00000110
00000220
00000000
00000000
,
00000000
00000000
00000000
00000000
,
00000000
00000000
00000330
00000000
;

//--------------- dance-double - Pandemonium X ----------------
#NOTES:
     dance-double:
     Pandemonium X:
     Hard:
     17:
     0,0,0,0,0:
00000000
00000000
00000000
00000000
,
00000000
00000000
00000000
00000000
,
00021000
00000100
00001000
00000100
,
00001000
00000100
00001000
00030100
,
00002100
00000010
00000100
00000010
,
00000100
00000000
00000000
00000000
00003010
00000000
00000000
00000000
00000110
00000000
00000000
00000000
00001010
00000000
00000000
00000001
,
00002000
00000001
00000010
00000001
,
00000010
00003001
00001020
00010030
,
00001000
00010000
00001000
00010000
00001000
00010000
00001000
00010000
00001000
00010000
00001000
00010000
00001000
00010000
00001000
00010000
,
00000020
00000000
00000000
00000000
00000000
00000000
00000000
00000000
00000000
00000000
00000000
00000000
00000130
00000000
00000000
00000010
00001000
00000010
00001000
00000000
00000000
00000001
00000100
00000001
,
00000100
00001000
00000100
00000010
00010000
00001000
00100000
00001000
,
01000000
10000000
01000000
00010000
00000000
00010000
00100000
01000000
,
10000000
01000000
00010000
00100000
00001000
00010000
00000010
00000100
,
00001000
00000000
00000100
00000000
00000001
00000000
00001001
00000000
00000000
00000000
00000011
00000000
00000011
00000000
00000000
00000100
,
00001000
00000010
00000100
00001000
00010000
00001000
01000000
00100000
,
10000000
01000000
00010000
01000000
00000000
00100000
01000000
10000000
,
00010000
01000000
10000000
01000000
00001000
00010000
00000100
00001000
,
00000010
00000000
00000100
00000000
00000001
00000000
00000010
00000000
00000100
00010000
00000100
00010000
00000100
00010000
00000100
00010000
,
00001000
01000000
10000000
01000000
00001000
00010000
00000100
00000001
,
00000100
00000000
00010000
00000000
00001000
00000000
00100000
00000000
00001000
00000000
00010000
00000000
00000100
00001000
00000010
00000100
,
00000010
00000100
00001000
00010000
00100000
01000000
10000000
01000000
,
00010000
00000000
00100000
00000000
00010000
00000000
00100000
00000000
01000000
00000000
00100000
00000000
00010000
00100000
01000000
10000000
,
01000000
01000000
00100000
00010000
00001000
00000100
00000010
00000001
,
00000010
00000000
00001000
00000000
00000010
00000000
00000001
00000000
00000100
00000000
00001000
00000000
00000100
00000010
00001000
00000010
,
00000100
00001000
00010000
00100000
01000000
10000000
01000000
00010000
,
00100000
00001000
00100000
00001000
00100000
00001000
00100000
00001000
00100000
00001000
00100000
00001000
00100000
00001000
00100000
00001000
,
00010000
00010100
00001010
00000101
,
00000011
00000110
00001100
00000011
,
00001100
00001001
00001010
00010010
,
00011000
00010100
00011000
01001000
,
01001000
01100000
10010000
11000000
,
00110000
10010000
10010000
10100000
,
11000000
01100000
00110000
00011000
,
00011000
00011000
00001100
00000110
,
00000011
00001001
00001001
00001001
,
00001010
00110000
00011000
00001100
,
01010000
00011000
00100010
01001000
,
00011000
01000100
00010100
00012000
,
01003000
00100000
00010000
00100000
01000000
00010000
00100000
01000000
,
10000000
00010000
00100000
00001000
00010000
00000100
00010100
00000000
,
00010000
00000010
00000100
00001000
00000100
00000001
00001000
00000001
,
00000010
00000000
00001000
00000000
00000010
00000000
00000001
00000000
00000010
00000000
00000100
00000000
00001100
00000000
00000000
00000001
,
00000100
00001000
00000100
00010000
00001000
01000000
00010000
00100000
,
10000000
00000000
00100000
00000000
00001000
00000000
00010000
00000000
00000100
00000000
00000000
00000000
00001000
00000010
00010000
00001000
,
01000000
00000000
00000000
00001000
01000000
00000000
00000000
01000000
00100000
00000000
00000000
00100000
10000000
00000000
00000000
10000000
,
01000000
00000000
00100000
00000000
00010000
00000000
00001000
00000000
00000100
00000000
00000010
00000000
00000001
00001000
00000001
00001000
,
00000001
00000000
00001000
00001000
00000100
00010000
00011000
00000000
,
01001000
00000000
01000000
00100000
01000000
00010000
01000000
00100000
,
10100000
10000000
01000000
00010000
01000000
10000000
00010000
00000000
,
00101000
00000000
00010000
00000100
00001000
00001000
00000010
00000100
,
00000101
00000000
00000000
00000100
00001000
00010000
00000010
00001000
,
00000001
00000000
00001000
00000000
00000010
00000010
00010000
00001000
,
01001000
01000000
00100000
10000000
,
02020000
00000000
00000000
03030000
,
10000000
01000000
10000000
00000000
00010000
00100000
00010000
00000000
00100000
00001000
00100000
00000000
00001000
00000000
00010000
00000000
,
00000100
00001000
00000100
00000000
00001000
00000010
00001000
00000000
00000010
00000100
00000010
00000000
00000100
00000000
00000001
00000000
,
00001000
00000100
00001000
00000000
00000100
00010000
00000100
00000000
00010000
00001000
00010000
00000000
00001000
00000000
01000000
00000000
,
00010000
00100000
00010000
00000000
10000000
01000000
10000000
00000000
00100000
10000000
00100000
00000000
01000000
00000000
00001000
00000000
,
00010000
00000100
00001000
00000000
00001000
00000100
00000010
00000000
00000010
00000001
00000100
00000000
00000010
00000000
00001000
00000000
,
00000100
00010000
00001000
00000000
00001000
01000000
00100000
00000000
00100000
10000000
01000000
00000000
00100000
00000000
00001000
00000000
,
00010000
00000100
00001000
00000000
00001000
00000010
00000100
00000000
00000100
00000001
00000010
00000000
00000100
00000000
00001000
00000000
,
00000100
00010000
00001000
00000000
00001000
01000000
00100000
00000000
00100000
01000000
00001000
00000000
00011000
00000000
00000000
00000000
,
00010000
00000100
00010000
00000100
00001000
00000100
00001000
00000100
00001000
00000010
00001000
00000010
00000100
00000001
00000100
00000001
,
00000010
00000100
00000010
00000100
00001000
00000100
00001000
00000100
00010000
00000100
00010000
00000100
00010000
00000000
00000000
00000000
,
00001000
01000000
00001000
01000000
00100000
01000000
00100000
01000000
00010000
01000000
00010000
01000000
00010000
00100000
00010000
00100000
,
01000000
10000000
01000000
10000000
00010000
10000000
00010000
10000000
00100000
10000000
00100000
10000000
00100000
00000000
00000000
01000000
,
00010000
00100000
00010000
00100000
00001000
00100000
00001000
00010000
00001000
00010000
00000100
00010000
00000010
00001000
00000010
00000100
,
00000010
00000100
00000001
00000100
00000001
00000010
00000001
00000010
00000100
00000010
00000100
00001000
00000100
00000000
00010000
00000000
,
00001000
00010000
00001000
00100000
00001000
00100000
00010000
00100000
01000000
10000000
01000000
10000000
00100000
10000000
00010000
01000000
,
00010000
00100000
00001000
00010000
00000010
00000100
00000001
00000010
00000100
00001000
00000100
00010000
00001000
00100000
00010000
10000000
,
01000000
00110000
11000000
10010000
,
01010000
00011000
00001100
00000011
,
00000101
00001010
00001100
00010100
,
00011000
01001000
01100000
10010000
,
00101000
00011000
00010100
00001100
,
00001010
00000101
00000011
00000110
,
00001001
00011000
10010000
01100000
,
01010000
10100000
10010000
00011000
,
00001001
00000110
00001010
00001001
,
00001001
00011000
10010000
00011000
,
00001001
00011000
00100010
00011000
,
01000100
00011000
00100010
02000200
,
00000000
00000000
00000300
00000000
03010000
00100000
01000000
11000000
,
10000000
00100000
01010000
01000000
10000000
11000000
01000000
00010000
,
00110000
00100000
00101000
00001000
00011000
00010000
00000100
00001100
,
00001000
00000010
00000110
00000100
00001000
00001100
00001000
00000100
,
00000101
00000001
00000110
00001100
00010100
00000000
00000000
00000000
,
00000000
00100010
00000000
00000000
01000100
00000000
00000000
00000000
,
00000000
00100010
00000000
00000000
00011000
00022000
00000000
00000000
,
00000000
00000000
00000000
00000000
,
00000000
00000000
00033000
00000000
;
