#TITLE:quasar;
#SUBTITLE:;
#ARTIST:Outphase;
#TITLETRANSLIT:;
#SUBTITLETRANSLIT:;
#ARTISTTRANSLIT:;
#GENRE:;
#CREDIT:;
#MUSIC:quasar.ogg;
#BANNER:;
#BACKGROUND:;
#CDTITLE:;
#SAMPLESTART:72.019;
#SAMPLELENGTH:12.411;
#SELECTABLE:YES;
#OFFSET:0.751;
#BPMS:0.000=155.000;
#STOPS:;
#BGCHANGES:8.500=quasar.mp4=1.000=0=0=1,
99999.000=-nosongbg-=1.000=0=0=0=StretchNoLoop====
;
#FGCHANGES:;

//--------------- dance-single - Pandemonium X ----------------
#NOTES:
     dance-single:
     Pandemonium X:
     Beginner:
     3:
     0,0,0,0,0:
0000
0000
0000
0000
,
0000
0000
0000
0000
,
0000
0000
0000
0000
,
0000
0000
0000
0000
,
0000
0000
0000
0000
,
0000
0000
0000
0000
,
0000
0000
0000
0000
,
0010
0000
1000
0000
,
0100
0000
1000
0000
,
0000
0000
0000
0000
,
0000
0000
0000
0000
,
0010
0000
0100
0000
,
0001
0000
0100
0000
,
0000
0000
0000
0000
,
0000
0000
0000
0000
,
0010
0000
1000
0000
,
0001
0000
0100
0000
,
0010
0000
1000
0000
,
0001
0000
1000
0000
,
0001
0000
0010
0000
,
0001
0000
0100
0000
,
0001
0000
0010
0000
,
0002
0000
0000
0003
,
0110
0000
0000
0000
0000
1000
0000
0000
,
1000
0000
0000
1000
0000
0000
1000
0000
,
0000
0000
0000
0000
0000
0001
0000
0000
,
0001
0000
0000
0001
0000
0000
0001
0000
,
0000
0000
0000
0000
0000
0100
0000
0000
,
0100
0000
0000
0100
0000
0000
0100
0000
,
0000
0000
0000
0000
,
0010
0000
0000
0000
,
1000
0000
0000
0000
,
0001
0000
0000
0000
,
0010
0000
0000
0000
,
0100
0000
0000
0000
,
0010
0000
0000
0000
,
0001
0000
0000
0000
,
1000
0000
0000
0000
,
0010
0000
0000
0000
,
0100
0000
0000
0000
,
0010
0000
0000
0000
,
1000
0000
0000
0000
,
0001
0000
0000
0000
,
0010
0000
0000
0000
,
0100
0000
0000
0000
,
1000
0000
0000
0000
,
0010
0000
0000
0000
,
0100
0000
0001
0000
,
1000
0000
0000
0000
,
0100
0000
1000
0000
,
0001
0000
0000
0000
,
0010
0000
0100
0000
,
1000
0000
0000
0000
,
0001
0000
0010
0000
,
0100
0000
0000
0000
,
1000
0000
0001
0000
,
0100
0000
0001
0000
,
1000
0000
0100
0000
,
1000
0000
0001
0000
,
1000
0000
0010
0000
,
1000
0000
0001
0000
,
0010
0000
0001
0000
,
1000
0000
0001
0000
,
0100
0100
0100
0000
,
0010
0000
1000
0000
,
0010
0010
0010
0000
,
1000
0000
0001
0000
,
1000
1000
1000
0000
,
0100
0000
0010
0000
,
0001
0001
0001
0000
,
1000
0000
0000
0000
0010
0000
0000
0100
,
0000
0000
0000
0000
,
0000
0000
0000
0000
,
0000
0010
0000
0000
0000
0000
0000
0000
,
0000
0100
0000
0000
0000
0000
0000
0000
,
0000
0001
0000
0000
0000
0000
0000
0000
,
0000
1000
0000
0000
0000
0000
0000
0000
,
0000
0001
0000
0000
0000
0000
0000
0000
,
0000
1000
0000
0000
0000
0000
0000
0000
,
0000
0200
0000
0000
0000
0000
0000
0000
,
0000
0000
0000
0000
,
0000
0000
0000
0000
,
0300
0000
0000
0000
;

//--------------- dance-single - Pandemonium X ----------------
#NOTES:
     dance-single:
     Pandemonium X:
     Easy:
     7:
     0,0,0,0,0:
0000
0000
0000
0000
,
0000
0000
0000
0000
,
0000
0000
0000
0000
,
0000
0000
0000
0000
,
0000
0000
0000
0000
,
0000
0000
0000
0000
,
0020
0000
0000
0000
0130
0010
1001
0000
,
2000
3000
0002
0003
,
0020
0030
0200
0000
,
0000
0000
0000
0000
,
0000
0000
0000
0000
0300
0000
0010
0001
,
0020
0030
0002
0003
,
2000
3000
0002
0000
,
0000
0000
0000
0000
0000
1000
0000
0000
,
1000
0000
0000
1003
0000
0000
0000
0000
,
0001
0100
0001
0110
,
0100
0000
1000
0000
0010
0000
0100
0010
,
0100
0010
1000
1001
,
0001
0000
1000
0000
0010
0000
0100
0010
,
1000
0100
0010
0011
,
0010
0000
0100
0000
1000
0000
0010
0100
,
0010
0000
0100
0000
0020
1000
0000
0000
,
1000
0000
0000
1030
0000
0000
0000
0000
,
0001
1000
0010
1000
,
0001
0000
0010
0000
0100
0000
1000
0100
,
1000
0010
1000
0001
,
0010
0000
0001
0000
0100
0000
0010
1000
,
0010
1000
0001
0100
,
0001
0000
0010
0000
0100
0000
1000
0100
,
1000
0000
0010
0000
0100
0000
0010
1000
,
0002
0000
0000
0003
,
2000
0000
3200
0000
,
0320
0000
0032
0000
,
0023
0000
0230
0000
,
2300
0000
3020
0000
,
0230
0000
0302
0000
,
2003
0000
3020
0000
,
2030
0000
3200
0000
,
0320
0000
0032
0000
,
0203
0000
0320
0000
,
2030
0000
3002
0000
,
0023
0000
0032
0000
,
2003
0000
3200
0000
,
0320
0000
0032
0000
,
0203
0000
0320
0000
,
0230
0000
0302
0000
,
2003
0000
3002
0000
,
2003
3100
2000
3010
,
0200
0301
0020
0130
,
0020
0031
0200
0301
,
2000
0000
3100
0000
0020
0000
0031
0100
,
0002
1003
0002
0013
,
0200
0310
0200
1300
,
0020
0130
0002
1003
,
0020
0000
0230
0000
,
0302
0013
2000
3010
,
0002
0103
2000
3100
,
0002
0103
0020
1030
,
0200
1300
0002
0103
,
0002
0013
2000
3010
,
0002
0103
2000
3100
,
0020
1030
0002
0013
,
0200
0000
0320
0000
,
0031
0000
0100
0000
0010
1000
0010
0000
,
1000
0000
0001
0000
1000
0100
1000
0000
,
0100
0000
0010
0000
0001
0100
0001
0000
,
0100
0000
0010
0000
1000
0001
1000
0000
,
0002
0000
2000
0003
,
0020
3000
0200
0030
,
0002
0300
2000
0003
,
0200
0000
3000
0000
0320
0000
0130
1000
,
0001
0000
0000
0000
,
0000
0000
0000
0000
,
0000
2000
0000
0000
0000
3002
0000
0000
,
0000
0203
0000
0000
0000
0320
0000
0000
,
0000
2030
0000
0000
0000
3200
0000
0000
,
0000
0320
0000
0000
0000
0032
0000
0000
,
0000
2003
0000
0000
0000
0000
0000
0000
,
0000
3002
0000
0000
0000
0000
0000
0000
,
0000
2000
0000
0000
0000
0000
0000
0000
,
0000
0000
0000
0000
,
3003
0000
0000
0000
;

//--------------- dance-single - Pandemonium X ----------------
#NOTES:
     dance-single:
     Pandemonium X:
     Medium:
     12:
     0,0,0,0,0:
0000
0000
0000
0000
,
0000
0000
0000
0000
,
0000
0000
0000
0000
,
0000
0000
0000
0000
,
0000
0000
0000
0000
,
0000
0000
0000
0000
,
0000
0000
0000
0000
0000
0000
1000
0001
1000
0000
0100
0000
1001
0000
0000
0000
,
0201
0310
1020
0130
,
2001
3010
1002
0103
,
0001
0100
0010
1000
,
0100
0000
0000
0000
0010
0000
0000
0000
0001
0000
0000
0000
0010
0100
0010
0100
,
2000
3010
0102
0013
,
2100
3001
1002
0013
,
0100
0000
0010
0000
0001
0011
0000
0000
,
1100
0000
0000
1001
0000
0001
0100
0010
,
1001
0000
1000
0100
1000
0000
0001
0100
,
0001
0000
1000
0100
1000
0000
1001
0000
,
0110
0000
1000
0010
1000
0000
0001
0010
,
0001
0000
1000
0010
1000
0000
1001
0000
,
0001
0000
0100
0010
1000
0000
0010
0100
,
0001
0000
0100
0010
1000
0000
1001
0000
,
0001
0000
0001
0010
0100
0000
0010
0100
,
2000
0000
3002
0000
,
0103
0000
0000
0010
0000
0000
0100
0000
0000
0010
0000
0000
0100
0010
0000
0010
,
0100
0000
0001
0000
0000
0010
0000
0000
0010
0000
0000
0100
0000
0000
1000
0000
,
0001
0000
0000
1000
0000
0000
0010
0000
0000
0100
0000
0000
0001
1000
0000
1000
,
0001
0000
0010
0000
0000
0100
0000
0000
0010
0000
0000
0001
0000
0000
1000
0000
,
0010
0000
0000
0100
0000
0000
0010
0000
0000
0100
0000
0000
0010
0100
0000
0100
,
0001
0000
1000
0000
0000
0100
0000
0000
0010
0000
0000
0100
0000
0000
1000
0000
,
0001
0000
0000
1000
0000
0000
0010
0000
0000
0100
0000
0000
0010
1000
0000
0001
,
0100
0000
0000
0000
0000
0000
0000
0002
,
0000
0000
0000
0000
0000
0000
0000
0023
0000
0000
0000
0000
0000
0000
0000
0000
,
0230
0000
2300
0000
,
3020
0000
0230
0000
,
0302
0000
0023
0000
,
0230
0000
0320
0000
,
0032
0000
2003
0000
,
3020
0000
0230
0000
,
0302
0000
2003
0000
,
3002
0103
0020
1030
,
0200
0310
0200
1300
,
0002
0103
0020
1030
,
0002
0013
0200
0310
,
0002
1003
0020
1030
,
0002
0103
0020
1030
,
0002
0013
0200
0310
,
0200
1300
0200
0310
,
0002
0000
0103
0010
2000
0000
3001
1000
,
0200
0000
1300
0010
0200
0000
0310
0100
,
0002
0000
0013
0100
2000
0000
3100
0010
,
0002
0000
0013
0100
2000
0000
3100
1000
,
0020
0000
0130
0001
2000
0000
3001
0010
,
0200
0000
0310
0001
2000
0000
3001
0100
,
0020
0000
0130
0010
2000
0000
3001
0010
,
0200
0000
2000
3300
,
1001
0010
0100
0001
0010
0100
1100
0000
,
0100
1000
0010
0100
0001
0010
0011
0000
,
0001
0010
0100
0010
0001
1000
1001
0000
,
1000
0010
0100
0010
1000
0001
0010
1000
,
0010
0001
0100
0010
1000
0001
0011
0000
,
0001
0100
0010
1000
0100
0010
0110
0000
,
0100
1000
0010
0100
0001
0100
0110
0000
,
0002
0000
2000
0003
,
3001
0000
0100
0000
0010
0000
1000
0000
0001
1000
0001
0000
1010
0000
0000
0000
,
1000
0000
0100
0000
1000
0000
0001
0000
0100
0010
0100
0000
1001
0000
0000
0000
,
0001
0000
0010
0000
0001
0000
1000
0000
0001
0100
0001
0000
1010
0000
0000
0000
,
1000
0000
0001
0000
0010
0000
0100
0000
1000
0010
1000
0000
0101
0000
0001
0000
,
2000
0000
3100
1000
0020
0000
0130
0001
,
2000
0000
3001
0010
0200
0000
0310
0001
,
2000
0000
3010
0100
0002
0000
1003
0100
,
0020
0000
0000
0000
0130
0000
1000
0000
0002
0000
0000
0000
1003
0010
0100
0010
,
0000
0000
0000
0000
,
0000
0000
0000
0000
,
0000
0002
0000
0000
0000
0203
0000
0000
,
0000
0302
0000
0000
0000
2003
0000
0000
,
0000
3200
0000
0000
0000
0320
0000
0000
,
0000
0230
0000
0000
0000
2300
0000
0000
,
0000
0002
0000
0000
0000
0000
0000
0000
,
3000
2000
0000
0000
0000
0000
0000
0000
,
0003
0002
0000
0000
0000
0000
0000
0000
,
0000
0000
0000
0000
,
0000
0000
0000
0000
,
3003
0000
0000
0000
;

//--------------- dance-single - Pandemonium X ----------------
#NOTES:
     dance-single:
     Pandemonium X:
     Hard:
     15:
     0,0,0,0,0:
0000
0000
0000
0000
,
0000
0000
0000
0000
,
0000
0000
0000
0000
,
0000
0000
0000
0000
,
0000
0000
0000
0000
,
0000
0000
0000
0000
,
0002
0000
0000
0000
0000
0000
1003
0010
0100
0000
0010
0000
1001
0000
0000
0000
,
2100
3010
0102
0013
,
2100
3010
1020
0100
,
1000
1000
0100
0100
,
1000
0000
0000
0000
1000
0000
0000
0000
0130
0000
0000
0000
0010
1000
0010
1000
,
0002
0013
2100
3001
,
0201
0310
2010
0001
,
0100
0000
0000
0000
0000
0000
0100
0000
0000
0000
0000
0000
3001
0000
0000
0020
0030
0000
0000
0000
0000
0020
0030
0000
,
1000
0000
0000
0000
0000
0000
1000
0000
0000
0020
0030
0000
0000
0000
0000
0020
0030
0000
0001
0000
0000
0001
0000
0000
,
0010
0001
0101
0001
0100
0010
1010
0000
,
1000
0100
0011
0001
0100
0010
0100
0100
,
0001
1000
1100
1000
0001
0100
0101
0000
,
0001
1000
0101
0100
0010
0100
0110
1001
,
1000
0100
0110
0100
0010
0001
1001
0000
,
0001
0100
0110
0100
0010
1000
1001
0000
,
0001
0000
0010
0000
0110
0000
0010
0000
0001
0000
2001
0000
0000
3000
0000
0000
,
2010
0000
3000
2100
0000
0000
0000
3000
,
0011
0000
0000
0010
0000
0000
0001
0000
0000
1000
0000
0000
0010
1000
0000
1000
,
0100
0000
0010
0000
0000
0100
0000
0000
1000
0000
0000
0001
0000
0000
0100
0000
,
0001
0000
0000
0010
0000
0000
0001
0000
0000
0100
0000
0000
0010
0100
0000
0100
,
0001
0000
1000
0000
0000
0001
0000
0000
0010
0000
0000
0001
0000
0000
0100
0000
,
0001
0000
0000
0100
0000
0000
1000
0000
0000
0100
0000
0000
0010
1000
0000
0001
,
0010
0000
0100
0000
0000
1000
0000
0000
0001
0000
0000
0100
0000
0000
0001
0000
,
0010
0000
0000
0100
0000
0000
1000
0000
0000
0100
0000
0000
0010
0001
0000
1000
,
0100
0000
0000
0000
0000
0000
0000
2000
,
0000
0000
0002
3000
,
0200
0003
0020
0300
,
2000
0030
0200
3000
,
0002
0300
0200
0003
,
2000
0300
0020
3000
,
0002
0030
0020
0003
,
0200
0030
2000
0300
,
0200
3000
0002
0300
,
2003
3100
0020
0031
,
0200
0310
2000
3100
,
0002
0103
2000
3010
,
0200
0301
2000
3001
,
2000
3100
0002
0103
,
2000
3010
0002
0013
,
0200
0301
0020
0130
,
2000
0000
3100
0000
2000
0000
3010
0100
,
1001
0000
0000
0001
0000
0000
0001
0000
1000
0001
0000
0001
0100
0000
0100
0010
,
0000
0000
0100
0001
0000
0100
0010
0000
0100
0001
0000
0100
0010
0000
0100
0001
,
1000
0000
0000
1000
0000
0000
1000
0000
0001
1000
0000
1000
0001
0000
0001
0010
,
0100
0000
0010
0001
0000
0010
0100
1000
0001
0000
0100
0001
0000
0100
0010
1000
,
0001
0000
0000
0001
0000
0000
0001
0000
0100
0010
0000
0100
0001
0000
0100
0010
,
0000
0000
1000
0001
0000
0010
0100
0000
0010
0001
0000
1000
0100
0000
0010
0001
,
1000
0000
0000
1000
0000
0000
1000
0000
0100
1000
0000
0100
0010
0000
0100
1000
,
0002
0000
0000
0000
2003
0000
0010
3010
,
1010
0000
0000
1000
0010
0000
0100
0000
0102
0000
0000
0013
0100
0000
0010
0000
,
0012
0000
0000
1003
0100
0000
1000
0000
1020
0000
0000
0130
0001
0000
1000
0000
,
1200
0000
0000
0310
0100
0000
1000
0000
1002
0000
0000
0103
0001
0000
0010
0000
,
0210
0000
0000
0310
0001
0000
1000
0000
1020
0000
0000
0130
0001
0000
0100
0001
,
2000
0000
0000
3001
0010
0000
1000
0000
0120
0000
0000
0130
1000
0000
0010
0000
,
0210
0000
0000
0301
0100
0000
0001
0000
2001
0000
0000
3001
0010
0000
1000
0000
,
0120
0000
0000
0130
0001
0000
0100
0000
2100
0000
0000
3100
0010
0000
0001
0000
,
1002
0000
2003
0000
,
3001
0000
0100
0000
0001
0000
0010
0000
0001
0100
0010
0100
0001
0010
0100
1000
,
0001
0000
1000
0000
0010
0000
1000
0000
0100
1000
0010
0100
0001
0010
0100
1000
,
0100
0000
1000
0000
0010
0000
1000
0000
0100
1000
0010
0100
0010
1000
0001
1000
,
0100
0000
0010
0000
0100
0000
1000
0000
0001
0100
0010
0100
0001
1000
0001
0010
,
0200
0000
0000
1300
0010
0000
0100
0000
0102
0000
0000
0013
0100
0000
0010
0000
,
0012
0000
0000
1003
0010
0000
0100
0000
0120
0000
0000
0130
0001
0000
1000
0000
,
1200
0000
0000
0310
0001
0000
1000
0000
0210
0000
0000
0310
0100
0000
0010
0000
,
2010
0000
0000
3010
0100
0000
0001
0000
2001
0000
0000
0000
3100
0010
0001
0020
,
0000
0000
0000
0000
,
0030
0000
0000
0000
,
0002
0000
0203
0000
,
0000
2300
0000
0000
0000
3020
0000
0000
,
0000
0032
0000
0000
0000
2003
0000
0000
,
0000
3200
0000
0000
0000
0302
0000
0000
,
0000
0023
0000
0000
0000
0000
0000
0000
,
0000
2030
0000
0000
0000
0000
0000
0000
,
0000
0002
0000
0000
0000
0000
0000
0000
,
0000
0000
0000
0000
,
0000
0000
0000
0000
,
3003
0000
0000
0000
;

//--------------- dance-double - Pandemonium X ----------------
#NOTES:
     dance-double:
     Pandemonium X:
     Easy:
     5:
     0,0,0,0,0:
00000000
00000000
00000000
00000000
,
00000000
00000000
00000000
00000000
,
00000000
00000000
00000000
00000000
,
00000000
00000000
00000000
00000000
,
00000000
00000000
00000000
00000000
,
00000000
00000000
00000000
00000000
,
00000000
00000000
00000000
00000000
,
00010000
00000000
00000100
00000000
,
00001000
00000000
00000020
00000000
,
00000000
00000000
00000000
00000000
,
00000000
00000000
00000000
00000030
,
00000100
00000000
00000010
00000000
,
00010000
00000000
00000200
00000000
,
00000000
00000000
00000000
00000000
00000000
00010300
00000000
00000000
,
00010000
00000000
00000000
00010000
00000000
00000000
00000000
00000000
,
00001000
00000000
01000000
00000000
,
00100000
00000000
10000000
00000000
,
01000000
00000000
00100000
00000000
,
00010000
00000000
00001000
00000000
,
00011000
00000000
00000100
00000000
,
00010000
00000000
00001000
00000000
,
00100000
00000000
00001000
00000000
,
00020000
00000000
00000000
00030000
,
00001000
00010000
00000100
00001000
,
00000020
00000000
00000000
00000000
,
00000130
00000010
00010000
00001000
,
02000000
00000000
00000000
03000000
,
00010000
00100000
00001000
00010000
,
00000020
00000000
00000000
00000030
,
00000100
00000010
00010000
00001000
,
00011000
00000000
00000000
00000000
00000000
00000000
00000000
00001000
,
00000000
00000000
00010000
00000000
,
00000100
00000000
00001000
00000000
,
00000010
00000000
00010000
00000000
,
00001000
00000000
01000000
00000000
,
00100000
00000000
10000000
00000000
,
01000000
00000000
00100000
00000000
,
00010000
00000000
00001000
00000000
,
00010000
00000000
00000100
00000000
,
00001000
00000000
00000010
00000000
,
00000100
00000000
00000001
00000000
,
00001000
00000000
00000100
00000000
,
00010000
00000000
00001000
00000000
,
01000000
00000000
00100000
00000000
,
10000000
00000000
01000000
00000000
,
00100000
00000000
01000000
00000000
,
10000000
00000000
00010000
00000000
,
02000000
00000000
03002000
00000000
,
00023000
00000000
00030200
00000000
,
00002300
00000000
00000000
00000000
00003020
00000000
00000000
00000030
,
00000210
00000000
00000302
00000000
,
00000023
00000000
00000032
00000000
,
00000203
00000000
00002300
00000000
,
00023000
00000000
00230000
00000000
,
20300000
00000000
30020000
00000000
,
20030000
00000000
32000000
00000000
,
03200000
00000000
00320000
00000000
,
00032000
00000000
00003200
00000000
,
00000320
00000000
00000032
00000000
,
00002003
00000000
00003002
00000000
,
00000203
00000000
00002300
00000000
,
00023000
00000000
00230000
00000000
,
20300000
00000000
00020000
30030000
,
10000000
00010000
00200000
00000000
,
00301000
00010000
00000200
00000000
,
00001300
00000010
00002000
00000000
,
00003010
00010000
00001000
00010000
,
00000100
00001000
00000002
00000000
,
00000013
00000100
00002000
00000000
,
00003100
00010000
00002000
00000000
,
00013000
00001000
01000000
00200000
,
00300000
00000000
00000000
00000000
,
00000000
00000000
00000000
00000000
,
00000000
01000000
00000000
00000000
00000000
00100000
00000000
00000000
,
00000000
10000000
00000000
00000000
00000000
00010000
00000000
00000000
,
00000000
00100000
00000000
00000000
00000000
00001000
00000000
00000000
,
00000000
00010000
00000000
00000000
00000000
00000010
00000000
00000000
,
00000000
00010000
00000000
00000000
00000000
00000000
00000000
00000000
,
00000000
00001000
00000000
00000000
00000000
00000000
00000000
00000000
,
00000000
00020000
00000000
00000000
00000000
00000000
00000000
00000000
,
00000000
00000000
00000000
00000000
,
00000000
00000000
00000000
00030000
;

//--------------- dance-double - Pandemonium X ----------------
#NOTES:
     dance-double:
     Pandemonium X:
     Medium:
     10:
     0,0,0,0,0:
00000000
00000000
00000000
00000000
,
00000000
00000000
00000000
00000000
,
00000000
00000000
00000000
00000000
,
00000000
00000000
00000000
00000000
,
00000000
00000000
00000000
00000000
,
00000000
00000000
00000000
00000000
,
00001000
00000000
00000000
00000000
01000000
00100000
10010000
00000000
,
00200000
00000000
00302000
00000000
,
00023000
00000000
00030020
00000000
,
00000000
00000000
00000000
00000000
,
00000000
00000000
00000000
00000000
00000000
00000000
00000000
00000000
00000030
00000000
00000000
00000000
00000100
00000001
00000100
00000001
,
00000200
00000000
00000320
00000000
,
00020030
00000000
00032000
00000000
,
00000000
00000000
00000000
00000000
00000000
00010000
00000000
00000000
,
00100000
00000000
00000000
00013000
00000000
00001000
01000000
00000000
,
10200000
00000000
01300000
00010000
00200000
00000000
10300000
00100000
,
00020000
00000000
00031000
00000100
00000020
00000000
00000130
00000010
,
00002001
00000000
00003001
00000100
00002000
00000000
00003100
00000010
,
00020000
00000000
00031000
01000000
00200000
00000000
01300000
00010000
,
20010000
00000000
31000000
00100000
00020000
00000000
00130000
00001000
,
00020000
00000000
00030100
00001000
00000020
00000000
00000130
00001000
,
00000200
00000000
00001300
00000001
00001000
00000100
00000000
00000000
,
00000100
00000000
00000000
00000100
00000000
00000000
00000000
00000000
,
00010000
00000000
00000000
00001000
00000000
00000000
01000000
00000000
00000000
00100000
00000000
00000000
10000000
00000000
00000000
00000000
,
00000000
00000000
01000000
00000000
00000000
10000000
00000000
00000000
00100000
00000000
00000000
01000000
00000000
00000000
00010000
00000000
,
00100000
00000000
00000000
00001000
00000000
00000000
00010000
00000000
00000000
00000100
00000000
00000000
00001000
00000000
00000000
00000000
,
00000000
00000000
00000010
00000000
00000000
00000100
00000000
00000000
00000001
00000000
00000000
00000010
00000000
00000000
00000100
00000000
,
00000010
00000000
00000000
00000001
00000000
00000000
00001000
00000000
00000000
00000100
00000000
00000000
00010000
00000000
00000000
00000000
,
00000000
00000000
00001000
00000000
00000000
01000000
00000000
00000000
00100000
00000000
00000000
10000000
00000000
00000000
00010000
00000000
,
00100000
00000000
00000000
10000000
00000000
00000000
00100000
00000000
00000000
00001000
00000000
00000000
00010000
00000100
00000000
00000100
,
00001000
00000000
00000000
00000000
00000000
00000000
00000000
00000020
,
00000000
00000000
00000230
00000000
,
00000320
00000000
00020030
00000000
,
00032000
00000000
02003000
00000000
,
03200000
00000000
20300000
00000000
,
32000000
00000000
03200000
00000000
,
00320000
00000000
00032000
00000000
,
00003200
00000000
00000320
00000000
,
00000032
00000000
00002003
00000000
,
00003020
00000000
00010000
00000000
,
00001000
00000000
00010000
00000000
,
00001000
00000000
00010000
00000000
,
00001000
00000000
00010030
00000000
,
00012000
00000000
00100000
00000000
,
00010000
00000000
00100000
00000000
,
00010000
00000000
01000000
00000000
,
00010000
00000000
00000000
00000000
01003000
00000000
00000000
00100000
,
10010000
00000000
10000000
01000000
20000000
00000000
31000000
00100000
,
02000000
00000000
03100000
00010000
00200000
00000000
00301000
00100000
,
00002000
00000000
00013000
00000100
00020000
00000000
00031000
00000010
,
00002000
00000000
00003010
00000100
00000002
00000000
00001003
00000000
,
00000002
00000000
00000103
00000010
00000200
00000000
00000310
00010000
,
00000020
00000000
00010030
00001000
00020000
00000000
00031000
01000000
,
00002000
00000000
01003000
00100000
02000000
00000000
03100000
10000000
,
00020000
00000000
20030000
00000000
,
31000000
00000000
11000000
00000000
10000000
00100000
01000000
00000000
,
00010000
00000000
00101000
00000000
00001000
00010000
00000100
00000000
,
00001000
00000000
00001010
00000000
00000010
00000100
00000001
00000000
,
00000021
00000130
00002100
00003010
,
00000110
00000000
00000010
00010000
00002000
00000000
00013000
00001000
,
02000000
00000000
03100000
10000000
00020000
00000000
00130000
01000000
,
20000000
00000000
31000000
00100000
00020000
00000000
00031000
00000000
,
00012000
00000000
00023000
00000000
,
00030100
00001000
00000010
00000100
00000001
00000010
00000100
00000000
,
00000010
00000001
00000010
00000100
00001000
00000100
00010000
00000000
,
00001000
01000000
00100000
10000000
00010000
00100000
01000000
00000000
,
00100000
00010000
10000000
01000000
00010000
01000000
10000000
00000000
,
00200000
00000000
01300000
00010000
00200000
00000000
00301000
00010000
,
00000200
00000000
00001300
00000010
00000200
00000000
00000301
00000010
,
00002000
00000000
00003010
00000001
00000200
00000000
00001300
00010000
,
00200000
00000000
00000000
00000000
00301000
00000000
00010000
00000000
00000200
00000000
00000000
00000000
00010300
00000000
00010000
00001000
,
00000000
00000000
00000000
00000000
,
00000000
00000000
00000000
00000000
,
00000000
00200000
00000000
00000000
00000000
00302000
00000000
00000000
,
00000000
00023000
00000000
00000000
00000000
00030200
00000000
00000000
,
00000000
00002300
00000000
00000000
00000000
00003020
00000000
00000000
,
00000000
00020030
00000000
00000000
00000000
00032000
00000000
00000000
,
00000000
00203000
00000000
00000000
00000000
00000000
00000000
00000000
,
00000000
00302000
00000000
00000000
00000000
00000000
00000000
00000000
,
00000000
00020000
00000000
00000000
00000000
00000000
00000000
00000000
,
00000000
00000000
00000000
00000000
,
00033000
00000000
00000000
00000000
;

//--------------- dance-double - Pandemonium X ----------------
#NOTES:
     dance-double:
     Pandemonium X:
     Hard:
     15:
     0,0,0,0,0:
00000000
00000000
00000000
00000000
,
00000000
00000000
00000000
00000000
,
00000000
00000000
00000000
00000000
,
00000000
00000000
00000000
00000000
,
00000000
00000000
00000000
00000000
,
00000000
00000000
00000000
00000000
,
00020000
00000000
00000000
00000000
00000000
00000000
00030010
00000100
00000001
00000000
00000010
00000000
00001100
00000000
00001000
00000000
,
00000200
00000000
00010300
00001000
02000000
00000000
03100000
10000000
,
02000000
00000000
03010000
01000000
20000000
00000000
01000000
00000000
,
00100000
00100000
00010000
00010000
,
01000000
00000000
00000000
00000000
01000000
00000000
00000000
00000000
31000000
00000000
00000000
00000000
00100000
00010000
00100000
00010000
,
02000000
00000000
03010000
00100000
00002000
00000000
00013000
00000010
,
00000200
00000000
00001300
00000100
00000002
00000000
00000100
00000000
,
00000010
00000000
00000010
00000000
00001003
00000220
00000330
00000001
,
00000220
00000330
00001000
00000220
00000330
00000100
00000010
00001000
,
00001001
00000000
00000000
00000010
00001000
00000000
00000100
00000000
00020000
00000000
00000000
00031000
01000000
00000000
10000000
00000000
,
02000000
00000000
00000000
03100000
10000000
00000000
01000000
00000000
00020000
00000000
00000000
01030000
00100000
00000000
00010000
00100000
,
00002000
00000000
00000000
00013000
00000100
00000000
00001000
00000000
00000020
00000000
00000000
00000130
00000001
00000000
00000010
00000000
,
00000200
00000000
00000000
00000310
00000001
00000000
00001000
00000000
00000010
00000000
00000100
00000001
00000000
00000010
00000100
00000000
,
00002000
00000000
00000000
00003100
00010000
00000000
00001000
00000000
00200000
00000000
00000000
00310000
10000000
00000000
01000000
00000000
,
00200000
00000000
00000000
01300000
10000000
00000000
00100000
00000000
02000000
00000000
00000000
03010000
00100000
00000000
01000000
00000000
,
10000000
00010000
00100000
00010000
01000000
02020000
00000000
03030000
,
00022000
00000000
00033000
00002200
00000000
00000000
00003300
00000000
,
00000021
00000000
00000000
00000100
00000000
00000000
00000001
00000000
00000000
00000130
00000000
00000000
00000010
00000001
00000000
00000001
,
00000100
00000000
00000020
00000000
00000000
00000230
00000000
00000000
00002300
00000000
00000000
00023000
00000000
00000000
00230000
00000000
,
02300000
00000000
00000000
00010000
00000000
00000000
00100000
00000000
00000000
00010000
00000000
00000000
03100000
10000000
00000000
10000000
,
01000000
00000000
00200000
00000000
00000000
00320000
00000000
00000000
00032000
00000000
00000000
00003200
00000000
00000000
00000320
00000000
,
00000032
00000000
00000000
00000100
00000000
00000000
00000010
00000000
00000000
00001000
00000000
00000000
00000103
00000010
00000000
00000010
,
00001000
00000000
00000002
00000000
00000000
00000203
00000000
00000000
00002300
00000000
00000000
00023000
00000000
00000000
00032000
00000000
,
02003000
00000000
00000000
03020000
00000000
00000000
00230000
00000000
00000000
20300000
00000000
00000000
30100000
00010000
00000000
00010000
,
02000000
00000000
00000000
00000000
03000000
00000000
00000000
00020000
,
00000000
00000000
20030000
00000000
,
32000000
00000000
03200000
00000000
,
00320000
00000000
00032000
00000000
,
00003200
00000000
00000320
00000000
,
00000032
00000000
00002003
00000000
,
00003020
00000000
00000230
00000000
,
00002300
00000000
00023000
00000000
,
00032000
00000000
02003000
00000000
,
03200000
10300000
20000000
31000000
,
00200000
00310000
00002000
00013000
,
00020000
00030100
00000020
00000031
,
00002000
00003010
00000200
00000301
,
00000002
00000103
00000200
00001300
,
00002000
00013000
00020000
01030000
,
00200000
10300000
02000000
03100000
,
00020000
00000000
00000000
00000000
20000000
00000000
30030000
01100000
,
00010000
10000000
00000000
01000000
00000000
00000000
01000000
00000000
00100000
00010000
00000000
01000000
00001000
00010000
00000000
00001000
,
00010000
00000000
00000010
00010000
00000000
00010000
00001000
00000000
00001000
01000000
00000000
00100000
01000000
00000000
00100000
10000000
,
01000000
00100000
00000000
00010000
00000000
00000000
00100000
00000000
00001000
00010000
00000000
00000100
00001000
00000010
00000000
00000100
,
00000010
00000000
00000100
00000001
00000000
00000010
00000100
00001000
00000100
00000000
00010000
00001000
00000000
00010000
00001000
01000000
,
00100000
10000000
00000000
00010000
00000000
00000000
00100000
00000000
00001000
00010000
00000000
00000100
00001000
00000010
00000000
00000100
,
00000001
00000000
00000100
00000010
00000000
00000100
00000001
00000000
00000100
00000010
00000000
00000100
00000001
00000000
00001000
00000100
,
00000010
00000100
00000000
00001000
00000000
00000000
00000100
00000000
00010000
00001000
00000000
00010000
00001000
01000000
00000000
00100000
,
20000000
00000000
32000000
00000000
,
03100000
00000000
00010000
00000000
01000000
00000000
00010000
00000000
00100000
00001000
00010000
00000000
00011000
00000000
00010000
00000000
,
00000100
00000000
00001000
00000000
00000010
00000000
00000100
00000000
00000001
00000010
00000100
00000000
00001100
00000000
00000100
00010000
,
00001000
00000000
00010000
00000000
00000100
00000000
00001000
00000000
00000010
00000100
00000001
00000000
00000101
00000000
00000001
00000000
,
00000010
00000000
00000100
00000000
00001000
00000000
00000100
00000000
00010000
00001000
01000000
00000000
01001000
00000000
01000000
00100000
,
10000000
00000000
01000000
00000000
00110000
00000000
00100000
00000000
00001000
00010000
00000100
00000000
00001100
00000000
00001000
00000000
,
00000010
00000000
00000100
00000000
00001010
00000000
00000010
00000000
00000100
00000001
00000010
00000000
00000110
00000000
00000100
00000010
,
00010000
00000000
00001000
00000000
01000000
00000000
00100000
00000000
01000000
00010000
00100000
00000000
01100000
00000000
10000000
00000000
,
00020000
00000000
20030000
00000000
,
30100000
00000000
01000000
00000000
00010000
00000000
00100000
00000000
00001000
00010000
00000100
00001000
00000010
00000100
00000001
00000010
,
00000100
00000000
00001000
00000000
00000100
00000000
00010000
00000000
00001000
01000000
00100000
10000000
00010000
00100000
01000000
10000000
,
00010000
00000000
00100000
00000000
00001000
00000000
00010000
00000000
00000010
00000100
00001000
00000100
00000010
00001000
00000100
00010000
,
00001000
00000000
01000000
00000000
00100000
00000000
10000000
00000000
00010000
00100000
01000000
10000000
01000000
00100000
01000000
10000000
,
00010000
00100000
00010000
00100000
00010000
00000000
10010000
00000000
10000000
00100000
10000000
00100000
10000000
00000000
01010000
00000000
,
00010000
00100000
00010000
00100000
00010000
00000000
00101000
00000000
00001000
00010000
00001000
00010000
00001000
00000000
00011000
00000000
,
00010000
00000100
00001000
00000010
00000100
00000000
00001001
00000000
00000001
00001000
00000010
00000100
00000010
00000000
00001010
00000000
,
00000010
00010000
00001000
00100000
00010000
00000000
11000000
00000000
10020000
00000000
00000000
00000000
01030000
10000000
01000000
00020000
,
00000000
00000000
00000000
00000000
,
00030000
00000000
00000000
00000000
,
20000000
00000000
02000000
00000000
,
30000000
00200000
00000000
00000000
03000000
00020000
00000000
00000000
,
00300000
00002000
00000000
00000000
00030000
00000200
00000000
00000000
,
00003000
00000020
00000000
00000000
00000300
00000002
00000000
00000000
,
00000030
00000200
00000000
00000000
00000000
00000000
00000000
00000000
,
00000003
00000320
00000000
00000000
00000000
00000000
00000000
00000000
,
00000000
00020000
00000000
00000000
00000000
00000000
00000000
00000000
,
00000000
00000000
00000000
00000000
,
00000000
00000000
00000000
00000000
,
00030030
00000000
00000000
00000000
;
