#TITLE:quasar (Yooh Bootleg);
#SUBTITLE:;
#ARTIST:OutPhase;
#TITLETRANSLIT:;
#SUBTITLETRANSLIT:;
#ARTISTTRANSLIT:;
#GENRE:;
#CREDIT:;
#MUSIC:quasar (Yooh Bootleg).ogg;
#BANNER:;
#BACKGROUND:quasar-bg.png;
#CDTITLE:;
#SAMPLESTART:66.481;
#SAMPLELENGTH:14.772;
#SELECTABLE:YES;
#OFFSET:1.844;
#BPMS:0.000=129.978
,242.000=130.978
,243.000=129.978
;
#STOPS:82.500=0.468;
#DISPLAYBPM:130.000;
#BGCHANGES:;
#FGCHANGES:;

//--------------- dance-single - Pandemonium X ----------------
#NOTES:
     dance-single:
     Pandemonium X:
     Beginner:
     3:
     0,0,0,0,0:
0000
0000
0000
0000
,
0000
0000
0000
0000
,
0000
0000
0000
0000
,
0000
0000
0000
0000
,
0000
0000
0000
0000
,
0000
0000
0000
0000
,
0000
0000
0000
0000
,
0000
0000
0000
0000
,
0000
0000
0000
0000
,
1000
0000
1000
0000
,
1000
0000
1000
0000
,
0000
0000
0000
0000
,
0000
0000
0000
0000
,
0001
0000
0001
0000
,
0001
0000
0001
0000
,
0000
0000
0000
0000
,
0020
0000
0000
0000
,
0030
0000
0000
0000
,
0000
0000
0000
0000
,
0000
0000
0000
0000
,
0000
0000
0000
0200
,
0000
0000
0300
2000
,
0000
0000
3000
0010
,
0000
0000
0000
0100
,
0000
0000
0000
0001
,
0000
0000
0000
0010
,
0000
0000
0000
0100
,
0000
0000
0000
1000
,
0000
0000
0000
0001
,
0000
0000
0000
1000
,
0000
0000
0000
0010
,
0000
0000
0000
0100
,
0000
0000
0000
0001
,
0000
0001
0000
1000
,
0000
1000
0000
0010
,
0000
0100
0000
2002
,
0000
0000
3003
1000
,
0000
0010
0000
1000
,
0000
0100
0000
1000
,
0000
0001
0000
1000
,
0000
0001
0000
0001
,
0000
0100
0000
0001
,
0000
0010
0000
0001
,
0000
1000
0000
0001
,
0000
1000
0000
0010
,
0000
0100
0000
0001
,
0000
0010
0000
0100
,
0000
1000
0000
0100
,
0000
0010
0000
0001
,
0000
1000
0000
0010
,
0000
0100
0000
0001
,
0000
1000
0000
0001
,
0000
0100
0000
0010
,
0000
0010
0000
0010
,
0000
0010
0000
0100
,
0000
0100
0000
0100
,
0000
0100
0000
0001
,
0000
0001
0000
0001
,
0000
0001
0000
1000
,
0000
1000
0000
1000
,
0000
1000
0000
0110
,
0000
0000
0000
0001
,
0000
0000
0000
1000
,
0000
0000
0000
0100
,
0000
0010
0000
0100
,
0000
0000
0000
1000
,
0000
0000
0000
0001
,
0000
0000
0000
0100
,
0000
0010
0000
1001
;

//--------------- dance-single - Pandemonium X ----------------
#NOTES:
     dance-single:
     Pandemonium X:
     Easy:
     6:
     0,0,0,0,0:
0000
0000
0000
0000
,
0000
0000
0000
0000
,
0000
0000
0000
0000
,
0000
0000
0000
0000
,
0000
0000
0000
0000
,
0002
0000
2003
0000
,
3002
0000
2000
0000
,
3003
0110
0000
0110
,
0000
0100
0000
0100
0000
0010
0000
0010
,
2000
3100
0020
0031
,
0200
0310
1000
0001
,
0010
0100
0010
0001
,
1000
0010
0100
0001
,
2000
3100
0020
0031
,
2000
3001
0200
0310
,
0100
0001
0010
0100
,
2002
0000
0000
3003
,
0110
0000
0000
0000
,
0000
0000
0000
0000
,
0000
0000
0000
0000
,
0000
0000
0000
2000
,
0000
3002
0000
0023
,
0000
0230
0000
0320
,
0000
0032
0000
2003
,
0000
3020
0000
0230
,
0000
2300
0000
3200
,
0000
0302
0000
2003
,
0000
3200
0000
0320
,
0000
0032
0000
1003
,
1000
1000
1000
0001
,
0001
0001
0001
0100
,
0100
0100
0100
0010
,
0010
0000
0010
0010
0010
0000
0100
0000
,
0001
0010
0100
1000
,
0100
1000
0010
0100
,
0001
0100
0010
2000
,
0000
0000
3001
2000
,
0000
3020
0000
0032
,
0000
0023
0000
2030
,
0000
3200
0000
0302
,
0000
0203
0000
0320
,
0000
0032
0000
0203
,
0000
0320
0000
0032
,
0000
0023
0000
0230
,
0000
0302
0000
2003
,
0000
3200
0000
0302
,
0000
0203
0000
0320
,
0000
0032
0000
0203
,
0000
0320
0000
0032
,
0000
0023
0000
0230
,
0000
0302
0000
2003
,
0000
3200
0000
2300
,
0000
3002
0000
1003
,
1000
1000
0000
0001
,
0001
0001
0000
0100
,
0100
0100
0000
0010
,
0010
0010
0000
1100
,
0000
0101
0000
0011
,
0000
1100
0000
1010
,
0000
0101
0000
2000
,
0000
0002
3003
1000
,
0000
0001
0000
0010
,
0100
0010
0000
0100
,
0000
1000
0000
0010
,
1000
0010
0100
0001
,
0000
0010
0000
0100
,
0010
0100
0000
1000
,
0000
0001
0000
1000
,
0001
0100
0010
1001
;

//--------------- dance-single - Pandemonium X ----------------
#NOTES:
     dance-single:
     Pandemonium X:
     Medium:
     10:
     0,0,0,0,0:
0000
0000
0000
0000
,
0000
0000
0000
0000
,
0000
0000
0000
0000
,
0000
0000
0000
0000
,
0000
0000
0000
0000
,
1000
0110
1000
0011
,
0010
0000
1001
0000
0001
0100
0001
1000
,
0100
1100
0001
0011
,
0001
0100
1000
0100
0001
1000
0100
0010
,
0001
0110
1000
0101
,
0001
0000
1010
0000
0010
1000
0100
0010
,
0001
1100
0001
0110
,
0100
0001
0100
0010
1000
0100
0010
0001
,
1000
0101
0100
1001
,
1000
0000
0011
0000
0001
0010
0100
0000
,
0010
0001
0200
0000
0310
1000
0200
0000
,
0310
0000
0000
0000
,
1001
0000
0000
0000
,
0000
0000
0000
0000
,
0000
0000
0000
0000
,
0000
0000
0000
0000
0000
0000
0000
0000
0000
0000
0000
0000
0001
0000
0000
1000
,
0000
1000
0000
0000
0001
0000
0000
0010
0000
0010
0000
0000
0001
0000
0000
0100
,
0000
0100
0000
0000
0001
0000
0000
1000
0000
1000
0000
0000
0001
0000
0000
0010
,
0000
0010
0000
0000
0001
0000
0000
1000
0000
1000
0000
0000
0001
0000
0000
0100
,
0000
0100
0000
0000
0001
0000
0000
1000
0000
1000
0000
0000
1000
0000
0000
0001
,
0000
0001
0000
0000
1000
0000
0000
0010
0000
0010
0000
0000
1000
0000
0000
0100
,
0000
0100
0000
0000
1000
0000
0000
0001
0000
0001
0000
0000
1000
0000
0000
0010
,
0000
0010
0000
0000
1000
0000
0000
0100
0000
0100
0000
0000
1000
0000
0000
0001
,
0000
0001
0000
0000
1000
0000
0000
0100
0000
0000
0100
0000
0010
0000
0000
0000
,
0001
0000
0000
0000
0100
0000
0000
0000
0010
0000
0000
1000
0100
0000
0000
0000
,
0010
0000
0000
0000
0100
0000
0000
0000
1000
0000
0000
0010
0100
0000
0000
0000
,
0010
0000
0000
0000
1000
0000
0000
0000
0001
0000
0000
0010
0100
0000
0000
0000
,
0010
0000
0001
0001
0001
0000
1000
1000
,
0000
0001
0000
0100
0000
0010
0000
1010
,
0000
0101
0000
0011
0000
0110
0000
0100
,
0000
0010
0000
0001
0000
1000
0020
0000
,
0000
0000
0130
2001
,
3100
0021
0130
1002
,
0103
2010
3100
0021
,
0130
2001
3010
0102
,
0013
0000
1200
0000
0310
0001
0201
0000
,
0310
1002
0013
0210
,
1300
2010
3001
0201
,
0310
0120
1030
1002
,
0000
2000
3003
0201
,
0310
2100
3001
0021
,
0130
2100
3010
0102
,
0013
0102
1003
2001
,
3100
0000
1002
0000
0013
0010
0021
0000
,
0031
1000
0020
0000
0130
0001
2000
0000
,
3001
0100
0020
0000
0130
0001
2000
0000
,
3100
1000
0020
0000
0130
0001
2000
0000
,
0000
0000
0002
0000
0000
3003
1010
0000
,
0000
0101
0000
0011
,
0000
0110
0000
1100
,
0000
1010
0000
1001
,
0000
0011
0000
1001
,
1000
1001
0001
0101
,
0100
0110
0010
1010
,
1000
1001
0001
0012
,
0000
0000
0000
0000
0203
0000
0000
0000
0000
0000
0000
0000
0301
0000
0000
1000
,
0000
0000
0100
0000
0000
1000
0000
0000
0010
0000
0100
0000
0000
0000
0010
0000
,
0000
1000
0000
0000
0010
0000
0000
0100
0000
0000
0001
0000
0010
0000
0000
0001
,
0000
0000
1000
0000
0000
0100
0000
0000
0010
0000
0000
0100
0000
0000
0010
0000
,
0000
0001
0000
0000
0100
0000
0001
0000
1000
0000
0100
0000
0010
0000
0000
0100
,
0000
0000
1000
0000
0000
0010
0000
0000
0100
0000
0000
0001
0000
0000
0010
0000
,
0000
0001
0000
0000
1000
0000
0100
0000
1000
0000
0001
0000
0100
0000
0000
0001
,
0000
0000
1000
0000
0000
0010
0000
0000
0100
0000
0000
0001
0010
0000
0000
0000
,
0010
0000
0010
0100
1000
0001
1001
0000
;

//--------------- dance-single - Pandemonium X ----------------
#NOTES:
     dance-single:
     Pandemonium X:
     Hard:
     14:
     0,0,0,0,0:
0000
0000
0000
0000
,
0000
0000
0000
0000
,
0000
0000
0000
0000
,
0000
0000
0000
0000
,
0000
0000
0000
0000
,
2000
3100
0002
0103
,
2000
0000
0000
0000
3010
0000
0000
0000
0002
0000
0010
0000
0013
0001
1000
0001
,
0000
1001
0000
1100
,
0000
0000
0011
0000
0000
0000
0101
0000
0000
0000
1000
0010
0000
0010
0100
0001
,
0020
0000
0031
1000
0200
0000
1300
0001
,
2000
0000
0000
0000
3010
0000
1000
0000
0002
0000
1000
0000
1003
0100
1000
0100
,
0010
1001
0000
1010
,
0000
0000
1100
0000
0000
0000
1010
0000
0000
0000
1000
0010
0000
0010
0100
0001
,
0020
0000
0031
1000
0002
0000
0103
0010
,
2000
0000
0000
0000
3100
0000
0010
0000
0200
0000
1000
0000
1300
0001
1000
0001
,
0100
0001
0010
0100
0010
0001
1000
0010
,
0100
0000
0001
0000
0000
0000
0001
0000
1000
0000
0000
1000
0000
0000
1000
0000
,
0220
0000
0000
0000
,
0000
0000
0000
0000
,
0330
0000
0000
0000
,
0000
0000
0000
0000
0000
0000
0000
0000
0000
0000
0000
0000
2100
0000
0000
0010
,
0000
3010
0000
0000
0102
0000
0000
0010
0000
0013
0000
0000
1002
0000
0000
0100
,
0000
0103
0000
0000
2010
0000
0000
0001
0000
3001
0000
0000
0021
0000
0000
0100
,
0000
0130
0000
0000
1020
0000
0000
0100
0000
0130
0000
0000
0102
0000
0000
0010
,
0000
0013
0000
0000
2100
0000
0000
0010
0000
3010
0000
0000
2001
0000
0000
0001
,
0000
3001
0000
0000
0201
0000
0000
0010
0000
0310
0000
0000
2010
0000
0000
0100
,
0000
3100
0000
0000
0021
0000
0000
0100
0000
0130
0000
0000
2001
0000
0000
0010
,
0000
3010
0000
0000
1002
0000
0000
0100
0000
0103
0000
0000
0021
0000
0000
0100
,
0000
0130
0000
0000
1002
0000
0000
0100
0000
0103
0010
0100
0010
0000
0000
1000
,
0000
1000
0100
1000
0000
0000
0000
0001
0000
1000
0001
1000
0000
0000
0000
0001
,
0000
0010
0100
0010
0000
0000
0000
1000
0000
0001
0100
0001
0000
0000
0000
0010
,
0000
0100
1000
0100
0000
0000
0000
1000
0000
0100
0010
0100
0000
0000
0000
0010
,
0000
0001
0100
0001
1000
0000
1000
0000
1000
0000
0000
0000
0000
0000
0001
0010
,
0000
0000
0010
0100
0000
0000
0100
1000
0000
0000
1000
0010
0000
0000
0010
0100
,
0000
0000
0100
0001
0000
0000
0001
0010
0000
0000
0010
0100
0000
0000
0010
0001
,
0000
0000
0001
0100
0000
0000
0100
0010
0000
0000
0010
1000
0200
0000
0000
0000
,
0000
0000
0000
0000
0000
0000
0000
0000
0310
0000
0000
0000
1001
0000
0000
1000
,
0000
1000
0010
1000
0100
0000
0000
0100
0000
0100
0010
0001
0100
0000
0000
0001
,
0000
0001
0010
0100
0010
0000
0000
0100
0000
0100
0010
0001
1000
0000
0000
0010
,
0000
0010
1000
0100
0010
0000
0000
0100
0000
0100
0010
0100
1000
0000
0000
0001
,
0000
0001
0100
0001
1000
0000
0000
0100
0000
0100
0010
0100
1000
0000
0000
0010
,
0000
0010
0100
0001
0010
0000
0000
0100
0000
0100
0010
0001
1000
0000
0000
0001
,
0000
0001
1000
0100
0010
0000
0000
0100
0000
0100
0010
0001
1000
0000
0000
0001
,
0000
0100
0010
1000
0100
0000
0000
1000
0000
1000
0100
0010
0100
0000
0000
0010
,
0000
0010
0100
1000
0001
0000
0000
0001
0000
0000
0001
0000
1010
0000
0000
1000
,
0010
0000
0100
0000
0102
0000
0000
0013
0100
0000
0010
0000
0012
0000
0000
1003
,
0100
0000
1000
0000
1020
0000
0000
0130
0001
0000
1000
0000
1200
0000
0000
0310
,
0100
0000
1000
0000
1002
0000
0000
0103
0001
0000
0010
0000
0210
0000
0000
0310
,
0001
0000
1000
0000
1020
0000
0000
0130
0001
0000
0100
0001
2000
0000
0000
3001
,
0010
0000
1000
0000
0120
0000
0000
0130
1000
0000
0010
0000
0210
0000
0000
0301
,
0100
0000
0001
0000
2001
0000
0000
3001
0010
0000
1000
0000
0120
0000
0000
0130
,
0001
0000
0100
0000
2100
0000
0000
3100
0010
0000
0001
0000
1002
0000
0000
0000
,
0000
0000
2003
0000
0000
0000
3001
0001
,
1000
0000
0100
0010
0100
0000
0010
0000
0010
0000
0001
1000
0001
0000
0100
0000
,
0100
0000
0010
1000
0010
0000
1000
0000
1000
0000
0100
0010
0100
0000
0010
0000
,
0010
0000
0001
0100
0001
0000
1000
0000
1000
0000
0100
1000
0100
0000
0010
0000
,
0010
0000
0001
1000
0001
0000
0100
0000
0100
0000
0010
1000
0100
0000
0010
0000
,
0001
0000
0100
0010
1000
0000
0001
0000
0010
0000
0100
0010
0001
0000
1000
0000
,
0010
0000
0100
0001
0010
0000
0100
0000
1000
0000
0100
0010
0100
0000
0010
0000
,
0001
0000
0100
0010
0100
0000
0010
0000
1000
0000
0001
1000
0020
0000
0000
0000
,
0000
0000
0000
0000
0200
0000
0000
0000
0330
0000
0000
0000
1001
0000
0000
1000
,
0000
0000
0001
0000
0000
0010
0000
0000
0100
0000
0010
0001
0000
0000
1000
0000
,
0000
0100
0000
0000
1000
0000
0010
0000
0001
0000
0010
0000
0100
0000
0000
0001
,
0000
0000
1000
0000
0000
0010
0000
0000
0100
0000
0010
1000
0000
0000
0100
0000
,
0000
0001
0000
0000
0100
0000
0010
0000
0001
0000
1000
0000
0100
0000
0000
1000
,
0000
0000
0010
0000
0000
0100
0000
0000
0001
0000
0100
0010
0000
0000
0100
0000
,
0000
0010
0000
0000
0001
0000
0100
0000
0010
0000
0100
0000
0001
0000
0000
1000
,
0000
0000
0100
0000
0000
0010
0000
0000
0100
0000
1000
0010
0100
0000
1000
0000
,
0100
0001
0010
1000
0010
0001
1001
0000
;

//--------------- dance-double - Pandemonium X ----------------
#NOTES:
     dance-double:
     Pandemonium X:
     Easy:
     5:
     0,0,0,0,0:
00000000
00000000
00000000
00000000
,
00000000
00000000
00000000
00000000
,
00000000
00000000
00000000
00000000
,
00000000
00000000
00000000
00000000
,
00000000
00000000
00000000
00000000
,
00000000
00001000
00000000
00001000
,
00000000
00001000
00000000
00010000
,
00000000
00001000
00000000
00001000
,
00000000
00001000
00000000
00001000
,
01000000
00000000
00100000
00000000
,
10000000
00000000
01000000
00100000
,
01000000
00100000
00000000
00100000
,
00000000
00001000
00000000
00001000
,
00010000
00000000
00000100
00000000
,
00001000
00000000
00000010
00000000
,
00000000
00010000
00000000
00010000
,
00002000
00000000
00000000
00000000
,
00013000
00000000
00000000
00000000
,
00000000
00000000
00000000
00000000
,
00000000
00000000
00000000
00000000
,
00000000
00000000
00000000
00200000
,
00300000
00020000
00030000
20000000
,
30000000
02000000
03000000
00200000
,
00300000
00002000
00003000
00020000
,
00030000
00000200
00000300
00002000
,
00003000
00000020
00000030
00000200
,
00000300
00000002
00000003
00002000
,
00003000
00000200
00000300
00020000
,
00030000
00002000
00003000
02000000
,
03000000
00200000
00300000
20000000
,
30000000
02000000
03000000
00200000
,
00300000
00002000
00003000
00020000
,
00030000
00000200
00001300
00000001
,
00000000
00000010
00000000
00000100
,
00000000
00001000
00000000
00000100
,
00000000
00010000
00000000
00022000
,
00000000
00000000
00033000
02001000
,
00000000
03200000
00000000
20300000
,
00000000
30020000
00000000
00230000
,
00000000
00302000
00000000
00023000
,
00000000
00030200
00000000
00002300
,
00000000
00003020
00000000
00000230
,
00000000
00000302
00000000
00002003
,
00000000
00003200
00000000
00020300
,
00000000
00002000
00033000
00010200
,
00000000
00020300
00000000
00032000
,
00000000
02003000
00000000
03200000
,
00000000
20300000
00000000
32000000
,
00000000
03200000
00300000
00012000
,
00000000
00023000
00000000
00030200
,
00000000
00002300
00000000
00003002
,
00000000
00000203
00000000
00000320
,
00000000
00020000
00030030
00001001
,
00000000
00000010
00000000
00010000
,
00000000
00010000
00000000
00001000
,
00000000
00001000
00000000
00100000
,
00000000
00100000
00000000
01000000
,
00000000
10000000
00000000
00100000
,
00000000
01000000
00000000
00001000
,
00000000
00010000
00000000
00002000
,
00000000
00023000
00000000
00030100
,
00000000
00001000
00000000
00000010
,
00000100
00000010
00000000
00010000
,
00000000
00001000
00000000
01000000
,
00100000
01000000
00000000
00010000
,
00000000
00100000
00000000
01000000
,
10000000
01000000
00000000
00001000
,
00000000
00010000
00000000
00010100
,
00000000
00001000
00000010
00001001
;

//--------------- dance-double - Pandemonium X ----------------
#NOTES:
     dance-double:
     Pandemonium X:
     Medium:
     9:
     0,0,0,0,0:
00000000
00000000
00000000
00000000
,
00000000
00000000
00000000
00000000
,
00000000
00000000
00000000
00000000
,
00000000
00000000
00000000
00000000
,
00000000
00000000
00000000
00000000
,
00002000
00000000
00203000
00000000
,
00320000
00000000
20000000
00000000
,
30030000
10100000
00000000
10100000
,
00000000
01010000
00000000
00110000
00000000
00101000
00000000
00011000
,
00020000
00030010
00000200
00000301
,
00002000
00000000
00003100
00000000
00000100
00010000
00001000
00010000
,
00000000
00001100
00000000
00001100
,
00000000
00000011
00000000
00001100
00000000
00001001
00000000
00000001
,
00000102
00001003
00000020
00001030
,
00000200
00000000
00010300
00000000
00002000
00000000
01003000
00100000
,
10000000
10010000
00000000
10010000
,
10000000
00000000
01000000
00000000
00000000
00000000
00100000
00000000
00010000
00000000
00000000
00001000
00000000
00000000
00000100
00000000
,
00000110
00000000
00000000
00000000
,
00000000
00000000
00000000
00000000
,
00000000
00000000
00000000
00000000
,
00000000
00000000
00000000
00000002
,
00000000
00000200
00000003
00002000
,
00000300
00020000
00003000
00200000
,
00030000
20000000
00300000
02000000
,
30000000
00020000
03000000
00002000
,
00030000
00000200
00003000
00000020
,
00000300
00000002
00000030
00000200
,
00000003
00002000
00000300
00020000
,
00003000
00002000
00030000
00103000
,
00100000
01000000
01000000
10000000
,
10000000
00010000
00010000
00100000
,
00100000
00001000
00001000
00010000
,
00010000
00000000
00000100
00001000
00000100
00000000
00001000
00000010
,
00000000
00000100
00000000
00000001
00000000
00001000
00000000
00000100
,
00000000
00010000
00000000
00001000
00000000
01000000
00000000
00010000
,
00000000
00100000
00000000
01000000
00000000
10000000
20010000
00000000
,
00000000
00000000
00000000
00000000
00000000
00000000
00000000
00000000
30100000
00000000
00000000
00000000
01010000
00000000
00000000
01000000
,
00000000
00000000
01000000
00000000
00100000
00000000
00000000
00100000
00000000
00000000
00100000
00000000
10000000
00000000
00000000
10000000
,
00000000
00000000
10000000
00000000
00010000
00000000
00000000
00010000
00000000
00000000
00010000
00000000
00100000
00000000
00000000
00100000
,
00000000
00000000
00100000
00000000
00001000
00000000
00000000
00001000
00000000
00000000
00001000
00000000
00010000
00000000
00000000
00010000
,
00000000
00000000
00010000
00000000
00000100
00000000
00000000
00000100
00000000
00000000
00000100
00000000
00001000
00000000
00000000
00001000
,
00000000
00000000
00001000
00000000
00000010
00000000
00000000
00000010
00000000
00000000
00000010
00000000
00000100
00000000
00000000
00000100
,
00000000
00000000
00000100
00000000
00000001
00000000
00000000
00000001
00000000
00000000
00000001
00000000
00001000
00000000
00000000
00001000
,
00000000
00000000
00001000
00000000
00000100
00000000
00000000
00000100
00000000
00000000
00000100
00000000
00010000
00000000
00000000
00010000
,
00000000
00000000
00010000
00000000
00001000
00000000
00000000
00000000
00011000
00000000
00000000
00000000
00010000
00000000
00000000
00000100
,
00000000
00000000
00001000
00000000
00000010
00000000
00000000
00000100
00000000
00000000
00000001
00000000
00000010
00000000
00000000
00000100
,
00000000
00000000
00001000
00000000
00000100
00000000
00000000
00010000
00000000
00000000
00001000
00000000
01000000
00000000
00000000
00010000
,
00000000
00000000
00100000
00000000
01000000
00000000
00000000
10000000
00000000
00000000
01000000
00000000
10000000
00000000
00000000
00100000
,
00000000
00000000
01000000
00000000
00001000
00000000
00000000
00010000
00000000
00000000
00000100
00000000
00001000
00000000
00000000
00000010
,
00000000
00000000
00010000
00000000
00001000
00000000
00000000
00100000
00000000
00000000
00010000
00000000
00100000
00000000
00000000
01000000
,
00000000
00000000
10000000
00000000
00100000
00000000
00000000
01000000
00000000
00000000
00010000
00000000
00100000
00000000
00000000
01000000
,
00000000
00000000
10000000
00000000
00010000
00000000
00000000
00100000
00000000
00000000
00001000
00000000
00020000
00000000
00000000
00000000
,
00000000
00002000
00033000
00010100
,
00000000
00001100
00000000
00001010
,
00000000
00000101
00000000
00001001
,
00000000
00001100
00000000
00010100
,
00000000
00011000
00000000
01001000
,
00000000
01100000
00000000
10010000
,
00000000
11000000
00000000
00110000
,
00000000
01010000
00000000
01002000
,
00000000
00023000
00000000
00030100
,
00001000
00000000
00000010
00000000
00000100
00000001
00000000
00000010
,
00000000
00000010
00000000
00000000
00000100
00000000
00000000
00000100
00000000
00000000
00000100
00000000
00001000
00000000
00000000
00000000
,
00000100
00000000
00010000
00000000
00001000
01000000
00000000
00100000
,
00000000
00100000
00000000
00000000
01000000
00000000
00000000
01000000
00000000
00000000
00100000
00000000
10000000
00000000
00000000
10000000
,
00000000
00000000
00010000
00000000
00000000
00010000
00000000
00000000
00100000
00000000
01000000
00000000
00000000
00000000
00100000
00000000
,
00000000
00100000
00000000
00000000
00001000
00000000
00000000
00001000
00000000
00000000
00010000
00000000
00000100
00000000
00000000
00000100
,
00000000
00000000
00001000
00000000
00000000
00001000
00000000
00000000
00000010
00000000
00000100
00000000
00001001
00000000
00000000
00000000
,
00000001
00000100
00000010
00001000
00000100
00010000
00011000
00000000
;

//--------------- dance-double - Pandemonium X ----------------
#NOTES:
     dance-double:
     Pandemonium X:
     Hard:
     15:
     0,0,0,0,0:
00000000
00000000
00000000
00000000
,
00000000
00000000
00000000
00000000
,
00000000
00000000
00000000
00000000
,
00000000
00000000
00000000
00000000
,
00000000
00000000
00000000
00000000
,
00012000
01003000
00021000
00030100
,
00012000
00000000
00000000
00000000
01003000
00000000
00000000
00000000
00011000
00000000
00010000
00000000
00000100
00001000
00000100
00001000
,
00000000
00002020
00003030
00000202
,
00000303
00000000
00001001
00000000
00000000
00000000
00001100
00000000
00000000
00000000
00010000
00000100
00000000
00010000
00001000
00000000
,
00021000
00030010
00012000
00103000
,
00021000
00000000
00000000
00000000
00030010
00000000
00000000
00000000
00011000
00000000
00001000
00000000
01000000
00001000
01000000
00001000
,
00010000
00220000
00330000
22000000
,
33000000
00000000
10100000
00000000
00000000
00000000
01001000
00000000
00000000
00000000
00001000
00010000
00000000
00001000
00010000
00000100
,
00001000
00210000
00301000
00010020
,
00001030
00000000
00000000
00000000
00020100
00000000
00000000
00000000
00031000
00000000
00010000
00000000
00000100
00001000
00000010
00001000
,
00000100
00010000
00001000
01000000
00010000
00100000
01000000
10000000
,
10010000
00000000
10000000
00000000
00000000
00000000
10000000
01000000
00100000
00000000
00100000
00010000
00000000
00001000
00000100
00000000
,
00002002
00000000
00000000
00000000
,
00000000
00000000
00000000
00000000
,
00003003
00000000
00000000
00000000
,
00000000
00000000
00000000
00000000
00000000
00000000
00000000
00000000
00000000
00000000
00000000
00000000
00000001
00000000
00000000
00000100
,
00000000
00000100
00000000
00000000
00000010
00000000
00000000
00001000
00000000
00001000
00000000
00000000
00000100
00000000
00000000
00010000
,
00000000
00010000
00000000
00000000
00001000
00000000
00000000
01000000
00000000
01000000
00000000
00000000
00010000
00000000
00000000
00100000
,
00000000
00100000
00000000
00000000
01000000
00000000
00000000
10000000
00000000
10000000
00000000
00000000
01000000
00000000
00000000
00100000
,
00000000
00100000
00000000
00000000
00010000
00000000
00000000
01000000
00000000
01000000
00000000
00000000
00010000
00000000
00000000
00100000
,
00000000
00100000
00000000
00000000
00001000
00000000
00000000
00010000
00000000
00010000
00000000
00000000
00000010
00000000
00000000
00000100
,
00000000
00000100
00000000
00000000
00001000
00000000
00000000
00000100
00000000
00000100
00000000
00000000
00000001
00000000
00000000
00000010
,
00000000
00000010
00000000
00000000
00000100
00000000
00000000
00001000
00000000
00001000
00000000
00000000
00000100
00000000
00000000
00010000
,
00000000
00010000
00000000
00000000
00001000
00000000
00000000
00001000
00000000
01000000
00001000
01000000
00010000
00000000
00000000
00100000
,
00000000
00100000
01000000
00100000
00000000
00000000
00000000
01000000
00000000
10000000
01000000
10000000
00000000
00000000
00000000
00010000
,
00000000
01000000
00010000
01000000
00000000
00000000
00000000
00010000
00000000
00100000
00001000
00100000
00000000
00000000
00000000
00010000
,
00000000
00000100
00010000
00000100
00000000
00000000
00000000
00001000
00000000
00000010
00001000
00000010
00000000
00000000
00000000
00000100
,
00000000
00000001
00001000
00000001
00000010
00000000
00000010
00000000
00000010
00000000
00000000
00000000
00000100
00000000
00001000
00000000
,
00000100
00001000
00000100
00010000
00001000
00010000
00001000
01000000
,
00001000
01000000
00100000
01000000
00100000
01000000
00010000
01000000
,
10000000
01000000
00001000
00010000
00000100
00001000
00001020
00000000
,
00000000
00000000
00000000
00000000
00000000
00000000
00000000
00000000
00000130
00000000
00000000
00000000
00001001
00000000
00000000
00000101
,
00000000
00000001
00000100
00000010
00000100
00000000
00000000
00000010
00000000
00000100
00000010
00001000
00000100
00000000
00000000
00010000
,
00000000
00001000
01000000
00100000
01000000
00000000
00000000
00010000
00000000
00100000
01000000
00100000
00010000
00000000
00000000
10000000
,
00000000
00100000
10000000
00010000
00100000
00000000
00000000
00001000
00000000
00010000
00000010
00000100
00000001
00000000
00000000
00000010
,
00000000
00000100
00000010
00000001
00001000
00000000
00000000
00000100
00000000
00001000
00000100
00010000
00001000
00000000
00000000
00010000
,
00000000
00001000
00100000
00010000
01000000
00000000
00000000
00100000
00000000
10000000
01000000
00100000
01000000
00000000
00000000
00100000
,
00000000
01000000
00100000
00001000
00010000
00000000
00000000
00000100
00000000
00001000
00000010
00000100
00001000
00000000
00000000
00000100
,
00000000
00000010
00001000
00000001
00000010
00000000
00000000
00001000
00000000
00000010
00000001
00001000
00000100
00000000
00000000
00001000
,
00000000
00000100
00010000
00001000
00010000
00000000
00000000
00000000
01001000
00000000
00000000
00000000
01000000
00000000
00100000
10000000
,
00000000
10000000
01000000
00100000
01000000
00000000
01000000
00100000
00000000
00100000
00001000
00010000
00000100
00000000
00001000
00000010
,
00000000
00000010
00000100
00000001
00000010
00000000
00000010
00000001
00000000
00000010
00000100
00001000
00000010
00000000
00000010
00010000
,
00000000
00010000
00001000
01000000
00010000
00000000
00010000
00100000
00000000
00100000
01000000
00100000
00001000
00000000
00001000
00010000
,
00000000
00010000
00001000
00000010
00000100
00000000
00000100
00000001
00000000
00000001
00000010
00000100
00001000
00000000
00000100
00010000
,
00000000
00001000
00010000
00001000
01000000
00000000
00010000
00100000
00000000
01000000
10000000
00100000
01000000
00000000
00010000
01000000
,
00000000
00100000
10000000
00010000
00100000
00000000
01000000
00100000
00000000
01000000
00001000
00010000
00000100
00000000
00001000
00000010
,
00000000
00000100
00001000
00000100
00000001
00000000
00001000
00000001
00000000
00000010
00001000
00000010
00000100
00000000
00000000
00000000
,
00000000
00000000
00010000
00000000
00000000
00000000
00001000
01000000
,
00001000
01000000
00100000
01000000
00100000
01000000
00100000
10000000
,
00100000
10000000
00010000
10000000
00010000
10000000
00010000
00100000
,
00010000
00100000
01000000
10000000
01000000
10000000
00010000
10000000
,
00010000
10000000
00010000
00100000
00010000
00100000
00001000
00010000
,
00001000
00000000
00010000
00000100
00001000
00000000
00000010
00000000
00000100
00000000
00001000
00000100
00000001
00000000
00000010
00000000
,
00000100
00000000
00001000
00000100
00000001
00000000
00000100
00000000
00000010
00000000
00000001
00000010
00000100
00000000
00000010
00000000
,
00000001
00000000
00001000
00000010
00000100
00000000
00001000
00000000
00010000
00000000
00001000
01000000
00200000
00000000
00000000
00000000
,
00000000
00000000
00000000
00000000
20300000
00000000
00000000
00000000
00000000
00000000
00000000
00000000
31000000
00000000
00000000
01000000
,
00000000
00000000
10000000
00000000
00000000
10000000
00000000
00000000
00010000
00000000
00010000
00100000
00000000
00000000
00100000
00000000
,
00000000
00001000
00000000
00000000
00010000
00000000
00000000
00000010
00000000
00000000
00000100
00000000
00000001
00000000
00000000
00000001
,
00000000
00000000
00001000
00000000
00000000
00001000
00000000
00000000
00000100
00000000
00000100
00000010
00000000
00000000
00000100
00000000
,
00000000
00000100
00000000
00000000
00000100
00000000
00000001
00000000
00000100
00000000
00001000
00000000
00000010
00000000
00000000
00010000
,
00000000
00000000
00001000
00000000
00000000
01000000
00000000
00000000
00010000
00000000
00100000
01000000
00000000
00000000
00100000
00000000
,
00000000
00100000
00000000
00000000
00010000
00000000
00000000
01000000
00000000
00000000
00100000
00000000
10000000
00000000
00000000
10000000
,
00000000
00000000
00010000
00000000
00000000
00010000
00000000
00000000
00100000
00000000
00001000
00010000
00000100
00000000
00001000
00000000
,
00010000
00100000
10000000
01000000
00010000
00001000
00011000
00000000
;
