#TITLE:passionate fate;
#SUBTITLE:;
#ARTIST:Ryu☆;
#TITLETRANSLIT:;
#SUBTITLETRANSLIT:;
#ARTISTTRANSLIT:;
#GENRE:;
#CREDIT:;
#MUSIC:passionate fate.ogg;
#BANNER:;
#BACKGROUND:;
#CDTITLE:;
#SAMPLESTART:16.389;
#SAMPLELENGTH:13.893;
#SELECTABLE:YES;
#OFFSET:0.322;
#BPMS:0.000=149.000;
#STOPS:140.000=1.208;
#ORIGIN:;
#TAGS:;
#PREVIEWVID:;
#JACKET:;
#CDIMAGE:;
#DISCIMAGE:;
#BGCHANGES:;
#FGCHANGES:;

//--------------- dance-single - Pandemonium X ----------------
#NOTES:
     dance-single:
     Pandemonium X:
     Beginner:
     4:
     0.142362,0.281583,0.092116,0,0,119,108,11,0,0,0,0,0,0,0.142362,0.281583,0.092116,0,0,119,108,11,0,0,0,0,0,0:
0000
0000
0000
0000
,
0000
0000
0000
0000
,
0000
0000
0000
0000
,
0000
0000
0000
0000
,
0000
0000
0000
0000
,
0000
0000
0000
0000
,
0001
0000
1000
0000
,
0001
0000
0000
0000
,
0100
0000
0010
0000
,
0100
0100
0100
0100
,
0000
0000
0000
0000
,
0001
0000
1000
0000
,
0001
0000
1000
0000
,
0010
0000
0100
0000
,
0010
0000
0000
0000
,
1000
0000
0001
0000
,
1000
0000
0000
0000
,
0010
0000
0100
0000
,
1001
0000
0000
0000
,
0001
0000
0001
0000
,
0001
0000
0000
0000
,
0100
0000
0010
0000
,
1000
0000
0000
0000
,
0110
0000
0000
0000
,
1001
0000
0100
0000
,
0010
0000
1000
0001
,
1000
0000
0000
0000
,
1001
0000
0000
0000
,
0100
0100
0100
0000
,
1001
0000
0000
0000
,
0010
0000
0000
0000
,
1001
0000
0000
0000
,
0100
0100
0100
0100
,
1001
0000
0110
0000
,
1001
0000
0000
0000
,
0000
0001
0000
1000
,
0000
0010
0000
1000
,
0000
0100
0000
0010
,
0010
0010
0000
0000
,
0000
0001
0000
0010
,
0000
0001
0000
1000
,
0000
0001
0000
0100
,
0100
0100
0000
0000
,
0000
0010
0000
1000
,
0000
0001
0000
0000
,
0000
0010
0000
0001
,
0000
0100
0000
0000
,
0000
0010
0000
1000
,
0000
0100
0000
0000
,
0000
0010
0000
0001
,
0000
1001
0000
0000
,
0000
0001
0000
0000
,
0000
1000
0000
0010
,
0000
1000
0000
0000
,
0000
0001
0000
0000
,
0000
0001
0000
1000
,
0000
0010
0000
0000
,
0000
0100
0000
0010
,
0000
1000
1000
1000
,
0000
0001
0000
1000
,
0000
0100
0000
0000
,
0000
0010
0000
0001
,
0000
1000
0000
0001
,
0001
1000
0000
0001
,
0000
0100
0000
0010
,
0010
0010
0000
0100
,
0100
0100
0000
0000
,
0000
1001
0000
0000
;

//--------------- dance-single - Pandemonium X ----------------
#NOTES:
     dance-single:
     Pandemonium X:
     Easy:
     7:
     0.226104,0.3379,0.21773,0.15911,0,189,163,26,19,0,0,0,0,0,0.226104,0.3379,0.21773,0.15911,0,189,163,26,19,0,0,0,0,0:
0000
0000
0000
0000
,
0000
0000
0000
0000
,
0000
0000
0000
0000
,
0000
0000
0000
0000
,
0000
0000
0000
0000
,
0000
0000
0000
0000
,
0001
0000
1000
0000
,
0010
0000
0100
0000
,
0001
0000
1000
0000
,
0001
0010
0100
2200
,
0000
3300
0000
0000
,
0001
0001
0001
0000
,
1000
1000
1000
0000
,
0010
0010
0100
0100
,
1001
1001
0000
0000
,
0001
0100
0001
0010
,
0002
0000
1003
0001
,
0200
0300
0010
1000
,
1001
0000
0000
0000
,
0002
0103
0200
0301
,
0020
0000
0130
1000
,
0002
0003
1000
0001
,
1000
0000
0010
0100
,
1001
0000
0010
0000
,
1001
0000
0110
1001
,
0220
0330
1000
0001
,
0110
0000
0000
0000
,
0001
0000
1000
0000
,
1001
1001
1001
0000
,
1000
0000
0010
0000
,
0100
0001
0010
0001
,
1000
0000
0001
0000
,
1001
0110
1001
1001
,
0001
0000
1000
0000
,
0200
0000
0000
0000
,
0300
0010
0000
0001
,
0000
0100
0000
0010
,
1000
0002
0003
1000
,
0001
0200
0300
0010
,
1000
0001
0000
1000
,
0000
0100
0000
0010
,
0100
2000
3000
0001
,
1000
0110
0000
0000
,
0000
1000
0000
0001
,
0000
0010
0001
0100
,
0001
1000
0000
0010
,
0000
0100
0000
0010
,
0010
1000
0000
0001
,
0000
0010
0001
0100
,
0010
1000
0000
0100
,
0000
1001
0000
0000
,
0000
0010
0000
1000
,
0000
0001
0000
0010
,
0000
0100
0000
1000
,
0000
0001
0000
0000
,
0110
0001
1000
0010
,
0000
1000
0001
0100
,
0000
1001
0010
1001
,
0110
0001
0001
0001
,
0001
1000
0010
1000
,
0001
0020
0030
0100
,
0010
0002
0003
0010
,
0001
2000
3000
1001
,
0110
1001
1000
0001
,
0100
0001
0010
0100
,
1000
0200
0300
1000
,
0010
0200
0000
0000
,
0000
0300
0010
0000
0000
0000
0000
0000
;

//--------------- dance-single - Pandemonium X ----------------
#NOTES:
     dance-single:
     Pandemonium X:
     Medium:
     10:
     0.368466,0.450533,0.577822,0.15911,0.129801,308,239,69,19,0,0,0,0,0,0.368466,0.450533,0.577822,0.15911,0.129801,308,239,69,19,0,0,0,0,0:
0000
0000
0000
0000
,
0000
0000
0000
0000
,
0000
0000
0000
0000
,
0000
0000
0000
0000
,
0000
0000
0000
0000
,
0000
0000
0000
0000
,
0001
0000
0000
0001
0000
0000
0000
0000
1000
0000
0000
1000
0000
0000
0000
0000
,
0010
0000
0000
0010
0000
0000
0000
0000
0100
0000
0000
0000
0010
0000
1000
0000
,
0100
0000
0010
0000
,
0011
1100
0101
2002
,
0000
3003
0000
0000
,
0101
0011
0101
0000
,
1010
1100
1010
0000
,
1001
0101
1001
1100
,
1001
1001
0000
0000
,
0101
0100
0010
1000
,
1100
0100
0011
0010
,
0101
0000
0000
0000
0011
0000
0000
0000
1001
0000
0000
0001
0000
0000
0200
0000
,
0010
0010
0000
0000
0000
0000
0302
0000
,
0013
0000
0000
0010
0000
0000
0000
0000
0100
0000
0000
0100
0000
0000
0000
0000
,
1000
0001
0000
0100
0010
0000
1000
0000
,
0200
0000
0000
0000
0300
0000
0010
0000
0100
0000
0000
1000
0000
0000
0020
0000
,
0000
0000
0030
0100
0010
0000
1000
0000
,
0001
0000
0000
0001
0000
0000
0000
0000
1000
0000
0000
1000
0000
0000
0000
0000
,
0010
0010
0000
0100
0100
0000
0010
0000
,
1001
0000
0000
0000
0000
0000
0000
0000
1001
0000
0000
0110
0000
0000
2002
0000
,
0000
3003
0000
0000
,
1000
0001
1000
0001
,
1002
1003
2001
3001
0110
0000
0002
0000
,
0013
0100
1000
0001
,
1000
0100
0001
0100
1000
0010
0110
0000
,
1000
0001
1000
0001
,
1002
1003
2000
3001
0110
0000
1001
0000
,
1000
0100
0010
0001
,
2200
0000
0000
0000
,
3300
0011
0001
0101
,
0100
0110
0010
1010
,
0101
1010
1000
1001
,
0110
1001
0000
1000
,
0100
0110
0100
1100
,
1000
1010
0010
0110
,
0101
0000
0000
0000
0220
0000
0000
0000
0330
0000
0000
0000
1001
0000
0000
0110
,
0000
1001
0000
0001
0000
0001
0000
0001
,
0001
0000
0000
0000
1000
0000
0000
0010
0000
0000
0000
0000
0100
0000
0000
0001
,
0000
0000
0000
0000
0010
0000
0000
0000
0100
0000
0000
0000
1000
0100
0000
1000
,
0000
0000
0000
0000
0100
0000
0000
0100
0000
0000
0000
0000
1000
0000
0000
1000
,
0000
0000
0010
0000
0100
0000
0001
0010
,
0001
0000
1000
0000
0001
0000
0000
0010
0000
0000
0000
0000
0100
0010
0000
0100
,
0000
0000
0010
0001
0100
0000
0010
1000
,
0100
0000
0000
0000
0010
0000
0000
0010
0000
0000
0000
0000
0100
0000
0000
0100
,
0000
0000
1001
1001
0000
0000
0000
0000
,
0000
0001
0000
1000
,
0000
0000
0000
0000
0100
0000
0000
0000
0000
0000
0000
0000
0010
0001
0000
0100
,
0000
0010
0000
0100
,
0000
0001
0000
0000
,
2000
3001
1000
0010
,
1000
0000
0100
0000
0010
0000
0001
0010
,
0100
0000
1000
0000
0001
0000
0000
0000
0000
0000
1000
0000
0001
0000
0000
0100
,
0000
0010
0110
0000
1001
0000
0110
0000
,
1001
0000
0000
0000
0001
0000
0000
0001
0000
0000
0001
0000
1000
0000
0000
1000
,
0000
1000
0010
0100
0000
0010
1000
0000
,
0001
0000
0000
0000
0011
0000
0000
0000
0000
0000
0000
0000
0010
0000
0000
0001
,
0000
0000
0000
0200
0000
0000
0000
0000
0000
0000
0000
0000
0300
0000
0000
0000
0000
0000
0010
0000
0100
0000
0001
0000
,
1000
0000
0000
0000
0011
0000
0000
0010
0000
0000
0001
0000
1000
0000
0000
1000
,
0000
0001
1000
0001
0000
0100
0010
0000
,
1000
0000
0000
0000
0101
0000
0000
0000
0000
0000
0000
0000
1010
0000
0000
0101
,
0000
2002
0000
0000
0000
0000
0000
0000
,
0000
3003
0110
0000
0000
0000
0000
0000
;

//--------------- dance-single - Pandemonium X ----------------
#NOTES:
     dance-single:
     Pandemonium X:
     Hard:
     12:
     0.501257,0.647642,0.636441,0.27635,0.297285,419,342,76,33,0,7,2,0,0,0.501257,0.647642,0.636441,0.27635,0.297285,419,342,76,33,0,7,2,0,0:
0000
0000
0000
0000
,
0000
0000
0000
0000
,
0000
0000
0000
0000
,
0000
0000
0000
0000
,
0000
0000
0000
0000
,
0000
0000
0000
0000
,
0001
0000
0000
0001
0000
0000
0000
0000
1000
0010
0000
0101
0000
1001
0000
0000
,
0001
0000
0000
0001
0000
0000
1000
0000
0001
0000
0000
0000
1000
0100
0010
0001
,
1000
0000
0000
0001
0000
0000
0000
0000
0100
0000
0000
0010
0000
0000
0000
0000
,
1010
0011
1100
2000
,
0000
0000
3000
0001
0010
0100
1000
0001
,
0101
1010
0101
0000
,
1100
0011
1100
0000
,
1001
1010
1001
0011
,
1001
1001
0000
0000
,
1001
0000
0011
0000
0010
0100
1100
0000
,
1010
0000
0110
0000
1000
0001
0010
0100
,
0210
0000
0000
0000
1300
0000
0000
0000
0011
0000
0000
0110
0000
0000
2100
0000
,
0000
0000
0000
3001
0010
0100
2000
0000
,
3001
0000
0000
0001
0000
0000
1000
0000
0001
0000
0000
0001
0000
0000
0100
0010
,
0100
0020
0000
0130
0001
0010
1000
0010
,
0200
0000
0000
0000
0300
0000
0010
0100
1000
0000
0000
1000
0000
0000
0002
0000
,
0000
0003
0000
0001
1000
0100
0010
0001
,
0011
0000
0000
0100
0000
0000
0010
0000
0001
0000
0000
0001
0000
0000
0010
0100
,
1000
2000
0000
3001
0011
0010
0100
1000
,
1001
0000
0000
1010
0000
0000
0001
0100
0010
0000
0000
1001
0000
0000
0120
0000
,
0000
0030
0000
0000
,
1001
1000
0001
1000
,
0001
0000
0100
0000
1000
0000
0010
0000
0001
0000
0000
0000
1000
0100
0010
0100
,
1000
0001
0100
0010
,
0100
0010
0100
0010
0100
0000
1001
0000
0100
0000
1001
0000
0001
0000
0000
0000
,
0100
0010
1000
0001
,
1000
0100
1000
0000
0001
0000
0100
0000
0101
0000
0000
0000
1100
0000
0000
0000
,
1001
0100
0010
0001
,
4000
0004
0000
0000
0000
0000
0000
0000
0000
0000
0000
0000
0000
0000
0000
0000
,
3003
0000
0000
0000
0001
0000
0000
0001
0000
0000
0010
0000
0100
0000
0000
0100
,
0000
0000
0100
1000
0001
0000
0100
0000
0000
0000
0010
0000
0001
0000
0010
0000
,
1000
0000
0001
0000
0020
0000
0000
0000
0030
0000
0100
1000
0001
0000
0000
0001
,
0000
0200
0000
0000
0300
0010
1000
0100
,
0010
0000
0001
0000
1000
0000
0000
1000
0000
0000
0001
0000
0010
0000
0000
0010
,
0000
0000
0100
0010
0001
0000
1000
0000
0000
0000
0001
0000
1000
0000
0100
0000
,
0001
0000
0100
0000
2000
0000
0000
0000
3000
0000
0001
0100
0010
0000
0000
1010
,
0000
0102
0000
0010
0000
0100
0000
0013
,
0011
0000
0000
0000
1100
0000
0000
1000
0000
0000
0100
0000
0110
0000
0000
0100
,
0000
0000
0010
0000
0011
0000
0001
0000
0010
0000
0100
0000
1000
0010
0000
0101
,
0000
0000
0000
0000
1001
0000
0000
1000
0000
0000
0100
0000
0110
0000
0000
0100
,
0000
0000
0010
0000
1001
0000
1000
0000
0100
0000
0010
0000
0110
0000
0000
0011
,
0000
0000
1100
0000
1001
0000
0000
0001
0000
0000
0010
0000
0100
1000
0000
0011
,
0000
0000
1000
0001
0100
0001
1000
0100
,
0010
0000
0001
0000
1001
0000
0000
1000
0000
0000
0001
0000
1001
0000
0000
0001
,
0000
1000
0110
0110
0000
0001
1000
0100
,
0010
0001
1000
0000
0000
0000
0001
0000
,
0000
0000
0000
0000
0100
0000
0000
0000
0000
0000
0000
0000
0010
1000
0000
0101
,
0000
0011
0000
0000
0010
0000
0000
0000
0000
0000
0000
0000
0100
0000
0000
1000
,
0000
0002
0000
0000
0003
0001
1000
0100
,
2000
0000
0000
0000
3100
0000
0000
0100
0000
0000
0010
0000
0100
0000
0000
0100
,
0000
0000
0100
0010
0001
0000
0020
0000
0000
0000
0130
0000
0001
0000
0100
0000
,
1000
0000
0001
0000
0200
0000
0000
0000
0300
0000
0010
1000
0001
0000
0000
1000
,
0000
0110
1001
0000
0110
0000
1001
0000
,
0110
0000
0000
0000
2001
0000
0000
3010
0000
0000
1000
0000
1002
0000
0000
0013
,
0000
0000
0100
1000
0010
0000
0200
0000
0000
0000
0310
0000
0001
0000
0010
0000
,
1000
0000
0001
0000
0200
0000
0000
0000
0310
0000
0100
0010
1000
0000
0000
0001
,
0000
0000
0000
1000
0000
0000
1001
0000
0000
0000
0000
0000
0000
0000
0000
0000
0000
0000
1001
0000
1000
0000
0001
0000
,
1001
0000
0000
0000
0201
0000
0000
0310
0000
0000
0100
0000
0120
0000
0000
1030
,
0000
0000
0100
1000
0010
0000
1000
0000
0000
0000
0100
0000
0010
0000
0001
0000
,
0010
0000
0100
0000
2000
0000
0000
0000
0000
0000
3100
0010
0001
0000
0000
1100
,
0000
0000
1000
0000
1002
0000
0000
1000
0000
0000
1000
0000
0000
1000
0000
0000
,
1000
1003
0110
0000
0000
0000
0000
0000
;

//--------------- dance-single - Pandemonium X ----------------
#NOTES:
     dance-single:
     Pandemonium X:
     Challenge:
     13:
     0,0,0,0,0:
0000
0000
0000
0000
,
0000
0000
0000
0000
,
0000
0000
0000
0000
,
0000
0000
0000
0000
,
0000
0000
0000
0000
,
0000
0000
0000
0000
,
0201
0000
0000
0310
0000
0000
0000
0000
1000
0010
0000
0101
0000
1001
0000
0000
,
2000
0000
0000
0100
0000
0000
3001
0000
1001
0000
0000
0000
1000
0100
0010
0001
,
2000
0000
0000
3010
0000
0000
0000
0000
0102
0000
0000
0013
0100
1000
0000
0000
,
0001
0010
0001
0000
1000
0010
1000
0000
0001
0010
0001
0000
1000
0010
0200
0000
,
0000
0000
0300
0001
0010
0100
1000
0001
,
0101
1010
0101
MMMM
,
1100
0011
1100
MMMM
,
1001
1010
1001
0011
,
1001
1001
MMMM
MMMM
,
1001
0000
0011
0000
0010
0100
1100
0000
,
1010
0000
0110
0000
1000
0001
0010
0100
,
0210
0000
0000
0000
1300
0000
0000
0000
0012
0000
0000
0100
0000
0000
0013
0000
,
1001
1001
0000
1000
0001
0100
0001
1000
,
0001
0000
0000
0001
0000
0000
1000
0000
0001
0000
0000
0001
0000
0000
0100
0010
,
0100
0020
0000
0130
0001
0010
1000
0010
,
0200
0000
0000
0000
0300
0000
0010
0100
1000
0000
0000
0001
0000
0000
0110
0000
,
0000
MMMM
0000
1000
0100
0100
0010
0001
,
0011
0000
0000
0100
0000
0000
0010
0000
0001
0000
0000
0001
0000
0000
0010
0100
,
0110
2000
0000
3001
0011
0010
0100
1000
,
1001
0000
0000
1010
0000
0000
0001
0100
0110
0000
0000
0101
0000
0000
2001
0000
,
0000
3000
0000
0000
,
0100
0010
0001
1000
,
0001
0000
MMMM
0000
0010
0000
MMMM
0000
0001
0000
0000
0000
1000
0100
0010
0100
,
1000
0010
1000
0100
0000
0010
0000
0001
,
0010
0100
0010
0100
0010
0000
1002
0000
0103
0000
2001
0000
3010
0000
0000
0000
,
1001
0001
1000
0001
,
1000
0000
MMMM
0000
0010
0000
MMMM
0000
1000
0000
0000
0000
0010
1000
0001
1000
,
0100
0010
0100
1000
0000
0100
0010
0001
,
1000
0010
1000
0000
0001
0100
0001
0000
0010
0001
0010
0000
0100
1000
0100
0010
,
0000
0000
0000
0000
1001
0000
0000
0001
0000
0000
0010
0000
0100
0000
0000
0100
,
0000
0000
0100
1000
0001
0000
0100
0000
0000
0000
0010
0000
0001
0000
0010
0000
,
1000
0000
0001
0000
0020
0000
0000
0000
0130
0000
0010
0001
1000
0000
0000
0001
,
0000
0000
0100
0000
0010
1000
0010
0000
0100
0001
0100
0000
0001
0000
1000
0000
,
0100
0000
0010
0000
0001
0000
0000
0001
0000
0000
1000
0000
0010
0000
0000
0010
,
0000
0000
0100
0010
0100
0000
0020
0000
0000
0000
0130
0000
0010
0000
1000
0000
,
0100
0000
0010
0000
0200
0000
0000
0000
0000
0000
0310
0100
0110
0000
0000
1001
,
0000
1001
0000
0110
MMMM
1001
MMMM
0100
,
1001
0000
0000
0000
1100
0000
0000
1000
0000
0000
0100
0000
0110
0000
0000
0100
,
0000
0000
0010
0000
0011
0000
0001
0000
0010
0000
0100
0000
1000
0010
0000
0101
,
0000
0000
0000
0000
1001
0000
0000
1000
0000
0000
0100
0000
0110
0000
0000
0100
,
0000
0000
0010
0000
1001
0000
1000
0000
0100
0000
0010
0000
0110
0000
0000
0011
,
0000
0000
1100
0000
1001
0000
0000
0001
0000
0000
0010
0000
0100
1000
0000
0011
,
0000
0000
0101
0001
0100
0001
1000
0100
,
0010
0000
0001
0000
1001
0000
0000
1000
0000
0000
0001
0000
1001
0000
0000
0001
,
0000
1000
0110
0110
0000
0001
1000
0100
,
0010
0001
1000
0000
MMMM
0000
0100
0000
,
MMMM
0000
0000
0000
0010
0000
0000
0000
MMMM
0000
0000
0000
0001
1000
0000
0101
,
0000
0011
0000
0000
0010
0000
0000
0000
MMMM
0000
0000
0000
0100
0000
0000
1000
,
0000
0002
0000
0000
0003
0001
1000
0100
,
MMMM
0000
0000
0000
1001
0000
0000
1000
0000
0000
0001
0000
0100
0000
0000
0100
,
0000
0000
0100
0010
1000
0000
0020
0000
0000
0000
0130
0000
0010
0000
0001
0000
,
0010
0000
1000
0000
0200
0000
0000
0000
0300
0000
0010
0001
1000
0000
0000
0001
,
0000
0110
1001
MMMM
0110
MMMM
1001
MMMM
,
0110
0000
MMMM
0000
2001
0000
0000
3010
0000
0000
1000
0000
1002
0000
0000
0013
,
0000
0000
0100
1000
0010
0000
0200
0000
0000
0000
0310
0000
0001
0000
0010
0000
,
1000
0000
0001
0000
0200
0000
0000
0000
0310
0000
0100
0010
1000
0000
0000
0001
,
0000
0000
0000
1000
0000
0000
1001
0000
0000
0000
0000
0000
MMMM
0000
0000
0000
0000
0000
1001
0000
1001
0000
1001
0000
,
1001
0000
0000
0000
0201
0000
0000
0310
0000
0000
0100
0000
0120
0000
0000
1030
,
0000
0000
0100
1000
0010
0000
2000
0000
0000
0000
3100
0000
0010
0000
0001
0000
,
0010
0000
0100
0000
2000
0000
0000
0000
0000
0000
3100
0010
0011
0000
0000
1100
,
0000
0000
0000
0000
1000
0000
0000
0000
1010
0000
0000
MMMM
0000
0000
0101
0000
0000
MMMM
0000
0000
1010
0000
0000
MMMM
0000
0000
0101
0000
0000
MMMM
0000
0000
,
1010
0101
1001
0000
0000
0000
0000
0000
;

//--------------- dance-double - Pandemonium X ----------------
#NOTES:
     dance-double:
     Pandemonium X:
     Easy:
     6:
     0,0,0,0,0:
00000000
00000000
00000000
00000000
,
00000000
00000000
00000000
00000000
,
00000000
00000000
00000000
00000000
,
00000000
00000000
00000000
00000000
,
00000000
00000000
00000000
00000000
,
00000000
00000000
00000000
00000000
,
10000000
00000000
01000000
00000000
,
10000000
00000000
00100000
02000000
,
03010000
00000000
00100000
00000000
,
00001000
00010000
00001000
00022000
,
00000000
00033000
00000000
00000000
,
00000100
00000100
00000100
00000000
,
00010000
00010000
00010000
00000000
,
00001000
00001000
01000000
01000000
,
00100000
00100000
00000000
00000000
,
01000000
00010000
00100000
00001000
,
00010000
00000010
00000100
00000001
,
00002000
00000000
00003100
00010000
,
00001000
00001000
00000000
00000000
00000000
00000000
00000000
00000000
,
00010000
00001000
01000000
00100000
,
20000000
30000000
01000000
10000000
,
00200000
00300000
01000000
00010000
,
20000000
30000000
00010000
00100000
,
00001000
00000000
00010000
00000000
,
00000100
00000000
00001000
00000010
,
00000100
00000000
00001002
00000000
,
00000000
00000003
00000000
00000000
,
00000100
00000000
00010000
00000000
,
00001000
01000000
00100000
20000000
,
31000000
00000000
00100000
00000000
,
00001000
00010000
00011000
00011000
,
00010000
00000000
00000100
00000000
,
00001000
00000010
00000100
00000100
,
00000001
00000000
00001000
00000000
,
00022000
00000000
00000000
00000000
,
00033000
00001000
00000000
01000000
,
00000000
00100000
00000000
01000000
,
00010000
20000000
30000000
00010000
,
00100000
01000000
00000000
00100000
,
00001000
00010000
00000000
00000100
,
00000000
00001000
00000000
00000010
,
00000100
00000002
00000000
00001003
,
00000100
00000020
00000000
00000030
,
00000000
00000100
00000000
00010000
,
00000000
00001000
01000000
01100000
,
00000000
01000000
00000000
00001000
,
00000000
00010000
00001000
00011000
,
00000000
00010000
00000000
00001100
,
00000000
00001000
00000010
00001000
,
00000000
00000001
00000000
00001000
,
00000000
00000110
00000000
00000000
,
00000000
00000010
00000000
00010000
,
00000000
00001000
00000000
01000000
,
00000000
00100000
00000000
10000000
,
00010000
10000000
00000000
00000000
,
01100000
00010000
00000000
00100000
,
00000000
00001000
00000000
00010000
,
00000100
00010000
00000000
00001000
,
01000000
00001000
00001000
00001000
,
00001000
00010000
00000000
00000100
,
00000000
00001000
00000000
00000010
,
00000100
00000002
00000003
00001000
,
00000100
00010000
00000000
00011000
,
00011000
00001000
00000000
01000000
,
00000000
00100000
00000000
10000000
,
01000000
00200000
00000000
00301000
,
00010000
00002000
00000000
00000000
,
00000000
00003000
00000000
00000000
;

//--------------- dance-double - Pandemonium X ----------------
#NOTES:
     dance-double:
     Pandemonium X:
     Medium:
     10:
     0,0,0,0,0:
00000000
00000000
00000000
00000000
,
00000000
00000000
00000000
00000000
,
00000000
00000000
00000000
00000000
,
00000000
00000000
00000000
00000000
,
00000000
00000000
00000000
00000000
,
00000000
00000000
00000000
00000000
,
10000000
00000000
00000000
10000000
00000000
00000000
00000000
00000000
00010000
00000000
00000000
00010000
00000000
00000000
00000000
00000000
,
00100000
00000000
00000000
00100000
00000000
00000000
00000000
00000000
00001000
00000000
00000000
00000000
00010000
00000000
00000100
00000000
,
00001000
00000000
00000000
00001000
00000000
00000000
00000000
00000000
00000001
00000000
00000000
00000001
00000000
00000000
00000000
00000000
,
00000100
00000010
00010000
00022000
,
00000000
00033000
00000000
00000000
,
00101000
00101000
00101000
00000000
,
00110000
00110000
00110000
00000000
,
11000000
11000000
11000000
10010000
,
10100000
01010000
00000000
00000000
,
10010000
00010000
00110000
00100000
,
00101000
00010000
00011000
00001100
,
00000210
00000000
00000000
00000000
00000300
00000000
00000000
00000000
00000010
00000000
00000000
00000001
00000000
00000000
00000200
00000000
,
00000010
00000010
00000000
00000000
00000300
00000000
00002001
00000000
,
00003100
00000000
00000000
00000100
00000000
00000000
00000100
00000000
00010000
00000000
00000000
00010000
00000000
00000000
00010000
00000000
,
00001000
01000000
00000000
01000000
00100000
10000000
01000000
10000000
,
21000000
00000000
00000000
00000000
30000000
00000000
00010000
00000000
00100000
00000000
00000000
00010000
00000000
00000000
20000000
00000000
,
00000000
30000000
00000000
00010000
01000000
00010000
00100000
00000000
,
00101000
00000000
00011000
00000000
,
00010100
00000000
00001100
00000000
,
00000110
00000000
00000000
00000000
00000000
00000000
00000000
00000000
00000011
00000000
00000000
00000101
00000000
00000000
00000022
00000000
,
00000000
00000033
00000000
00000000
,
00000001
00000100
00001000
00010000
,
01100000
00000000
10100000
00000000
01100000
00000000
10000000
01000000
,
00010000
01000000
00100000
00001000
,
00010000
00001000
00010000
00001000
00010000
00001000
00010000
00000000
,
00000100
00001000
00000010
00001000
,
00000100
00001000
00011000
00011000
,
00100000
00000000
01000000
00000000
10000000
00000000
00010000
00100000
,
00002000
00000000
00000000
00000000
,
00003000
00000000
00000000
00000000
00010000
00000000
00000000
00010000
00000000
00000000
00000000
00000000
00000100
00000000
00000000
00000100
,
00000000
00000000
00001000
00000010
00000000
00000100
00000001
00000000
,
00001000
00000000
00000000
00000000
00001200
00000000
00000000
00000000
00000300
00000000
00000000
00000000
00010000
00000000
00000000
00001000
,
00000000
02000000
00000000
03000000
00000000
00100000
01000000
00000000
,
00010000
00000000
00000000
00000000
10000000
00000000
00000000
10000000
00000000
00000000
00000000
00000000
00010000
00000000
00000000
00010000
,
00000000
00000000
00100000
00001000
00000000
00010000
00000100
00000000
,
00001000
00000000
00000000
00000000
00001010
00000000
00000000
00000000
00000000
00000000
00000000
00000000
00001001
00000000
00000000
00000110
,
00000000
00002002
00000000
00000000
00000000
00000000
00003003
00000000
,
00000000
00000000
00000000
00000000
00000001
00000000
00000000
00000001
00000000
00000000
00000001
00000000
00000100
00000000
00000000
00000100
,
00000000
00000000
00000100
00000000
00000010
00000000
00000000
00000000
00001000
00000000
00000000
00000000
00000100
00001000
00000000
00000100
,
00000000
00000000
00000000
00000000
00001000
00000000
00000000
00001000
00000000
00000000
00001000
00000000
00000100
00000000
00000000
00000100
,
00000000
00000100
00010000
00000000
00000000
00000000
00001000
01000000
,
00100000
00000000
10000000
00000000
01000000
00000000
00000000
01000000
00000000
00000000
01000000
00000000
00100000
00000000
00000000
00100000
,
00000000
00100000
00001000
00000000
00010000
00000000
00000100
00001000
,
00000010
00000000
00000100
00000000
00000001
00000000
00000000
00000001
00000000
00000000
00000001
00000000
00001000
00000000
00000000
00001000
,
00000000
00001000
00001001
00001001
00000000
00000000
00000000
00000000
,
00000000
00000001
00000000
00000100
,
00000000
00000000
00000000
00000000
00001000
00000000
00000000
00000000
00000000
00000000
00000000
00000000
00010000
01000000
00000000
00100000
,
00000000
10000000
00000000
00000000
01000000
00000000
00000000
00000000
00000000
00000000
00000000
00000000
00100000
00000000
00000000
01000000
,
00000000
10000000
00000000
00000000
00000000
00010000
10000000
00010000
,
02010000
00000000
00000000
00000000
03100000
00000000
00000000
00100000
00000000
00000000
00100000
00000000
01000000
00000000
00000000
01000000
,
00000000
01000000
00001000
02000000
00000000
03010000
00100000
01000000
,
10000000
00000000
00010000
00000000
10000000
00000000
00000000
00000000
00010000
00000000
00100000
00000000
00001000
00000000
00000000
00010000
,
00000000
00000100
00001100
00000000
00001100
00000000
00011000
00000000
,
00011000
00000000
00000000
00000000
00101000
00000000
00000000
00001000
00000000
00000000
00010000
00000000
00011000
00000000
00000000
00010000
,
00000000
00000100
00001000
00001000
00000000
00000100
00001000
00000010
,
00000100
00000000
00000001
00000000
00002000
00000000
00000000
00000000
00000000
00000000
00000000
00000000
00003100
00000000
00000000
00010000
,
00000000
00000000
00000000
00011000
00000000
00000000
00000000
00000000
00000000
00000000
00000000
00000000
00000000
00000000
00000000
00000000
00000000
00000000
00010000
00000000
00001000
00000000
00010000
00000000
,
00001000
00000000
00000000
00000000
00010000
00000000
00000000
00000100
00000000
00000000
00001000
00000000
00000010
00000000
00000000
00000100
,
00000000
00000001
00000010
00000200
00000000
00001000
00001300
00000000
,
00000100
00000000
00000000
00000000
00012000
00000000
00000000
00000000
00000000
00000000
01000000
00000000
02003000
00000000
00000000
03200000
,
00000000
20000000
00000000
00000000
00000000
00000000
00000000
00000000
,
30300000
10010000
00000000
00000000
;

//--------------- dance-double - Pandemonium X ----------------
#NOTES:
     dance-double:
     Pandemonium X:
     Hard:
     12:
     0,0,0,0,0:
00000000
00000000
00000000
00000000
,
00000000
00000000
00000000
00000000
,
00000000
00000000
00000000
00000000
,
00000000
00000000
00000000
00000000
,
00000000
00000000
00000000
00000000
,
00000000
00000000
00000000
00000000
,
00010000
00000000
00000000
00010000
00000000
00000000
00000000
00000000
00100000
00001000
00000000
00011000
00000000
00010100
00000000
00000000
,
00010000
00000000
00000000
00000000
00000100
00000000
00000000
00000000
00001000
00000000
00000000
00000000
00000010
00000100
00000001
00001000
,
00000100
00000000
00010100
00000000
,
00011000
00110000
01100000
22000000
,
00000000
00000000
33000000
10000000
01000000
00100000
00010000
01000000
,
01010000
00110000
00101000
00000000
,
00011000
00001100
00001010
00000000
,
00000110
00000101
00001010
00001100
,
00011000
00011000
00000000
00000000
,
01001000
00000000
00000000
01000000
00000000
00000000
01000000
00000000
01100000
00000000
00000000
00100000
00000000
00000000
00100000
00000000
,
10100000
10000000
00000000
10000000
01000000
00010000
01000000
10000000
,
00200000
00000000
00000000
00000000
00000000
00000000
01300000
00010000
00100000
00000000
00000000
00001000
00000000
00000000
00010000
00000000
,
00010100
00010100
00000000
00001000
00000100
00000010
00000002
00000103
,
00001001
00000000
00000000
00001000
00000000
00000000
00000100
00000000
00001000
00000000
00000000
00000100
00000000
00000000
00001000
00000100
,
00010000
00002000
00000000
01003000
10000000
01000000
00010000
10000000
,
00020000
00000000
00000000
00000000
00030000
00000000
00100000
00001000
00010000
00000000
00000000
00000100
00000000
00000000
00001200
00000000
,
00000000
00000300
00000000
00001000
00000010
00000001
00000010
00001000
,
00001100
00000000
00000000
00001000
00000000
00000000
00000100
00000000
00010100
00000000
00000000
00010000
00000000
00000000
00010000
00001000
,
01000000
00200000
00000000
01300000
00010000
01000000
10000000
01000000
,
01010000
00000000
00000000
00010000
00000000
00000000
00100000
00001000
00011000
00000000
00000000
00010100
00000000
00000000
00022000
00000000
,
00000000
00033000
00000000
00000000
,
00100000
00001000
00010000
00000010
,
00000100
00000000
00001000
00000000
00010000
00000000
00100000
00000000
01000000
00000000
00000000
00000000
00010000
10000000
00010000
10000000
,
00010000
00100000
00001000
00010000
,
00000100
00001000
00000010
00000001
00000010
00001000
00001001
00000000
,
00001000
00000010
00000100
00000001
,
00000001
00000100
00001000
00010000
00011000
00000000
10010000
00000000
,
10000000
01000000
10000000
00100000
00000000
01000000
00001000
00010000
,
00000400
00004000
00000000
00000000
00000000
00000000
00000000
00000000
00000000
00000000
00000000
00000000
00000000
00000000
00000000
00000000
,
00003300
00000000
00000000
00000000
00001001
00000000
00000000
00001000
00000000
00000000
00000100
00000000
00010100
00000000
00000000
00010000
,
00000000
00000000
00001000
01000000
00100000
00000000
02000000
00000000
00000000
00000000
03100000
00000000
10000000
00000000
00010000
00000000
,
00100000
00000000
01000000
00000000
20000000
00000000
00000000
00000000
00010000
00000000
30010000
00100000
00001000
00000000
00000000
00010000
,
00000000
00020200
00000000
00030300
00000000
00010000
00000010
00000100
,
00000001
00000000
00001000
00000000
00001100
00000000
00000000
00000100
00000000
00000000
00010000
00000000
00011000
00000000
00000000
00100000
,
00000000
00000000
00010000
10000000
01000000
00000000
00200000
00000000
00000000
00000000
01300000
00000000
10000000
00000000
00010000
00000000
,
01000000
00000000
00010000
00000000
00200000
00000000
00000000
00000000
00000000
00000000
00301000
00010000
00011000
00000000
00000000
01010000
,
00000000
00021000
00000000
00001000
00000000
00001000
00000000
00031000
,
00011000
00000000
00000000
00000000
00010000
00000000
00000000
00000100
00000000
00000000
00001000
00000000
00000010
00000000
00000000
00000100
,
00000000
00000000
00000001
00000000
00000010
00000000
00001000
00000000
00000010
00000000
00000001
00000000
00000100
00000010
00000000
00001010
,
00000000
00000000
00000000
00000000
00001000
00000000
00000000
00000100
00000000
00000000
00001000
00000000
00000100
00000000
00000000
00010000
,
00000000
00001000
01000000
10000000
01000000
00010000
10000000
10000000
,
00010000
00000000
00100000
00000000
01000000
00000000
00000000
01000000
00000000
00000000
10000000
00000000
00010000
10000000
00000000
10100000
,
00000000
10010000
00000000
00000000
00010000
00000000
00100000
00000000
10000000
00000000
00100000
00000000
00010000
00000000
00001000
00000000
,
00000100
00000000
00001000
00000000
00001001
00000000
00000000
00000001
00000000
00000000
00000001
00000000
00001001
00000000
00000000
00001000
,
00000000
00001000
00001001
00001001
00000000
00001000
00000001
00001000
,
00000100
00010000
00001000
00000000
00000000
00000000
01000000
00000000
,
00000000
00000000
00000000
00000000
00100000
00000000
10000000
00000000
00000000
00000000
00010000
00000000
00100000
01000000
00000000
11000000
,
00000000
10010000
00000000
00000000
00010000
00000000
00000000
00000000
00000000
00000000
10000000
00010000
10000000
00000000
00000000
00010000
,
00000000
00200000
00000000
00300000
00000000
00001000
00010000
00000100
,
00002000
00000000
00000000
00000000
00003010
00000000
00000000
00000100
00000000
00000000
00000001
00000000
00001001
00000000
00000000
00001000
,
00000000
00000000
00000100
00010000
00001000
00000000
02000000
00000000
00000000
00000000
03100000
00000000
10000000
00000000
01000000
00000000
,
00100000
00000000
00010000
00000000
00110000
00000000
00000000
00000000
00000000
00000000
10000000
01000000
00100000
00000000
00000000
10010000
,
00000000
00010000
00110000
00000000
00010010
00000000
00110000
00000000
,
00010010
00000000
00000000
00000000
00011000
00000000
00000000
00001000
00000000
00000000
00001000
00000000
01000000
00000000
00000000
01000000
,
00000000
00000000
01000000
00100000
10000000
00000000
00010000
00000000
00000000
00000000
00100000
00000000
10000000
00000000
00100000
00000000
,
00010000
00000000
00001000
00000000
00020000
00000000
00000000
00000000
00000000
00000000
00030100
00001000
00000010
00000000
00000000
00000100
,
00000000
00000000
00000000
00001001
00000000
00000000
00000000
00000000
00000000
00000000
00000000
00000000
00000000
00000000
00000000
00000000
00000000
00000000
00000010
00000000
00000010
00000000
00000010
00000000
,
00000010
00000000
00000000
00000000
00000110
00000000
00000000
00001000
00000000
00000000
00000010
00000000
00010010
00000000
00000000
00010000
,
00000000
00000000
00001000
01000000
00100000
00000000
20000000
00000000
00000000
00000000
31000000
00000000
00100000
00000000
00010000
00000000
,
01000000
00000000
00001000
00000000
00020000
00000000
00000000
00000000
00000000
00000000
00031000
00010000
00000100
00000000
00000000
00010000
,
00000000
00000000
00012000
00000000
00010000
00000000
00000000
00010000
00000000
00000000
00010000
00000000
00000000
00010000
00000000
00000000
,
00010000
00013000
00011000
00000000
00000000
00000000
00000000
00000000
;

//--------------- dance-double - Pandemonium X ----------------
#NOTES:
     dance-double:
     Pandemonium X:
     Challenge:
     13:
     0,0,0,0,0:
00000000
00000000
00000000
00000000
,
00000000
00000000
00000000
00000000
,
00000000
00000000
00000000
00000000
,
00000000
00000000
00000000
00000000
,
00000000
00000000
00000000
00000000
,
00000000
00000000
00000000
00000000
,
00210000
00000000
00000000
00301000
00000000
00000000
00000000
00000000
00001000
00010000
00000000
00011000
00000000
00010100
00000000
00000000
,
00001200
00000000
00000000
00010000
00000000
00000000
00001300
00000000
00001100
00000000
00000000
00000000
00000001
00000010
00000100
00001000
,
00000020
00000000
00000000
00010030
00000000
00000000
00001000
00000000
00200000
00000000
00000000
00301000
00000000
00000000
00010000
00000000
,
00011000
10010000
01100000
20020000
,
30030000
00000000
00000000
10000000
01000000
00100000
00001000
00010000
,
00011000
00001001
00000110
00000000
,
00010010
00011000
00101000
00000000
,
00110000
00011000
00001010
00011000
,
00110000
11000000
00000000
00000000
,
21000000
00000000
00000000
30100000
00000000
00000000
01000000
00000000
01002000
00000000
00000000
00013000
00000000
00000000
00001000
00010000
,
00000100
00002000
00000000
00003010
00000001
00000010
00001000
00001000
,
00020000
00000000
00000000
00000000
00031000
00000000
00010000
00001000
01000000
00000000
01000000
00100000
00000000
00100000
20000000
00000000
,
01000000
01000000
00000000
30010000
00100000
01000000
10000000
01000000
,
02100000
00000000
00000000
13000000
00000000
00000000
10000000
00000000
10200000
00000000
00000000
01300000
00000000
00000000
01000000
00001000
,
00010000
00000200
00000000
00010300
00001000
00100000
00001000
01000000
,
00020000
00000000
00000000
00000000
00000000
00000000
00130000
00001000
00010000
00000000
00000000
00001000
00000000
00000000
00022000
00000000
,
00000000
00000000
00033000
00010000
00000100
00001000
00000010
00000100
,
00000102
00000000
00000000
00000013
00000000
00000000
00000100
00000000
00002100
00000000
00000000
00003010
00000000
00000000
00000100
00000010
,
00010000
00002000
00000000
00013000
00001000
01000000
00100000
10000000
,
10100000
00000000
00000000
01010000
00000000
00000000
00001000
00010000
00011000
00000000
00000000
00010100
00000000
00000000
00000220
00000000
,
00000000
00000330
00000000
00000000
,
00000001
00000100
00001000
00010000
00000000
00001000
00000000
00100000
,
0011MMMM
00000000
00000000
00000000
MMMM1010
00000000
00000000
00000000
00011000
00000000
00000000
00000000
00001000
00100000
00010000
10000000
,
01000000
00100000
00010000
00100000
00000000
00001000
00000000
00010000
,
00000100
00010000
00001000
00010000
00000100
00000000
0001MMMM
00000000
MMMM1000
00000000
0001MMMM
00000000
MMMM1000
00000000
00000000
00000000
,
00001000
01000000
10000000
01000000
00000000
00010000
00000000
01000000
,
0101MMMM
00000000
MMMM1100
00000000
00011000
MMMMMMMM
00011000
00000000
,
00010000
00000100
00010000
00000010
00000000
00010000
00000000
00001000
,
00001000
00010000
00001000
00000000
01000000
00001000
01000000
00000000
00100000
01000000
00100000
10000000
01000000
00100000
00010000
10000000
,
00000000
00000000
00000000
00000000
10020000
00000000
00000000
00130000
00000000
00000000
00001000
00000000
00021000
00000000
00000000
00030100
,
00000000
00000000
00001000
00000010
00000100
00000000
00000002
00000000
00000000
00000000
00000013
00000000
00001000
00000000
00000010
00000000
,
00000001
00000000
00001000
00000000
00002200
00000000
00000000
00000000
00003300
00000000
00000100
00010000
00001000
00000000
00000000
00100000
,
00000000
00000000
00010000
00000000
01000000
00010000
01000000
00000000
00100000
10000000
00100000
00000000
10000000
00010000
10000000
01000000
,
00100000
00001000
00010000
00000010
00020000
00000000
00000000
00030100
00000000
00000000
00001000
00000000
00001020
00000000
00000000
00010030
,
00000000
00000000
00001000
01000000
00100000
00000000
20200000
00000000
30300000
00000000
10000000
00000000
01000000
00000000
00010000
00000000
,
00001000
00000000
00010000
00000000
00010020
00000000
00000000
00000000
00000030
00000000
00000100
00000001
00001001
00000000
00000000
00001010
,
00000000
00012000
00000000
00010000
00000000
00100000
00000000
00013000
,
00011000
00000000
00000000
00000000
02001000
00000000
00000000
03100000
00000000
00000000
01000000
00000000
20100000
00000000
00000000
31000000
,
00000000
00000000
10000000
00000000
01000000
00000000
00100000
00000000
00010000
00000000
00100000
00000000
00001000
00010000
00000000
00010010
,
00000000
00000000
00000000
00000000
00000210
00000000
00000000
00000301
00000000
00000000
00000010
00000000
00000210
00000000
00000000
00001300
,
00000000
00000100
00010000
00000000
00000000
00000000
00001000
00010000
,
00100000
00000000
01000000
00000000
02100000
00000000
00000000
03010000
00000000
00000000
00100000
00000000
00100000
00001000
00000000
00011000
,
00000000
00001000
00010000
00000010
00000100
00001000
00000100
00000001
,
00001000
00000000
00000100
00000000
00020100
00000000
00000000
00031000
00000000
00000000
00001000
00000000
02001000
00000000
00000000
03100000
,
00000000
00100000
10010000
10010000
00000000
10000000
01000000
00100000
,
00010000
00000000
00001000
00000000
00000200
00000000
00000000
00010300
00000000
00000000
00001000
00000000
02000000
00000000
00000000
03100000
,
00000000
00000000
01000000
00010000
00100000
00000000
02000000
00000000
00000000
00000000
03100000
00000000
00001000
00010000
00000000
00010100
,
00000000
00001010
00000000
00000000
00000200
00000000
00000000
00000000
00000300
00000000
00000010
00001000
00000001
00000000
00000000
00001000
,
00000000
00000200
00000000
00000300
00000000
00010000
00001000
01000000
,
MMMM1000
00000000
00010000
00000000
00020100
00000000
00000000
00031000
00000000
00000000
00001000
00000000
02001000
00000000
00000000
03100000
,
00000000
00000000
01000000
00010000
00200000
00000000
02000000
00000000
03300000
00000000
01000000
00000000
10000000
00000000
00010000
00000000
,
00100000
00000000
00001000
00000000
00020000
00000000
00000000
00000000
00030000
00000000
00000100
00001000
00001010
00000000
00000000
00000101
,
00000000
00001000
MMMM1100
00000000
0101MMMM
00000000
MMMM1100
00000000
,
0101MMMM
00000000
00000000
00000000
00021000
00000000
00000000
00030100
00000000
00000000
00001000
00000000
00001020
00000000
00000000
00000130
,
00000000
00000000
00000010
00000100
00000001
00000000
00000020
00000000
00000000
00000000
00000130
00000000
00000001
00000000
00000100
00000000
,
00001000
00000000
00000100
00000000
00020000
00000000
00000000
00000000
00031000
00000000
00010000
00001000
00011000
00000000
00000000
00101000
,
00000000
00000000
00000000
00110000
00000000
00000000
00000000
00000000
00000000
00000000
00000000
00000000
00000000
00000000
00000000
00000000
00000000
00000000
10000000
00000000
10000000
00000000
10000000
00000000
,
10010000
00000000
00000000
00000000
02010000
00000000
00000000
03001000
00000000
00000000
00010000
00000100
00002000
00000000
00000000
00003010
,
00000000
00000000
00000100
00000001
00000010
00000000
00000200
00000000
00000000
00000000
00000310
00000000
00000001
00000000
00000010
00000000
,
00001000
00000000
00000010
00000000
00000200
00000000
00000000
00000000
00000000
00000000
00010300
00001000
00010000
00000000
00000000
00001000
,
00000000
00000000
02000000
00000000
00100000
00000000
00000000
00010000
00000000
00000000
00100000
00000000
00000000
00010000
00000000
00000000
,
00100000
03100000
10010000
00000000
00000000
00000000
00000000
00000000
;
