#TITLE:cold;
#SUBTITLE:;
#ARTIST:Noizenecio;
#TITLETRANSLIT:;
#SUBTITLETRANSLIT:;
#ARTISTTRANSLIT:;
#GENRE:;
#CREDIT:;
#MUSIC:cold.ogg;
#BANNER:;
#BACKGROUND:cold-bg.png;
#CDTITLE:;
#SAMPLESTART:61.612;
#SAMPLELENGTH:20.230;
#SELECTABLE:YES;
#OFFSET:0.283;
#BPMS:0.000=190.000;
#STOPS:352.000=0.947;
#BGCHANGES:;
#FGCHANGES:;

//--------------- dance-single - Pandemonium X ----------------
#NOTES:
     dance-single:
     Pandemonium X:
     Beginner:
     7:
     0,0,0,0,0:
0000
0000
0000
0000
,
0000
0000
0000
0000
,
0000
0000
0000
0000
,
0000
0000
0000
0000
,
0000
0000
0000
0000
,
0001
0000
0000
0000
,
1000
0000
0000
0000
,
0010
0000
0000
0000
,
0100
0100
0100
0000
,
0010
0000
0000
1000
,
0001
1000
0001
0001
,
1000
0000
0000
0100
,
0010
0010
0010
0010
,
0100
0000
0000
0010
,
0001
0001
0001
0001
,
1000
0000
0000
0001
0000
0000
1000
0000
,
0000
0010
0010
0010
,
0100
0000
0000
0010
,
1000
0010
0100
0001
,
1000
0000
0000
0001
,
0010
0010
0010
0010
,
0100
0000
0000
0010
,
0001
1000
0010
0100
,
0002
0000
0000
0000
,
0000
0000
0000
0000
,
1003
0000
0000
0000
,
0001
0000
1000
0000
,
0001
0000
0000
0000
,
0000
0000
0000
0000
,
0100
0000
0000
0000
,
0010
0000
0100
0000
,
0010
0000
0000
0000
,
1000
0000
0200
0000
,
0310
0000
0000
0000
,
0001
0000
0000
0000
,
1000
0000
0000
0000
,
0010
0000
0000
0000
,
0100
0100
0100
0000
,
0010
0010
0010
0000
,
1000
0000
0001
0000
,
0100
0000
0000
0000
,
1001
0000
0000
0000
,
0000
0000
0000
0000
,
0000
0000
0000
0000
,
0000
0000
0000
0000
,
0001
0000
0100
0000
,
0010
0000
1000
0000
,
0001
0000
1000
0001
,
0200
0000
0000
0300
,
0010
0000
0010
0000
,
1000
1000
1000
0000
,
0001
0000
0010
0000
,
0100
0100
0100
0000
,
0010
0000
0001
0000
,
1000
1000
1000
0000
,
0100
0000
1000
0000
,
0001
0100
0010
0100
,
0001
0000
1000
0000
,
0100
0100
0100
0000
,
0010
0000
0100
0000
,
1000
1000
1000
0000
,
0001
0000
0100
0000
,
0010
0010
0010
0000
,
0100
0000
0000
0001
0000
1000
0000
0001
,
0000
0000
0000
0000
,
1001
0001
1000
0000
,
0100
0000
1000
0000
,
0010
0000
0100
0001
,
0100
0000
0001
0000
,
0010
0000
0100
0010
,
0100
0000
0010
0000
,
0001
0000
1000
0000
,
0010
0000
0100
0100
,
0010
1000
0001
0000
,
0010
0001
1000
0000
,
0001
0000
1000
0000
,
0010
1000
0010
0000
,
0100
0000
0001
0000
,
0010
0010
0010
0000
,
0100
0000
0100
0000
,
2000
0000
0000
3000
,
0001
0000
0000
0000
,
1000
0000
0000
0000
,
0010
0000
0000
0000
,
0100
0000
0000
0000
,
0010
0000
0000
0000
,
1000
0000
0000
0000
,
0001
0000
0000
0001
0000
0000
0001
0000
,
0000
1000
0000
0000
,
0000
0010
0000
0000
,
0000
0100
0000
0000
,
0000
0001
0000
0010
,
0000
0100
0000
0000
,
0000
0100
0000
0000
,
0000
0000
1000
0000
0000
1000
0000
0000
,
1000
0020
0000
0000
,
0030
1001
0000
0000
;

//--------------- dance-single - Pandemonium X ----------------
#NOTES:
     dance-single:
     Pandemonium X:
     Easy:
     10:
     0,0,0,0,0:
0000
0000
0000
0000
,
0000
0000
0000
0000
,
0000
0000
0000
0000
,
0000
0000
0000
0000
,
0000
0000
0000
0000
,
0001
0001
1000
1000
,
0010
0010
0100
0100
,
0001
0100
0010
1000
,
0001
0000
0001
0000
0001
1000
0001
0000
,
1000
0100
1000
0010
,
0100
0000
0001
0000
0010
0000
0100
0010
,
0001
0010
0001
0100
,
0010
0100
0010
0100
0010
0000
1001
0000
,
1000
0001
0010
0001
,
1000
0100
0010
0100
,
1000
0000
0000
0010
0000
0000
0100
0001
,
0000
1000
0001
0000
0001
0000
0001
1000
,
0010
0100
0001
0010
,
0001
0000
1000
0000
0100
0000
0010
0100
,
1000
0100
1000
0010
,
0100
0001
0100
0001
0100
0000
1010
0000
,
0001
1000
0100
1000
,
0001
0100
0010
1000
,
0002
0000
2000
0000
,
0000
0000
0000
3003
,
0110
0000
0000
0000
,
1000
0000
0010
0000
,
1000
0000
0000
0000
,
0001
0010
0100
0010
,
0001
0000
0000
0000
,
0100
0000
0010
0000
,
0100
0000
0000
0000
,
0001
0000
0000
0000
,
1000
0000
0100
0000
,
0010
0001
0010
0000
,
0001
0000
0100
0000
,
0010
1000
0010
0000
,
0100
0100
0100
0000
,
0010
0010
0010
0000
,
1000
0000
0001
0000
,
0100
0010
0100
0000
,
1001
1000
0000
0000
0001
0000
0000
0100
,
0000
0000
0000
0000
,
0000
0010
0000
0000
0100
0000
0000
0001
,
0000
0000
0000
0000
,
0010
0010
0001
0001
,
1000
1000
0100
0100
,
0010
0100
1000
0001
,
1000
0100
1000
0100
1000
0100
0010
0000
,
0100
1000
0010
0100
,
0001
0010
0001
0100
,
0010
1000
0001
0010
,
0100
0000
0010
0000
0001
1000
0100
0000
,
1000
0010
0100
0001
,
0010
0000
0001
0000
0100
0000
0010
0100
,
0001
0000
1000
0000
0001
0000
0010
0001
,
0000
0010
0000
0100
0010
0000
0001
0000
,
1001
1000
0001
0100
,
0010
1000
0001
0010
,
0100
1000
0100
1000
,
0010
0000
0100
0000
0001
0010
0100
0000
,
1001
1000
0001
0100
,
1001
0001
1000
0100
,
1100
0000
0000
0011
0000
1100
0000
0011
,
0000
0000
0000
0000
,
0001
1000
0010
1000
0100
0000
0010
0000
,
0100
0000
1000
0000
0010
0000
0100
0001
,
1000
0100
1000
0010
,
0100
0000
0001
0010
0100
1000
0010
0000
,
0100
0000
0001
0000
1000
0000
0100
1000
,
0001
0000
1000
0000
0010
0100
0001
0000
,
1000
0000
0001
0000
0010
0000
0001
0200
,
0000
0000
0310
0110
,
1000
0001
0020
0000
,
0130
0000
1000
0000
0002
0000
1003
0001
,
0100
0001
2000
0000
,
3001
0000
1000
0000
0000
1001
0000
0001
,
1000
0100
1000
0010
,
0100
0001
0010
0100
,
1000
0100
0010
0001
,
1000
0001
1000
0001
1000
0001
0020
0000
,
0130
0000
0000
0100
0000
0100
0000
0000
,
0100
0000
0000
0100
0000
0100
0000
0100
,
0010
0000
0000
0010
0000
0010
0000
0000
,
0010
0000
0000
0010
0000
0010
0000
0010
,
0001
0000
0000
0001
0000
0001
0000
0000
,
0001
0000
0000
0001
0000
0001
0000
0001
,
1000
0000
0000
1000
0000
0000
1000
0000
,
0000
0000
0001
1000
0001
0000
1000
0000
,
0010
1000
0001
0010
,
0100
0010
0001
0100
,
0010
0100
0001
0000
1000
0000
0100
0000
,
0010
0000
0100
0000
0000
1000
0000
0010
,
0000
0000
0100
0000
0000
0001
0000
0010
,
0000
0100
1000
0000
0000
0001
0000
0000
,
0100
0000
0001
0100
0010
1000
0001
0100
,
0010
1001
0000
0000
;

//--------------- dance-single - Pandemonium X ----------------
#NOTES:
     dance-single:
     Pandemonium X:
     Medium:
     12:
     0,0,0,0,0:
0000
0000
0000
0000
,
0000
0000
0000
0000
,
0000
0000
0000
0000
,
0000
0000
0000
0000
,
0000
0000
0000
0000
,
1000
0000
0000
1000
0000
1000
0000
0000
,
0001
0000
0000
0001
0000
0001
0000
0001
,
1000
0000
0000
0001
0000
1000
0000
0001
,
0100
0000
0100
0000
0100
0010
1001
0000
,
1000
0010
1000
0001
,
0010
0000
0001
0000
1001
0000
1001
0001
,
0100
0010
1000
0001
,
0010
0100
0010
0001
0100
0000
1010
0000
,
1001
0001
0010
0001
,
1000
0000
0010
0000
0100
0000
0001
1000
,
0100
1000
0000
0100
0010
0000
0100
1000
,
0000
0010
0100
0000
0100
0000
0100
0001
,
1001
1000
0001
0000
1000
0000
0001
0000
,
0010
0000
0100
0000
1000
0000
0001
1000
,
0100
0010
0001
1000
,
0001
0100
0010
0100
0001
0000
1001
0000
,
1000
0100
1000
0100
,
1000
0010
0100
0001
,
0020
0000
0000
0000
,
0000
0000
0000
0030
,
0100
0000
0000
0000
,
0010
0000
0100
0000
,
1000
0000
0000
0000
,
0001
0010
0001
0000
0010
0000
0001
0000
,
1000
0000
0000
0000
,
0010
0000
0100
0000
,
0010
0000
0000
0000
,
1000
0000
0002
0000
,
1003
0100
1000
0010
,
0100
0000
0000
0010
0000
0000
0010
0000
,
0100
0001
1000
0100
,
0010
0000
0000
0100
0000
0000
1000
0000
,
0100
1000
0100
0000
1000
0000
0010
0000
,
0100
0000
0001
0100
0001
0000
0100
0000
,
0010
0000
1000
0001
1000
0000
0001
0000
,
0010
0000
0000
0001
0000
0000
1000
0000
,
1001
0001
0000
0000
1000
0000
0000
0010
,
0000
0010
0000
0010
0000
0000
0000
0000
,
1000
0001
0000
0000
1000
0000
0000
0100
,
0000
0100
0000
0100
0000
0000
0000
0000
,
1000
0100
0010
0001
,
0010
0100
1000
0010
,
0100
0001
0100
0001
0100
0001
1000
0010
,
1000
0001
1000
0001
1000
0001
0010
0000
,
0100
1000
0000
0000
1001
0000
0000
1000
,
0000
0010
0000
0100
0000
0001
0010
0100
,
0000
0010
0000
0000
0011
0000
0000
0001
,
0000
1000
0000
0010
0000
0100
0001
0010
,
0000
0100
0000
0000
1100
0000
0000
1000
,
0000
0010
0000
0100
0000
0010
0100
0001
,
0000
1000
0000
0000
0011
0000
0000
0001
,
0000
0100
0000
0001
0010
0100
1000
0001
,
0000
1000
0000
0000
0101
0000
0000
0001
,
0000
1000
0000
0010
0000
0100
0010
1000
,
0000
0001
0000
0000
1100
0000
0000
0100
,
0000
1000
0000
0010
0100
0001
1000
0100
,
0010
0100
0000
0000
0110
0000
0000
0100
,
0000
0010
0000
0001
0000
1000
0010
0000
,
0101
0000
0000
1100
0000
0101
0000
1001
,
0000
0000
0000
0000
,
0001
0000
1000
0000
0100
0000
0010
0000
0001
0000
0000
0001
0000
0000
0001
0000
,
0000
0010
0000
0001
0000
0100
0010
1000
,
0000
0001
0000
0000
1000
0100
1000
0010
,
0000
0100
0000
0010
1000
0001
0010
0100
,
1000
0000
0100
0000
0000
0000
0000
0000
1000
0000
0000
1000
0000
0000
1000
0000
,
0000
0010
0000
0100
0010
1000
0100
0000
,
0010
0001
0000
0000
0101
0000
0000
0002
,
0000
0000
1003
0110
,
1001
0001
0000
0000
2000
0000
0000
3100
,
0000
0010
0000
0200
0000
0000
1300
0001
,
0100
0010
0000
0000
0200
0000
0000
0301
,
0000
0010
0000
0001
1000
1100
0000
0100
,
1100
0100
0000
0000
0011
0000
0000
0001
,
0000
0100
0000
0001
0000
1000
0100
0010
,
0100
1000
0010
0000
0100
0001
0010
0000
,
0100
1000
0100
0001
0100
1000
0020
0000
,
0130
0000
0000
0100
0000
0100
0000
0000
,
0010
0000
0000
0010
0000
0010
0000
0010
,
1000
0000
0000
1000
0000
1000
0000
0000
,
0001
0000
0000
0001
0000
0001
0000
1000
,
0001
0100
0001
0010
,
0001
0000
1000
0000
0010
0000
0100
0010
,
1000
0000
0000
1001
0000
0000
0101
0000
,
0000
0000
0001
0100
0010
0000
0100
0000
,
0001
1000
0100
0010
,
0100
1000
0100
1000
,
0010
0100
0001
0000
1000
0000
0001
0000
,
0010
0000
0100
0000
0000
0010
0000
0001
,
0000
0000
0100
0000
0000
0010
0000
1000
,
0000
0001
1001
0000
0000
0101
0000
0000
,
1100
0000
1000
0100
0010
0001
0010
0100
,
1000
1001
0000
0000
;

//--------------- dance-single - Pandemonium X ----------------
#NOTES:
     dance-single:
     Pandemonium X:
     Hard:
     15:
     0,0,0,0,0:
0000
0000
0000
0000
,
0000
0000
0000
0000
,
0000
0000
0000
0000
,
0000
0000
0000
0000
,
0000
0000
0000
0000
,
0001
0000
0000
0001
0000
0001
0000
0000
,
1000
0000
0000
1000
0000
1000
0000
1000
,
0010
0000
0100
0000
0010
0000
1000
0000
0001
0010
0001
0010
0100
1000
0100
1000
,
0010
0000
0010
0000
0010
0100
1001
0000
,
0011
0010
0100
0000
0000
0100
1000
0100
,
0001
0100
1000
0010
1010
0000
1001
1000
,
0001
0100
0110
0000
0000
0001
1000
0010
,
0100
0100
0100
0100
0110
0000
1001
0000
,
1100
0100
0010
0000
0000
0010
0001
1000
,
0010
0001
0010
0100
1100
0000
1000
1000
,
0001
0000
0000
0000
0020
0030
0000
0000
0000
0000
0000
0000
0020
0030
0000
0000
1000
0000
0000
0000
0000
0000
0000
0000
1000
0000
0000
0000
1001
0000
0000
0000
,
0000
0000
0110
0000
0110
0000
0000
0000
1001
0000
0000
0000
0110
0000
0001
1000
,
0001
0010
0110
0000
0000
0010
0001
0100
,
1000
0100
0010
1000
1001
0000
1001
1000
,
0100
0010
0011
0000
0010
0001
0100
0001
,
1000
1000
1000
1000
1001
0000
0110
0000
,
0001
0100
0110
0000
0100
0010
1000
0001
,
0010
1000
0010
0001
0100
0000
0010
1000
,
0002
0000
0000
0000
0000
0000
0000
0000
1003
0000
1000
0100
0010
0000
0100
0000
,
0000
0010
0020
0000
0000
0000
0000
0000
,
0130
0000
0000
0000
,
0010
0000
0100
0000
,
0010
0000
0000
0000
0000
0000
0000
0000
0000
0000
0000
0000
0000
0000
0100
0010
,
0001
0100
0001
0000
1000
0000
0010
0000
,
1000
0000
0000
0000
,
0001
0000
1000
0000
,
0001
0000
0000
0000
,
0100
0000
0000
0000
0000
0000
0000
0000
0010
0000
0100
0010
0100
0000
0010
0000
,
1000
0100
0010
0100
1000
0000
0001
0100
,
0001
0000
0001
0010
0000
0010
1000
0000
,
0001
0001
1000
0010
0100
0001
0010
0001
,
1000
0000
0001
0100
0000
0100
1000
0000
,
0001
0001
0010
0100
1000
1000
0100
0000
,
0011
0000
0010
0100
1000
1000
0100
0000
,
0011
0000
0001
0100
1000
0100
0010
1000
,
0001
0000
1000
0010
0000
0010
0001
0000
,
1001
0011
0000
0000
0010
0000
0000
0001
,
0000
0100
0000
1000
0000
0100
0010
1000
,
0000
0001
0000
0000
0010
0000
0000
1000
,
0000
0010
0000
0100
0000
0010
0001
0100
,
0010
0010
0100
0100
0001
0001
1000
1000
,
0100
0100
0010
0010
0001
0001
0100
0100
,
0001
1000
0001
1000
0001
1000
0001
1000
0001
1000
0001
1000
0001
1000
0001
1000
,
0010
0010
0010
0010
0010
0100
1001
0000
,
0101
0001
0010
0000
1100
0000
0000
0100
,
0010
0100
1000
0001
0100
0001
1000
0100
,
0010
0100
1000
0000
0011
0000
0000
0001
,
0100
0001
0010
0001
1000
0100
0001
0100
,
1000
0010
0100
0000
1010
0000
0000
0010
,
0100
0001
0010
0001
1000
0100
0010
0001
,
0100
0001
1000
0000
0011
0000
0000
1001
,
0000
0000
0001
0100
0000
0000
0010
0000
0001
0000
0010
0000
1000
0000
0001
0000
,
0010
0100
1000
0000
1001
0000
0000
1000
,
0001
0010
0001
0100
0010
1000
0100
0010
,
0100
1000
0010
0000
1001
0000
0000
1000
,
0100
0000
1000
0000
0001
0000
0100
0000
0002
0000
0023
0000
0130
0000
0010
0001
,
1000
0010
0100
0000
1010
0000
0000
1000
,
0000
0000
0001
0000
0000
0000
0010
0000
0100
1000
0010
0000
0100
0000
0001
1000
,
0100
0000
0000
0011
0000
1100
0000
0011
,
1002
0000
0010
0000
1000
1003
0010
0100
,
0101
0000
0100
0000
0010
0000
0010
0100
0001
0000
0000
1000
0100
0000
0010
0000
,
0000
0100
0000
1000
0000
0100
0010
0001
,
1000
0010
0000
0000
0110
0010
1000
1001
,
0000
0011
0000
0010
0100
1000
0100
0010
,
0001
0000
0100
0000
0010
0000
0000
0100
0001
0000
0000
0001
0000
0000
1000
0000
,
1100
0000
0000
0000
0001
0000
0100
0001
1000
0000
0010
0000
0100
0000
0001
0000
,
1000
0000
0010
0000
0000
0000
0000
0100
0001
0000
0000
0000
0010
0000
0200
0000
,
0000
1000
1300
0000
0011
0000
1010
0000
,
1001
0000
1000
0000
0001
0000
0010
0100
2000
0000
0000
0000
3000
0000
0010
0000
,
0000
0100
0000
0002
0000
0000
0010
0013
,
0011
0010
1000
0010
0200
0000
0310
0001
,
0000
0001
0000
0001
1000
0200
0000
0310
,
1001
1000
0000
0010
0200
0000
0300
0001
,
0000
0100
0000
0010
0000
1000
0001
0010
,
0100
1000
0010
0000
0100
0001
1000
0000
,
0010
0010
0010
0010
0010
0200
0002
0300
,
0013
0100
0010
0001
0010
0100
0010
0000
,
0001
1000
0010
1000
0001
1000
0010
0000
,
1000
0100
1000
0010
1000
0010
1000
1000
,
0001
1000
0100
1000
0001
0100
0001
0000
,
1000
0010
0100
0010
1000
0010
0100
0000
,
0010
1000
0001
0010
0001
1000
0010
0010
,
0110
0000
0000
0101
0000
0000
1010
0000
,
0000
0000
1001
1001
1001
0001
1000
0010
,
1000
0000
1000
0001
0010
0001
0100
0001
,
0010
0100
0100
0010
0001
0100
0010
1000
,
0001
0001
2000
0000
0000
0100
0000
0000
,
3010
1000
0010
0100
,
0001
1000
0100
0000
0010
0000
0001
0000
,
0012
0000
0103
0000
0000
1010
0000
0000
,
1001
0000
1000
0010
0001
0010
1000
0100
,
0001
2200
3300
0000
;

//--------------- dance-double - Pandemonium X ----------------
#NOTES:
     dance-double:
     Pandemonium X:
     Easy:
     9:
     0,0,0,0,0:
00000000
00000000
00000000
00000000
,
00000000
00000000
00000000
00000000
,
00000000
00000000
00000000
00000000
,
00000000
00000000
00000000
00000000
,
00000000
00000000
00000000
00000000
,
00010000
00000000
00000000
00000000
,
00001000
00000000
00000000
00000000
,
00010000
00000000
00001000
00000000
,
00010000
00000000
00010000
00000000
00010000
00001000
00010000
00000000
,
00000100
00001000
00000010
00000100
,
00000001
00000000
00000010
00000000
00000100
00000000
00001000
00000100
,
00001000
00000100
00010000
00001000
,
01000000
00100000
01000000
00100000
01000000
00000000
10010000
00000000
,
10000000
00010000
00100000
00001000
,
00010000
00000100
00010000
00001000
,
01000000
00000000
00000000
00100000
00000000
00000000
10000000
00010000
,
00000000
00010000
10000000
00000000
10000000
00000000
10000000
01000000
,
00100000
01000000
10000000
00100000
,
01000000
00000000
00010000
00000000
00100000
00000000
00001000
00010000
,
00001000
00010000
00000100
00001000
,
00000010
00000100
00000010
00000100
00000010
00000000
00001001
00000000
,
00001000
00000100
00001000
00000100
,
00010000
00001000
01000000
00100000
,
20000000
00000000
02000000
00000000
,
03000000
00000000
00000000
30000000
,
00010000
00000000
00000000
00000000
,
01000000
00000000
00010000
00000000
,
01000000
00000000
00000000
00000000
,
00010000
00100000
00001000
00010000
,
00000010
00000000
00000000
00000000
,
00000100
00000000
00000001
00000000
,
00001000
00000000
00000000
00000000
,
00000100
00000000
00000000
00000000
,
00010000
00000000
00000000
00000000
,
00001000
00000000
01000000
00000000
,
00100000
00000000
10000000
00000000
,
00010000
00000000
00100000
00000000
,
01000000
01000000
01000000
00000000
,
00100000
00100000
00100000
00000000
,
00001000
00000000
00010000
00000000
,
00000100
00000000
00000000
00001000
,
00001001
00000000
00000000
00000000
00000001
00000000
00000000
00001000
,
00000000
00001000
00000000
00001000
00000000
00000000
00000000
00000000
,
00000000
00000001
00000000
00000000
00001000
00000000
00000000
00000010
,
00000000
00000010
00000000
00000010
00000000
00000000
00000000
00000000
,
00010000
00010000
00001000
00001000
,
00010000
00010000
00001000
00001000
,
00010000
00001000
00010000
00001000
00010000
00001000
00010000
00001000
,
00022000
00000000
00000000
00000000
00000000
00030000
00003000
00000000
,
01000000
00100000
00000000
00000000
10000000
00000000
00000000
00010000
,
00000000
00100000
00000000
01000000
00000000
00100000
00000000
00010000
,
00000000
01000000
00000000
00000000
00100000
00000000
00000000
01000000
,
00000000
00001000
00000000
00010000
00000000
00000100
00001000
00000000
,
00000010
00000100
00000000
00000000
00000001
00000000
00000000
00001000
,
00000000
00000100
00000000
00000010
00000000
00000100
00000000
00001000
,
00000000
00000100
00000000
00000000
00010000
00000000
00000000
00001000
,
00000000
01000000
00000000
00100000
01000000
00000000
00010000
00000000
,
10000000
01000000
00000000
00000000
00100000
00000000
00000000
01000000
,
00000000
10000000
00000000
00010000
00000000
00100000
00000000
00001000
,
00000000
00010000
00000000
00000000
00000100
00000000
00000000
00001000
,
00000000
00000010
00000000
00000100
00000000
00000001
00000000
00000010
,
00000000
00000100
00000000
00000000
00000010
00000000
00000000
00000001
,
00000000
00000010
00000000
00000100
00000000
00001000
00000000
00000100
,
00010100
00000000
00000000
00011000
00000000
00011000
00000000
00011000
,
00001000
00000000
00001000
00000000
00001000
01000000
00100000
00000000
,
01000000
00010000
00100000
00000000
01000000
00000000
00000000
10000000
,
00000000
01000000
00000000
10000000
00000000
00100000
00000000
01000000
,
00000000
00010000
00000000
00000000
00100000
00001000
00010000
00001000
,
00000000
00010000
00000000
00000100
00001000
00000000
00000010
00000000
,
00000100
00000001
00000000
00000000
00000010
00000000
00000000
00000100
,
00000000
00000010
00000000
00000001
00000100
00000000
00000010
00000000
,
00000000
00001000
00000000
00000000
00000100
00000000
00000000
00010000
,
00000000
00000000
00011000
00011000
,
00001000
01000000
00200000
00300000
,
01000000
00010000
20000000
30000000
,
01000000
10000000
00020000
00030000
,
00100000
00000000
00001000
00000000
00000000
00010000
00000000
00010000
,
00000100
00001000
00000010
00000100
,
00000001
00000010
00000100
00001000
,
00000100
00010000
00001000
01000000
,
00200000
00000000
00000000
00300000
,
01000000
00000000
00000000
00010000
00000000
00100000
00000000
00000000
,
00001000
00000000
00000000
00010000
00000000
00000100
00000000
00001000
,
00000010
00000000
00000000
00000100
00000000
00000001
00000000
00000000
,
00000010
00000000
00000000
00000100
00000000
00000010
00000000
00000001
,
00001000
00000000
00000000
00000010
00000000
00001000
00000000
00000000
,
00000100
00000000
00000000
00010000
00000000
00001000
00000000
01000000
,
01100000
00000000
00000000
10010000
00000000
00000000
01100000
00000000
,
00000000
10000000
10000000
00010000
,
00010000
00100000
00100000
00001000
,
00001000
00010000
00010000
00000100
,
00000100
00001000
00000010
00000000
00000200
00000000
00000000
00000000
,
00000300
00000000
00000010
00000000
00000000
00000100
00000000
00000100
,
00000000
00000000
00000001
00000000
00000000
00001000
00000000
00001000
,
00000000
00000100
00001100
00000000
00000000
00010100
00000000
00000000
,
00011000
00002000
00000000
00000000
,
00003000
00011000
00000000
00000000
;

//--------------- dance-double - Pandemonium X ----------------
#NOTES:
     dance-double:
     Pandemonium X:
     Medium:
     12:
     0,0,0,0,0:
00000000
00000000
00000000
00000000
,
00000000
00000000
00000000
00000000
,
00000000
00000000
00000000
00000000
,
00000000
00000000
00000000
00000000
,
00000000
00000000
00000000
00000000
,
00010000
00000000
00000000
00001000
00000000
00001000
00000000
00000000
,
00010000
00000000
00000000
00001000
00000000
00001000
00000000
00010000
,
00001000
00000000
00000000
00001000
00000000
00002000
00000000
00000000
,
00013000
00000000
00010000
00000000
00010000
00000100
00001000
00000000
,
00000010
00000100
00000010
00000000
00000100
00000000
00000001
00000000
,
00000010
00000000
00000100
00000000
00001000
00000000
00000100
00010000
,
00001000
00000000
00010000
00000000
00001000
00000000
01000000
00100000
,
10000000
00010000
00100000
00010000
10000000
00000000
10010000
00000000
,
10000000
00010000
00100000
00000000
01000000
00000000
00100000
00000000
,
00001000
00000000
00010000
00000000
00000100
00000000
00001000
00000010
,
00000100
00000001
00000000
00000100
00000010
00000000
00000100
00000001
,
00000000
00001000
00001001
00000000
00000110
00000000
00001001
00000001
,
00001000
00000100
00010000
00000000
00001000
00000000
01000000
00000000
,
00100000
00000000
10000000
00000000
00010000
00000000
00100000
01000000
,
10000000
01000000
10000000
00100000
,
01000000
00010000
00100000
00001000
00010000
00000000
00001100
00000000
,
00000010
00000001
00000100
00000000
00000010
00000000
00000100
00000000
,
00000001
00000000
00001000
00000000
00000100
00000000
00010000
00001000
,
00200000
00000000
00000000
00000000
,
00000000
00000000
00000000
00300000
,
01000000
00000000
00000000
00000000
,
10000000
00000000
00010000
00000000
,
10000000
00000000
00000000
00000000
,
00010000
00100000
00010000
00000000
00100000
00000000
00001000
00000000
,
00010000
00000000
00000000
00000000
,
00000010
00000000
00000100
00000000
,
00000010
00000000
00000000
00000000
,
00001000
00000000
00000002
00000000
,
00001003
00000100
00010000
00001000
,
01000000
00000000
00000000
00100000
00000000
00000000
01000000
00000000
,
00010000
00100000
00001000
00010000
,
00000010
00000000
00000000
00000100
00000000
00000000
00000010
00000000
,
00000100
00000001
00000100
00000000
00000010
00000000
00001000
00000000
,
00000100
00000000
00010000
00000100
00010000
00000000
00001000
00000000
,
01000000
00100000
10000000
00010000
,
00100000
00000000
00000000
01000000
00000000
00000000
00100000
00000000
,
10010000
00010000
00000000
00000000
10000000
00000000
00000000
00010000
,
00000000
00010000
00000000
00010000
00000000
00010000
00100000
00001000
,
00000000
00010000
00000000
00000000
00000100
00000000
00000000
00001000
,
00000000
00001000
00000000
00000010
00000000
00001000
00000010
00000100
,
00000001
00000100
00001000
00010000
,
00100000
01000000
00010000
10000000
,
10000000
01000000
00100000
00010000
20000000
00000000
00000000
00000000
,
30010000
01000000
00010000
00100000
00010000
10000000
00010000
00000000
,
10000000
01000000
00000000
00000000
00100000
00000000
00000000
00001000
,
00000000
00010000
00000000
00000100
00000000
00001000
00000010
00000100
,
00000000
00000001
00000000
00000000
00000010
00000000
00000000
00000100
,
00000000
00000010
00000000
00000001
00000000
00000100
00000010
00001000
,
00000000
00000100
00000000
00000000
00010000
00000000
00000000
00001000
,
00000000
01000000
00000000
00001000
00000000
01000000
00100000
10000000
,
00000000
00010000
00000000
00000000
00100000
00000000
00000000
00010000
,
00000000
01000000
00000000
00010000
00100000
00100000
01000000
10000000
,
00000000
01000000
00000000
00000000
10010000
00000000
00000000
10000000
,
00000000
00010000
00000000
00100000
00000000
00001000
00010000
00000100
,
00000000
00001000
00000000
00000000
00001001
00000000
00000000
00000001
,
00000000
00000100
00000000
00000010
00000100
00001000
00000100
00000001
,
00001000
00000100
00000000
00000000
00010100
00000000
00000000
00001000
,
00000000
00001000
00000000
00010000
00000000
00001000
00000000
01000000
,
00100000
00000000
00000000
10010000
00000000
01100000
00000000
10010000
,
00000000
00000000
00000000
00000000
,
10000000
01000000
00100000
00001000
00010000
00000000
00000100
00000000
,
00001000
00000000
00000010
00000000
00000100
00000000
00000001
00000010
,
00000100
00000000
00000010
00000000
00000001
00001000
00000100
00000010
,
00000000
00000010
00000000
00000010
00000100
00001000
00000001
00001000
,
00000010
00000000
00000100
00000000
00000000
00000000
00000000
00000000
00000110
00000000
00000000
00000010
00000000
00000000
00000010
00000000
,
00000000
00000100
00000000
00000010
00001000
00000100
00010000
00001000
,
00000000
00010000
00000000
00000000
00001000
00000000
00000000
02000000
,
00000000
00000000
03100000
10010000
,
00000000
10000000
00000000
00010000
00200000
00000000
00000000
00301000
,
00000000
00010000
00000000
00000100
00000000
00000000
00001000
00001000
,
00000010
00000100
00000001
00000100
00000002
00000000
00000000
00001003
,
00000000
00000100
00000000
00001000
00000000
00000100
00000000
00010000
,
00001000
01000000
00000000
00000000
00100000
00000000
00000000
01000000
,
00000000
01000000
00000000
00010000
00000000
10000000
00000000
01000000
,
00100000
00000000
00001000
00000000
00010000
00000000
00000100
00001000
,
00000010
00000100
00000001
00000100
00000010
00000100
00000002
00000000
,
00001003
00000000
00000000
00000100
00000000
00000100
00000000
00000000
,
00010000
00000000
00000000
00001000
00000000
00001000
00000000
00001000
,
01000000
00000000
00000000
00100000
00000000
00100000
00000000
00000000
,
01000000
00000000
00000000
00010000
00000000
00010000
00000000
10000000
,
01000000
00000000
00000000
00100000
00000000
00100000
00000000
00000000
,
00001000
00000000
00000000
00010000
00000000
00010000
00000000
00000100
,
00001100
00000000
00000000
00011000
00000000
00000000
01010000
00000000
,
00000000
00000000
01000000
00010000
00100000
00000000
00001000
00000000
,
00010000
00000100
00001000
00000010
,
00000100
00000001
00000010
00000100
,
00000010
00000001
00001000
00000000
00000002
00000000
00000000
00000000
,
00000000
00000000
00000103
00000000
00000000
00000010
00000000
00000010
,
00000000
00000000
00001000
00000000
00000000
00000100
00000000
00000100
,
00000000
00010000
00011000
00000000
00000000
01010000
00000000
00000000
,
10100000
00000000
00100000
01000000
00010000
01000000
00100000
01000000
,
00010000
10010000
00000000
00000000
;

//--------------- dance-double - Pandemonium X ----------------
#NOTES:
     dance-double:
     Pandemonium X:
     Hard:
     14:
     0,0,0,0,0:
00000000
00000000
00000000
00000000
,
00000000
00000000
00000000
00000000
,
00000000
00000000
00000000
00000000
,
00000000
00000000
00000000
00000000
,
00000000
00000000
00000000
00000000
,
00010000
00000000
00000000
00000100
00000000
00000100
00000000
00000000
,
00001000
00000000
00000000
00000010
00000000
00000010
00000000
00000010
,
00010000
00000000
00001000
00000000
01000000
00000000
00100000
00000000
10000000
01000000
10000000
01000000
00100000
00010000
00100000
00010000
,
01000000
00000000
01000000
00000000
01000000
00100000
10010000
00000000
,
00110000
00100000
00001000
00000000
00000000
00010000
00000100
00001000
,
00000010
00000001
00000010
00000100
00000010
00000000
00000101
00000001
,
00000001
00001000
00000100
00000000
00000000
00001000
00000100
00010000
,
00001000
00001000
00010000
00010000
00011000
00000000
00011000
00000000
,
00001000
01000000
00100000
00000000
01000000
00100000
10000000
00010000
,
00100000
00010000
10000000
01000000
10000000
00100000
01000000
01000000
,
00010000
00200000
00000000
01300000
20000000
00000000
30100000
02000000
,
00000000
00000000
00001000
00000000
00001000
00000000
00000000
00000000
03010000
00000000
00000000
00000000
00110000
00000000
00100000
00001000
,
00010000
00000100
00001000
00000000
00000100
00001000
00000010
00000100
,
00000001
00000100
00000010
00001000
00000001
00000000
00001000
00001000
,
00001000
00000100
00010000
00000000
00001000
01000000
00100000
10000000
,
00010000
00010000
00010000
00010000
10010000
00000000
01100000
00000000
,
10000000
00100000
01000000
00000000
00100000
01000000
00010000
00100000
,
00001000
00010000
00000100
00001000
00000010
00000100
00000001
00000010
,
00000200
00000000
00000000
00000000
00000000
00000000
00000000
00000000
00001300
00000000
00000100
00010000
00001000
00000000
00020000
00000000
,
00000000
00002000
00000000
00000000
00000000
00000000
00033000
00000000
,
00110000
00000000
00000000
00000000
,
01000000
00000000
00010000
00000000
,
10000000
00000000
00000000
00000000
00000000
00000000
00000000
00000000
00000000
00000000
00000000
00000000
00000000
00000000
10000000
00010000
,
00100000
00010000
00100000
00000000
00100000
00000000
00001000
00000000
,
00010000
00000000
00000000
00000000
,
00000100
00000000
00010000
00000000
,
00000100
00000000
00000000
00000000
,
00001000
00000000
00000000
00000000
00000000
00000000
00000000
00000000
00000010
00000000
00000100
00000010
00000100
00000000
00000001
00000000
,
00001000
00000000
00000001
00000100
00000010
00000000
00000100
00000010
,
00001000
00000000
00000100
00010000
00000000
00010000
00001000
00000000
,
00001000
00001000
01000000
00100000
10000000
10000000
00100000
01000000
,
00010000
00000000
00100000
00001000
00000000
00001000
00010000
00000000
,
00001000
00001000
00010000
00000100
00001000
00000010
00000100
00000000
,
00001001
00000000
00000001
00001000
00000100
00000100
00010000
00000000
,
00011000
00000000
00001000
01000000
00100000
00010000
00100000
10000000
,
00010000
00000000
10000000
01000000
00000000
00100000
00010000
00000000
,
00001000
00011000
00000000
00000000
00100000
00000000
00000000
00001000
,
00000000
00010000
00000000
00001000
00000000
00010000
00001000
00010000
,
00000000
00001000
00000000
00000000
00100000
00000000
00000000
00001000
,
00000000
00010000
00000000
00001000
00000000
00010000
00001000
00010000
,
00000100
00000100
00001000
00001000
00000010
00000010
00000100
00000100
,
00000001
00000001
00000010
00000010
00000100
00000100
00001000
00001000
,
00000100
00000000
00010000
00000000
00001000
00000000
01000000
00000000
00100000
01000000
00100000
01000000
00010000
10000000
00010000
10000000
,
01000000
00010000
01000000
10000000
00010000
01000000
00100000
00000000
,
01000000
00010000
00100000
00000000
00110000
00000000
00000000
00110000
,
00000000
00011000
00000000
00001010
00000000
00000010
00000100
00000001
,
00000010
00000100
00000000
00000000
00010100
00000000
00000000
00011000
,
00000000
01001000
00000000
00011000
00000000
00001000
02000000
03010000
,
10000000
01000000
00000000
00000000
00110000
00000000
00000000
00110000
,
00000000
11000000
00000000
10010000
00000000
00010000
00100000
00001000
,
00010000
00000010
00000000
00000000
00001100
00000000
00000000
00001010
,
00000000
00000000
00000010
00000100
00000000
00000000
00000010
00000000
00000001
00000000
00000010
00000000
00001000
00000000
00000001
00000000
,
00001000
00000100
00000010
00000000
00001100
00000000
00000000
00010100
,
00000000
00011000
00000000
01001000
00000000
01000000
00010000
00100000
,
01000000
00100000
00000000
00000000
10010000
00000000
00000000
00101000
,
00000000
00000000
00011000
00000000
00000000
00000000
00010000
00000000
00000200
00000000
00001300
00000000
00000010
00000000
00000010
00000100
,
00000001
00001000
00000100
00000000
00000011
00000000
00001000
00001100
,
00000000
00000000
00010100
00000000
00000000
00000000
00011000
00000000
00010000
00001000
00010000
00000000
00001000
00000000
01000000
00010000
,
00100000
00000000
00000000
11000000
00000000
01010000
00000000
11000000
,
10020000
00000000
01000000
00000000
10030000
00100000
00010000
00100000
,
10000000
00000000
01000000
00000000
00100000
00000000
00001000
00010000
00001000
00000000
00000000
00001000
00000000
00000000
00001000
00000000
,
00000000
00110000
00000000
00101000
00000000
00010000
00000010
00000100
,
00000001
00000010
00000000
00000000
00000100
00000001
00000100
00001000
,
00000000
00001100
00000000
00001010
00000010
00000100
00000001
00001000
,
00000100
00000000
00010100
00000000
00000000
00000000
00010000
00001000
00010000
00000000
00000000
00010000
00000000
00000000
00011000
00000000
,
00001000
00000000
01000000
00000000
00000000
00000000
00100000
01000000
00100000
00000000
10000000
00000000
00010000
00000000
00100000
00000000
,
01000000
10000000
00000000
01000000
00100000
00000000
00001000
00020000
,
00000000
00000000
00030100
00001100
,
00000011
00000000
00000010
00000000
00000100
00000000
00001000
00000010
00000200
00000000
00000000
00000000
00000000
00000000
00000310
00000000
,
00000000
00000010
00000000
00000200
00000000
00000000
00000001
00000301
,
00001001
00001000
00000100
00010000
00000020
00000000
00000000
00010030
,
00000000
00010000
00000000
00001000
00000000
00101000
00000000
00110000
,
11000000
10000000
00010000
01000000
00200000
00000000
00000000
01300000
,
00000000
00010000
00000000
00100000
00000000
00001000
00010000
00000100
,
00001000
00000010
00000000
00000010
00000100
00000000
00000100
00000001
,
00001000
00000010
00000001
00000010
00001000
00000100
00000020
00000000
,
00000031
00000000
00000000
00000100
00000000
00001000
00000000
00000000
,
00010000
00000000
00000000
00100000
00000000
10000000
00000000
00010000
,
10010000
00000000
00000000
10000000
00000000
01000000
00000000
00000000
,
00010000
00000000
00000000
00001000
00000000
00000010
00000000
00000001
,
00001001
00000000
00000000
00000001
00000000
00000100
00000000
00000000
,
00001000
00000000
00000000
00010000
00000000
00100000
00000000
01000000
,
01100000
00000000
00000000
10010000
00000000
00000000
01100000
00000000
,
00000000
00000000
10000000
10000000
10000000
00000000
01000000
00000000
,
00100000
00001000
00010000
00000100
,
00001000
00000010
00000001
00000010
,
00000100
00000001
00001000
00000000
00000200
00000000
00000000
00000000
,
00000000
00010300
00010000
00001000
,
00001000
00001000
01000000
00000000
01000000
00000000
00100000
00000000
,
00100000
00000000
01100000
00000000
00000000
01001000
00000000
00000000
,
00011000
00000000
00010000
00001000
00010000
00001000
00010000
00000100
,
00000010
00000011
00000000
00000000
;
