#TITLE:bloomin' feeling;
#SUBTITLE:;
#ARTIST:Ryu☆;
#TITLETRANSLIT:;
#SUBTITLETRANSLIT:;
#ARTISTTRANSLIT:;
#GENRE:;
#CREDIT:;
#MUSIC:bloomin' feeling.ogg;
#BANNER:;
#BACKGROUND:bloomin' feeling-bg.png;
#CDTITLE:;
#SAMPLESTART:12.355;
#SAMPLELENGTH:10.608;
#SELECTABLE:YES;
#OFFSET:0.898;
#BPMS:0.000=181.000
,168.000=90.500
,184.000=181.000
;
#STOPS:;
#BGCHANGES:;
#FGCHANGES:;

//--------------- dance-single - ----------------
#NOTES:
     dance-single:
     :
     Beginner:
     6:
     0,0,0,0,0:
0000
0000
0000
0000
,
0000
0000
0000
0000
,
0000
0000
0000
0000
,
0000
0000
0000
0000
,
0000
0000
0000
0000
,
0000
0000
0000
0000
,
0001
0000
1000
0000
,
0010
0010
0010
0000
,
1000
0000
0001
0000
,
0220
0000
0000
0000
0000
0030
0300
0000
,
0001
0000
1000
0000
,
0100
0100
0100
0000
,
0010
0000
0001
0000
,
1000
0001
1000
0000
,
0001
0000
1000
0000
,
0010
0010
0100
0000
,
0010
0000
1000
0000
,
0001
0010
0100
0000
,
0010
0000
0001
0000
,
1000
1000
1000
0000
,
0001
0000
1000
0000
,
0010
0100
0010
0000
,
1000
0000
0100
0000
,
1000
1000
1000
0000
,
0001
0000
1000
0000
,
0010
0100
0010
0000
,
1001
0000
0000
0000
,
0001
0000
0000
0001
0000
0000
0000
0000
,
1001
0000
0000
0000
,
1000
0000
0000
1000
0000
0000
0000
0000
,
0110
0000
0000
0000
,
0010
0000
0000
0010
0000
0000
0000
0000
,
0110
0000
0100
0000
,
2002
0000
0000
0000
0000
3000
0003
0000
,
1000
0000
1000
0000
,
0010
0000
0010
0000
,
1000
0000
1000
0000
,
0100
0000
0100
0000
,
0010
0000
0000
0000
,
0001
0000
0000
0000
,
0100
0000
0010
0000
,
2002
0000
0000
0000
0000
3000
0003
0000
,
1000
0000
1000
0000
0001
0001
0001
0000
,
0100
0000
0010
0000
0100
0100
0100
0000
,
0100
0000
0001
0000
0010
0010
0010
0000
,
0100
0000
1000
0000
0001
1000
0001
0000
,
1000
0000
0010
0000
,
0100
0100
0100
0000
,
0010
0000
1000
0000
,
0001
0001
0001
0000
,
0010
0000
0001
0000
,
1000
1000
1000
0000
,
0100
0000
1000
0000
,
0010
0100
0001
0000
,
1000
0000
0001
0000
,
0100
0100
0100
0000
,
0010
0000
1000
0000
,
0100
0010
0001
0000
,
0010
0000
0001
0000
,
0100
0100
0100
0000
,
0010
0000
0100
0000
,
0001
1000
0010
0000
,
1000
0000
0001
0000
,
0100
0001
0010
0001
,
1000
0000
0001
0000
,
1000
0001
1000
0000
,
0001
0000
0100
0000
,
0010
1000
0100
1000
,
0010
0000
1000
0000
,
0001
0001
0001
0000
,
0110
0000
0000
0000
;

//--------------- dance-single - ----------------
#NOTES:
     dance-single:
     :
     Easy:
     9:
     0,0,0,0,0:
0000
0000
0000
0000
,
0000
0000
0000
0000
,
0000
0000
0000
0000
,
0000
0000
0000
0000
,
0000
0000
0000
0000
,
0000
0000
0000
0000
,
0001
1000
0100
1000
,
0010
0010
0020
0030
,
0100
0010
1000
0001
,
1000
0000
0100
0000
0010
0001
0001
0000
,
0010
0001
0100
0010
,
1010
0110
1010
0000
,
0010
0100
0001
1000
,
0100
0010
0011
0000
,
0001
1000
0010
1000
,
1100
0011
1100
0000
,
0001
1000
0010
0100
,
0101
1001
1100
0000
,
0001
1000
0010
0100
,
0101
0011
0101
0000
,
0001
1000
0010
1000
,
1100
1010
1100
0000
,
0100
1000
0001
0100
,
0110
0101
1001
0000
,
1000
0100
0010
0001
,
0010
0100
1000
0000
,
0001
0100
0010
1000
,
0200
1300
0020
0130
,
0001
0010
0100
0010
,
0002
1003
0020
0130
,
0001
0010
0100
0010
,
0002
1003
0200
0310
,
0001
0100
0001
1000
,
0110
0000
0000
0000
0000
1000
1000
0000
,
0001
1000
0100
1000
,
0001
0100
0001
1000
,
0100
1000
0001
0100
,
0001
1000
0100
1000
,
0000
0001
0000
0001
0000
0001
0000
0001
,
0000
1000
0000
1000
0000
1000
0000
1000
,
0010
0100
0001
1000
,
1001
0000
0000
0000
0000
0001
0001
0000
,
1000
0100
0010
0100
1000
0001
0100
0000
,
0001
1000
0010
1000
0001
0010
0100
0000
,
0010
0001
0100
0010
1000
1000
0001
0000
,
1000
0000
0100
0000
0010
0000
0001
0000
0010
0000
0100
0000
1000
0001
0001
0000
,
0100
0010
1000
0001
,
0010
0100
2000
3000
,
0100
1000
0001
0100
,
0001
0010
0002
0003
,
0010
0001
0100
0010
,
1000
0001
0020
0130
,
0010
0001
0100
0010
,
1000
0000
0001
0000
1000
0001
0001
0000
,
0100
0001
0010
0100
,
0110
0101
1001
0000
,
0001
0100
0010
1000
,
1010
1100
1001
0000
,
1000
0001
0010
0100
,
0110
1100
0110
0000
,
1000
0001
0100
0001
,
0010
0000
0100
0000
1000
0010
0010
0000
,
0101
0101
0001
1000
,
1001
0110
1001
0110
,
1010
1010
0010
0100
,
0001
0010
0200
0300
,
0110
0110
0010
0001
,
1001
1010
1001
0101
,
1001
1001
0001
0100
,
0110
1001
0220
0330
,
1001
0000
0000
0000
;

//--------------- dance-single - ----------------
#NOTES:
     dance-single:
     :
     Medium:
     13:
     0,0,0,0,0:
0000
0000
0000
0000
,
0000
0000
0000
0000
,
0000
0000
0000
0000
,
0000
0000
0000
0000
,
0000
0000
0000
0000
,
0000
0000
0000
0000
,
1000
0000
1000
0000
1000
0100
0010
0100
,
1000
1000
0010
0000
0200
0000
0300
0000
,
0001
0000
0001
0000
0001
0100
0010
0100
,
0001
0010
0100
1000
0001
1001
1001
0000
,
0101
0000
0101
0000
0001
0100
0010
1000
,
1100
0011
2002
3003
,
1010
0000
1010
0000
0010
0100
0001
0010
,
0100
0100
0010
0001
0202
0000
0303
0000
,
1001
0000
1001
0000
1000
0100
0010
0100
,
1000
1000
1100
0000
2002
0000
3003
0000
,
0101
0000
0101
0000
1000
0100
0010
0100
,
1000
0100
0010
0001
1000
1001
1001
0000
,
0101
0000
1010
0000
1000
0100
0010
0100
,
0120
0230
2000
3300
,
1010
0000
1010
0000
0010
1000
0001
0010
,
0100
0100
0010
0001
0202
0000
0303
0000
,
1001
0000
1001
0000
1000
0001
0010
0100
,
0010
0010
0011
0000
2200
0000
3300
0000
,
0001
0000
0001
0000
0100
0010
0100
0010
,
1000
0100
0010
0001
2000
0000
3000
0000
,
0001
0000
0100
0000
0010
1000
0100
0000
,
0020
0000
0130
2000
0000
3020
0130
0001
,
0010
0000
0200
0000
0310
0001
1000
0000
,
0020
0000
1030
0002
0000
0023
0000
0230
,
2300
0000
3010
0100
0001
0010
0100
0000
,
0020
0000
0031
2000
0000
3002
1003
0100
,
0010
0000
0001
0010
0000
0100
0100
0000
,
2001
0000
0000
0000
0000
0010
3010
0000
,
0100
0001
0100
0001
0100
0001
0100
0001
,
0100
0010
0100
0010
0100
0010
0100
0010
,
1000
0010
1000
0010
1000
0010
1000
0010
,
1000
0001
1000
0001
1000
0001
1000
0001
,
0000
1000
0000
1000
0000
0001
0000
0001
,
0000
0010
0000
0010
0000
0100
0000
0100
,
0010
0001
0100
0010
1000
0100
0001
0100
,
2100
0000
0000
0000
0000
3001
1001
0000
,
0001
0000
0001
0000
0010
0001
0100
0010
1000
0000
0100
0000
2000
0000
3000
0000
,
0100
0000
0100
0000
0100
0010
0001
1000
0010
1000
0001
0100
0002
0000
0000
0003
,
0010
0000
0010
0000
0010
0001
0100
0010
1000
1000
0001
0000
2000
0000
3000
0000
,
0001
0000
0001
0000
0100
0010
0100
0001
1000
0100
0010
0001
1000
1001
1001
0000
,
0001
0000
0001
0000
0010
0001
0100
0010
,
2000
3200
0020
0330
,
0100
0000
0010
0000
0100
1000
0010
0100
,
0001
0010
0100
1000
0002
0000
0003
0000
,
1000
0010
1000
0000
0001
0100
0001
0000
,
0001
0010
0001
0000
1000
0100
1000
0000
,
0001
0100
0010
1000
0001
0100
0010
1000
,
0001
0010
1000
0010
0001
1001
1001
0000
,
2100
0000
0010
0000
3001
0001
0100
0001
,
1001
1100
0220
0330
,
1002
0000
0100
0000
1003
1000
0100
0010
,
0100
0100
0010
0001
2002
0000
3003
0000
,
0201
0000
0010
0000
0301
0001
1000
0100
,
0010
0010
0110
0000
2002
0000
3003
0000
,
2100
0000
0010
0000
3001
1000
0100
0010
,
0001
0100
1000
0100
0001
1001
1001
0000
,
0101
0000
1010
0000
0001
0010
0100
0010
,
0011
1001
1010
1010
,
0101
0000
0101
0000
0001
0100
0010
1000
,
0001
0010
0100
0010
0002
0000
0003
0000
,
1100
0000
1100
0000
0100
1000
0010
0100
,
0001
0001
1001
0000
0110
0000
0110
0000
,
0011
0000
0011
0000
0001
0010
0100
1000
,
1000
0100
0010
0001
1000
1001
1001
0000
,
0110
0000
0000
0000
;

//--------------- dance-single - ----------------
#NOTES:
     dance-single:
     :
     Hard:
     16:
     0.708219,0.91349,0.622161,0.562907,0.237014,502,439,63,57,0,0,0.708219,0.91349,0.622161,0.562907,0.237014,502,439,63,57,0,0:
0000
0000
0000
0000
,
0000
0000
0000
0000
,
0000
0000
0000
0000
,
0000
0000
0000
0000
,
0000
0000
0000
0000
,
0000
0000
0000
0000
,
0101
0000
0101
0000
0001
0010
0100
0010
,
0011
0001
0101
0000
0120
0000
1000
0000
,
0130
0000
1000
0000
0100
0000
0001
0000
1000
0001
1000
0001
1000
0001
1000
0001
,
1000
0100
0001
0010
1000
1001
1001
0000
,
0201
0000
0010
0000
0301
0100
0010
1000
,
1100
0011
2001
3010
,
1100
0000
1100
0000
1000
0100
0010
0100
,
1000
0010
0001
0010
0120
0000
1030
0001
,
0011
0000
0011
0000
1000
0100
0001
0100
,
0010
0010
0011
0000
1200
0000
0310
0000
,
1001
0000
1001
0000
0001
0100
0010
1000
,
0001
0100
1000
0010
0001
1001
1001
0000
,
0101
0000
1010
0000
1000
0100
0001
0100
,
1200
0000
0000
1300
0020
0000
0000
0130
0002
0000
0000
0000
0013
0000
0000
0000
,
1001
0000
0101
0000
0001
1000
0100
0010
,
0011
0010
0110
0100
2100
0000
3001
1000
,
1010
0000
1100
0000
0001
0010
0001
0100
,
0010
0010
0110
0000
2001
0000
3100
0000
,
0011
0000
1100
0000
1000
0001
0100
0001
,
1000
0100
0001
0010
2000
0000
0000
0000
,
3001
0000
0100
0001
0010
0001
1000
0000
0200
0000
0000
0000
0300
0000
0000
0000
,
0021
0000
0000
0000
0130
0000
0210
0000
0000
0000
1300
0010
1000
0001
1000
0000
,
0001
0000
0100
0000
0001
1000
0100
0010
0001
0000
1000
0000
0101
0000
0000
0000
,
1020
0000
0130
0102
0000
0023
0000
0230
,
0310
0001
0100
0001
1000
0100
1000
0000
0001
0000
1000
0000
0110
0000
0000
0000
,
2100
0000
0000
0000
3100
0000
0120
0000
0000
0000
0031
0000
0100
0001
0010
0001
,
1000
0000
0001
0100
0001
1000
0100
0000
0010
0000
0011
0000
1100
0000
0000
0000
,
2002
0000
3003
0000
0000
0110
0110
0000
,
0001
0100
0001
0000
0001
0100
0001
0000
0001
0100
0001
0000
0001
0100
0001
0000
,
0001
0010
0001
0000
0001
0010
0001
0000
0001
0010
0001
0000
0001
0010
0001
0000
,
0001
0100
0001
0000
0001
0100
0001
0000
0001
0100
0001
0000
0001
0100
0001
0000
,
0001
1000
0001
0000
0001
1000
0001
0000
0001
1000
0001
0000
0001
1000
0001
0000
,
1000
0100
1000
0100
1000
0100
1000
0100
,
0010
0001
0010
0001
0010
0001
0010
0001
,
0011
0000
0001
0000
0101
0000
0100
0000
0010
0100
0001
1000
0010
0100
0001
1000
,
0002
0000
0000
0000
0000
0013
1100
0000
,
0001
0000
0100
0000
0010
1000
0100
0010
0001
0000
0020
0000
0200
0000
0330
0000
,
0010
0000
0000
0000
0001
0000
0000
0000
0100
0000
0001
0000
1000
0000
0100
0000
0020
0000
0031
0000
0020
0000
1030
0000
0020
0000
0000
0000
0031
0100
0001
0100
,
0010
0000
0000
0000
0010
0000
0000
0000
0010
0000
1000
0000
0001
0000
0010
0000
1000
0000
0010
0000
0001
0000
0000
0000
2000
0000
0000
0000
3001
0100
0010
0000
,
0100
0000
0010
0100
0001
1000
0100
0000
0000
0000
0011
0000
1100
0000
0000
0000
1000
0000
0100
0000
0001
0000
0010
0000
1000
0000
1001
0000
1001
0000
0000
0000
,
0101
0000
0100
0010
1000
0010
0100
0000
0010
0000
1001
0000
0110
0000
0000
0000
,
2000
0000
3100
0000
0020
0000
0031
0000
0200
0000
0310
0000
0001
1000
0100
0000
,
0010
0000
0100
0010
0001
0100
0001
0000
1000
0000
0010
0000
0100
0000
0000
0000
,
0010
0000
0001
0000
0010
0000
1000
0000
0200
0000
0000
0000
0310
0001
0100
0000
,
0010
1000
0100
0010
0001
0010
0001
0100
,
0001
1000
0010
1000
0100
1000
0001
0100
,
0001
1000
0001
1000
0010
0100
0010
0100
0010
1000
0010
1000
0001
0100
0001
0100
,
0001
0100
1000
0010
0001
1001
1001
0000
,
1200
0000
0010
0000
1300
0100
0010
0001
,
1001
1100
1002
0013
,
0101
0000
0101
0000
0001
0100
0010
0100
,
0001
0010
1000
0010
0120
0000
0031
1000
,
1001
0000
1001
0000
1000
0010
1000
0100
,
0010
0010
0011
0000
0201
0000
0310
0000
,
1001
0000
1001
0000
1000
0100
0010
0001
,
1000
0100
0001
0010
1000
1001
1001
0000
,
1010
0000
1010
0000
1000
0100
0001
0100
,
1100
0110
0011
0011
,
1001
0000
1001
0000
0001
0100
0001
1000
,
0001
0100
1000
0010
0002
0000
0003
0000
,
1010
0000
1010
0000
0100
1000
0010
0100
,
0101
0101
0101
0000
1001
0000
1001
0000
,
1100
0000
1100
0000
0100
1000
0010
0100
,
0001
0100
1000
0010
0002
1000
1003
0000
,
0110
0000
0000
0000
;

//--------------- dance-double - ----------------
#NOTES:
     dance-double:
     :
     Easy:
     7:
     0,0,0,0,0:
00000000
00000000
00000000
00000000
,
00000000
00000000
00000000
00000000
,
00000000
00000000
00000000
00000000
,
00000000
00000000
00000000
00000000
,
00000000
00000000
00000000
00000000
,
00000000
00000000
00000000
00000000
,
00001000
00001000
00010000
00010000
,
00000100
00001000
00000010
00000000
,
00000100
00000100
00000010
00000010
,
00001000
00000001
00000110
00000000
,
00000001
00000001
00001000
00000100
,
00010000
00001000
00020000
00030000
,
00001000
01000000
00010000
00100000
,
01000000
01000000
20000000
30000000
,
01000000
10000000
00100000
01000000
,
00010000
00010000
00200000
00300000
,
00010000
00100000
00001000
00010000
,
00000100
00001000
00000020
00000030
,
00000100
00000001
00000010
00000100
,
00001001
00000110
00001001
00000000
,
00000001
00001000
00000100
00010000
,
00011000
00001100
00011000
00000000
,
00001000
01000000
00010000
00100000
,
00110000
11000000
10010000
00000000
,
10000000
10000000
01000000
00100000
,
00010000
00001000
00000020
00000030
,
00000001
00000100
00000000
00000010
,
00001000
00000000
00000100
00000000
,
00010000
00001000
00100000
00000000
,
00010000
00000000
10000000
00000000
,
01000000
10000000
00100000
00000000
,
01000000
00000000
00010000
00000000
,
00100000
00001000
00010000
00000100
,
00010000
00000000
00000000
00000000
00000000
00001000
00001000
00000000
,
00010000
00010000
00010000
00010000
,
00000100
00000100
00000100
00000100
,
00001000
00001000
00001000
00001000
,
00000010
00000010
00000010
00000010
,
00010000
00010000
00010000
00010000
,
00001000
00001000
00001000
00001000
,
01000000
00100000
10000000
00010000
,
10010000
00000000
00000000
00000000
00000000
10000000
10000000
00000000
,
00010000
00000000
00100000
00000000
01000000
10000000
01000000
00000000
,
00100000
00000000
00001000
00000000
00010000
00000100
00010000
00000000
,
00000100
00000000
00001000
00000000
00000010
00000100
00000010
00000000
,
00000100
00000000
00000001
00000000
00001000
00000100
00000010
00000000
,
00000001
00000100
00000010
00001000
,
00000100
00000100
00000100
00000000
,
00001000
00000100
00010000
00001000
,
01000000
01000000
01000000
00000000
,
00010000
00100000
00001000
00010000
,
00000010
00000010
00000010
00000000
,
00010000
00001000
00100000
00010000
,
10000000
01000000
00100000
00000000
,
01000000
10000000
00100000
01000000
,
00010000
00100000
00002000
00003000
,
00010000
00000100
00001000
00000010
,
00000100
00000001
00002000
00003000
,
00000100
00000100
00010000
00001000
,
01000000
01000000
00020000
00030000
,
00100000
00100000
01000000
10000000
,
00010000
01000000
00002000
00003000
,
00010000
00000100
00001000
00000010
,
00000100
00000001
00000010
00000100
,
00001000
00001000
00000100
00010000
,
00001000
01000000
00200000
00300000
,
01000000
10000000
01000000
00010000
,
00100000
00100000
00100000
00001000
,
00010000
00000100
00001000
00000010
,
00000100
00000001
00002000
00003000
,
00001001
00000000
00000000
00000000
;

//--------------- dance-double - ----------------
#NOTES:
     dance-double:
     :
     Medium:
     13:
     0,0,0,0,0:
00000000
00000000
00000000
00000000
,
00000000
00000000
00000000
00000000
,
00000000
00000000
00000000
00000000
,
00000000
00000000
00000000
00000000
,
00000000
00000000
00000000
00000000
,
00000000
00000000
00000000
00000000
,
00001000
00000000
00001000
00000000
00010000
00000100
00001000
00000010
,
00000100
00000100
00000002
00000000
00002003
00000000
00003000
00000000
,
00000100
00001000
00000100
00001000
00000100
00010000
00000100
00010000
,
00001000
01000000
00100000
10000000
02000000
00100000
03100000
00000000
,
01100000
00000000
01100000
00000000
10000000
00100000
01000000
00010000
,
00110000
11000000
20020000
30030000
,
01010000
00000000
01010000
00000000
00010000
00100000
00001000
00010000
,
00000100
00000100
00001000
00000010
00000220
00000000
00000330
00000000
,
00001001
00000000
00001001
00000000
00000001
00000100
00000010
00001000
,
00000100
00000100
00001100
00000000
00000022
00000000
00000033
00000000
,
00000101
00000000
00000101
00000000
00000001
00000100
00000010
00001000
,
00000100
00010000
00001000
01000000
00200000
10000000
10300000
00000000
,
11000000
00000000
11000000
00000000
01000000
00100000
00010000
00001000
,
00001100
00000011
00002002
00003003
,
00000101
00000000
00000101
00000000
00000001
00000100
00000010
00001000
,
00000100
00010000
00001000
01000000
02020000
00000000
03030000
00000000
,
00110000
00000000
00110000
00000000
00010000
00100000
10000000
00100000
,
00010000
00010000
01000000
00000000
20020000
00000000
30030000
00000000
,
10000000
00000000
10000000
00000000
01000000
00100000
00010000
00001000
,
00010000
00000010
00000100
00000001
00000020
00000000
00000030
00000000
,
00000100
00000010
00000001
00000100
,
00000020
00000000
00000000
00002030
00000000
00003100
00001000
00000010
,
00010000
00000000
00001000
00000000
01000000
00100000
10000000
00000000
,
02000000
00000000
00000000
03200000
00000000
02300000
00000000
23000000
,
30010000
00000000
01000000
00100000
10000000
01000000
00100000
00000000
,
00020000
00000000
00000000
00230000
00000000
00302000
00013000
00000100
,
00001000
00000010
00000100
00001000
00000000
00000100
00000001
00000000
,
00001002
00000000
00000000
00000000
00000000
00000100
00000103
00000000
,
00000010
00000010
00000010
00000010
,
00001000
00001000
00001000
00001000
,
00000100
00000100
00000100
00000100
,
00010000
00010000
00010000
00010000
,
00000000
00001000
00000000
00001000
00000000
00001000
00000000
00001000
,
00000000
01000000
00000000
01000000
00000000
01000000
00000000
01000000
,
00100000
10000000
00010000
01000000
00100000
10000000
00010000
01000000
,
20010000
00000000
00000000
00000000
00000000
00010000
30010000
00000000
,
00100000
00000000
00010000
00000000
00100000
00010000
00100000
00001000
00010000
00000000
00000100
00000000
00002000
00000000
00003000
00000000
,
00000010
00000000
00000010
00000000
00000010
00000100
00000001
00000010
00000100
00000010
00000001
00001000
00000002
00000000
00000003
00000000
,
00000010
00000000
00000010
00000000
00000010
00000001
00000100
00000010
00001000
00001000
00000100
00000000
00020000
00000000
00030000
00000000
,
00001000
00000000
00001000
00000000
00001000
01000000
00100000
10000000
01000000
00100000
00010000
00001000
00020000
00001000
00031000
00000000
,
00000100
00000000
00001000
00000000
00000010
00000100
00000001
00000010
,
00000200
00020300
00002000
00033000
,
00010000
00000000
00001000
00000000
01000000
00100000
01000000
10000000
,
00010000
00100000
01000000
10000000
02000000
00000000
03000000
00000000
,
00100000
00000000
00001000
00000000
00010000
00000100
00001000
00000010
,
00000100
00000100
00000020
00000000
00002000
00000000
00003030
00000000
,
00000100
00000001
00000100
00000001
00001000
00000010
00001000
00000010
,
00000100
00001000
00000100
00000001
00002000
00000100
00003100
00000000
,
00000011
00000000
00000011
00000000
00000001
00000010
00000100
00001000
,
00001100
00011000
00002200
00003300
,
00000100
00000000
00000100
00000000
00000100
00010000
00001000
01000000
,
00100000
10000000
01000000
00100000
00020000
00000000
00030000
00000000
,
00110000
00000000
00110000
00000000
00100000
00010000
01000000
00100000
,
10000000
10000000
00010000
00000000
02020000
00000000
03030000
00000000
,
00010000
00000000
00010000
00000000
00100000
00010000
00100000
00001000
,
00010000
00000010
00000100
00000001
00000020
00000100
00000130
00000000
,
00000110
00000000
00000110
00000000
00000010
00000001
00000100
00000010
,
00001010
00001010
00001100
00001100
,
00010100
00000000
00010100
00000000
00010000
00001000
01000000
00100000
,
10000000
01000000
00100000
01000000
20000000
00000000
30000000
00000000
,
00110000
00000000
00110000
00000000
00010000
01000000
00100000
10000000
,
00010000
00010000
00010000
00000000
00110000
00000000
00110000
00000000
,
00101000
00000000
00011000
00000000
00000100
00001000
00000010
00000100
,
00001000
00000100
00000001
00001000
00000200
00001000
00001300
00000000
,
00011000
00000000
00000000
00000000
;

//--------------- dance-double - ----------------
#NOTES:
     dance-double:
     :
     Hard:
     16:
     0,0,0,0,0:
00000000
00000000
00000000
00000000
,
00000000
00000000
00000000
00000000
,
00000000
00000000
00000000
00000000
,
00000000
00000000
00000000
00000000
,
00000000
00000000
00000000
00000000
,
00000000
00000000
00000000
00000000
,
00110000
00000000
00110000
00000000
00100000
00001000
00010000
00000010
,
00001010
00000010
00000100
00000000
00000001
00000000
00001000
00000000
,
00001100
00000000
00001100
00000000
00000100
00010000
00001000
01000000
,
00100000
00010000
00100000
10000000
01000000
00110000
11000000
00000000
,
10010000
00000000
10010000
00000000
10000000
00010000
01000000
00001000
,
00011000
00001100
00022000
00033000
,
00010100
00000000
00010100
00000000
00000100
00001000
00000010
00000100
,
00000001
00000010
00001000
00000010
00000002
00000000
00000003
00000000
,
00000101
00000000
00000101
00000000
00000001
00000100
00000010
00001000
,
00000100
00000100
00001100
00000000
00022000
00000000
00033000
00000000
,
00101000
00000000
00101000
00000000
00001000
00100000
00010000
10000000
,
01000000
00010000
01000000
10000000
00100000
01010000
00110000
00000000
,
10010000
00000000
10010000
00000000
00010000
00100000
00001000
00010000
,
00011000
00001010
00000202
00000303
,
00000011
00000000
00000011
00000000
00000001
00000010
00000100
00001000
,
00000100
00000001
00000100
00010000
00022000
00000000
00033000
00000000
,
01001000
00000000
01001000
00000000
01000000
00010000
00100000
01000000
,
10000000
10000000
11000000
00000000
20020000
00000000
30030000
00000000
,
10000000
00000000
10000000
00000000
10000000
01000000
00100000
00010000
,
00100000
00001000
00010000
00000010
00000200
00000000
00000300
00000000
,
00000010
00000000
00000100
00000001
00000010
00000001
00000100
00000000
00000020
00000000
00000000
00000000
00001030
00000000
00000000
00000000
,
00001200
00000000
00000000
00000000
00010300
00000000
00012000
00000000
00000000
00000000
00203000
00000000
00310000
01000000
00100000
00000000
,
10000000
00000000
01000000
00100000
00020000
00000000
00000000
00000000
00130000
00000000
11000000
00000000
10010000
00000000
00000000
00000000
,
00210000
00000000
00301000
00022000
00033000
00002020
00003030
00000102
,
00000013
00000100
00000010
00000100
00000010
00000001
00001000
00000000
00000100
00000000
00010100
00000000
00011000
00000000
00000000
00000000
,
02001000
00000000
00000000
00000000
03100000
00000000
00020000
00000000
00000000
00000000
00130000
00000000
01000000
00100000
00001000
00010000
,
00000000
00000000
00000100
00001000
00000010
00000100
00000001
00000000
00000000
00000000
00000010
00000000
00001001
00000000
00000000
00000000
,
00001200
00000000
00000000
00000000
00000000
00010300
00011000
00000000
,
00001000
01000000
00001000
00000000
01000000
00100000
01000000
00000000
00100000
10000000
00100000
00000000
10000000
01000000
10000000
00000000
,
00010000
00100000
00010000
00000000
00100000
00001000
00100000
00000000
00001000
00010000
00001000
00000000
00010000
00000100
00010000
00000000
,
00000100
00001000
00000100
00000000
00001000
00000010
00001000
00000000
00000001
00000100
00000001
00000000
00001000
00000001
00001000
00000000
,
00000001
00000010
00000001
00000000
00001000
00000100
00001000
00000000
00000100
00010000
00000100
00000000
00010000
00001000
00010000
00000000
,
00001000
01000000
00100000
01000000
00001000
01000000
00100000
01000000
,
00001000
00010000
00000100
00010000
00001000
00010000
00000100
00010000
,
00011000
00000000
00011000
00000000
00011000
00000000
00011000
00000000
00010000
00000100
00010000
00001000
01000000
00001000
00010000
00000100
,
00002000
00000000
00000000
00000000
00000000
00003010
00001001
00000000
,
00000201
00000000
00000310
00001000
00000100
00000010
00000100
00000000
00010000
00000000
00001000
00000000
01000000
00000000
00010000
00000000
00200000
00000000
00000000
00000000
10000000
00000000
00000000
00000000
00010000
00000000
00000000
00300000
21000000
00000000
00000000
00000000
,
30010000
00000000
01000000
00010000
00100000
01000000
00100000
00000000
00010000
00000000
00100000
00000000
00001000
00000000
00010000
00000000
00000010
00000000
00000001
00000000
00000010
00000000
00001000
00000000
00000200
00000000
00000000
00000000
00000310
00000001
00000010
00000001
,
00000100
00000000
00000010
00001000
00000100
00000010
00000100
00000000
00010000
00000000
00001000
00000000
01000000
00000000
00001000
00000000
00010000
00000000
00000010
00000000
00000200
00000000
00000000
00000000
00001000
00000000
00000000
00000000
00001300
00000100
00000001
00000000
,
00001000
00000000
00000100
00000010
00000001
00001000
00000100
00000000
00000000
00000000
00010000
00000000
00010000
00001000
00010000
00000000
00001000
00000000
01000000
00000000
00100000
00000000
00010000
00000000
00100000
00000000
10100000
00000000
01010000
00000000
00000000
00000000
,
10010000
00000000
10000000
01000000
00100000
00010000
01000000
00000000
01010000
00000000
00010000
00000000
00110000
00000000
00100000
00000000
,
00110000
00001010
00022000
00033000
,
00010100
00000000
00010100
00000000
00001100
00001000
00001010
00000010
,
00000110
00000000
00000100
00000000
00000101
00000000
00000001
00000000
00002001
00000000
00000000
00000000
00003100
00010000
00001000
00000000
,
00010000
00001000
01000000
00010000
00100000
10000000
00100000
00001000
,
00010000
00000100
00001000
00000010
00000100
00001000
00010000
00001000
,
01000000
00010000
01000000
00100000
10000000
00100000
10000000
00010000
10000000
00010000
00100000
00010000
10000000
01000000
10000000
01000000
,
10000000
01000000
00100000
00010000
00001000
00000110
00001001
00000000
,
00001001
00000000
00001001
00000000
00000001
00000100
00001000
00000100
,
00000101
00001010
00020200
00030300
,
00011000
00000000
00011000
00000000
00001000
01000000
00100000
10000000
,
01000000
00010000
01000000
20000000
00200000
00000000
30300000
00000000
,
01010000
00000000
01010000
00000000
01000000
00010000
00100000
01000000
,
00100000
00100000
00110000
00000000
00202000
00000000
00303000
00000000
,
00011000
00000000
00011000
00000000
00010000
00000100
00001000
00000010
,
00000100
00001000
00000100
00000001
00002000
00003001
00001001
00000000
,
00001001
00000000
00001010
00000000
00000010
00000100
00001000
00000100
,
00000101
00001010
00011000
00101000
,
00110000
00000000
00110000
00000000
00100000
00010000
01000000
00010000
,
10000000
01000000
00010000
01000000
20000000
00000000
30000000
00000000
,
11000000
00000000
00110000
00000000
00101000
00001000
00011000
00010000
,
00010100
00001100
00010100
00000000
00001001
00000000
00000110
00000000
,
00000101
00000000
00001010
00000000
00000010
00010000
00001000
00100000
,
00010000
01000000
10000000
01000000
00020000
00100000
00130000
00000000
,
00011000
00000000
00000000
00000000
;
