#TITLE:ZED;
#SUBTITLE:;
#ARTIST:USAO;
#TITLETRANSLIT:;
#SUBTITLETRANSLIT:;
#ARTISTTRANSLIT:;
#GENRE:;
#CREDIT:;
#MUSIC:ZED.ogg;
#BANNER:;
#BACKGROUND:;
#CDTITLE:;
#SAMPLESTART:10.892;
#SAMPLELENGTH:10.106;
#SELECTABLE:YES;
#OFFSET:0.477;
#BPMS:0.000=189.986
,112.000=94.993
,113.000=189.986
;
#STOPS:113.000=0.316
,288.000=0.316
;
#BGCHANGES:;
#FGCHANGES:;

//--------------- dance-single - Pandemonium X ----------------
#NOTES:
     dance-single:
     Pandemonium X:
     Beginner:
     6:
     0,0,0,0,0:
0000
0000
0000
0000
,
0000
0000
0000
0000
,
0000
0000
0000
0000
,
0000
0000
0000
0000
,
0000
0000
0000
0000
,
0000
0000
0000
0000
,
0000
0000
0000
0000
,
0000
0000
0000
0000
,
0000
0000
0000
0000
,
0001
0000
1000
0000
,
0100
0000
0000
0000
,
1000
0000
0001
0000
,
0100
0000
0000
0000
,
0001
0000
0010
0000
,
0100
0000
0000
0000
,
0010
0000
0100
0000
,
1000
0000
0000
0000
,
0020
0000
0000
0000
,
0000
0000
0030
0000
,
0200
0000
0000
0000
,
0000
0000
0000
0300
,
0001
0000
1000
0000
,
0100
0000
1000
0000
,
0010
0000
0100
0000
,
0010
0000
0100
0001
,
1000
0000
0001
0000
,
0010
0000
0001
0000
,
1000
0000
0001
0000
,
0110
0000
0002
0000
,
1003
0000
0100
0000
,
0010
0010
0100
0000
,
1000
0001
0100
0000
,
0001
0000
2000
0000
,
3010
0000
0100
0000
,
0001
1000
0100
0000
,
0010
0000
0001
0000
,
0010
0001
0200
0000
,
0310
0000
0100
0000
,
0001
1000
0100
0000
,
1000
0000
0010
0000
,
1000
0100
0020
0000
,
0000
0030
0100
0000
,
0010
0001
0100
0000
,
0001
0000
1000
0000
,
0100
0000
1001
0000
,
0001
0000
1000
1000
,
1000
0000
0001
0000
,
0100
0000
0010
0010
,
0100
0001
1001
0000
,
1000
0000
0100
0100
,
0100
0000
0010
0000
,
0001
0000
1000
0000
,
0100
0010
0001
0000
,
0000
0000
1000
0000
,
0000
0000
0010
0000
,
0000
0000
0100
0000
,
0000
0000
0001
0000
,
0000
0000
0010
0000
,
0000
0000
0100
0000
,
1000
0000
0020
0000
,
0000
0030
0200
0000
,
0000
0300
0020
0000
,
0030
0000
2000
0000
,
3000
0000
0002
0000
,
0003
0000
0010
0000
,
0001
0000
0100
0000
,
0010
0000
1000
0000
,
0001
2000
0000
0000
,
0000
0000
3100
0000
,
0010
0000
0001
0000
,
1000
0000
0100
0010
,
0001
1000
0020
0000
,
0030
0100
0100
0100
,
0000
0010
0000
1000
,
0001
0010
0010
0010
,
0000
0001
0000
1000
,
0000
0001
0001
0001
,
0000
1000
0000
0001
,
0100
0010
0000
0100
,
0000
0001
0000
1000
,
0100
0010
0000
0100
,
0000
1000
0000
0010
,
0000
0100
0000
0001
,
1000
0100
0000
0010
,
0001
0100
0000
0010
,
0000
0100
0000
0001
,
0000
1000
0000
0100
,
0000
1000
0000
0010
,
0100
0000
0001
0000
0000
0010
0000
0000
,
0200
0000
0000
0000
,
0300
0000
1000
0000
0000
0100
0000
0000
,
0020
0000
0000
0000
,
0030
0000
0001
0000
0000
0100
0000
0000
,
0020
0000
0000
0000
,
0030
0000
0100
0000
0000
0010
0000
0000
,
0000
0100
0000
0010
,
1001
0000
0000
0000
;

//--------------- dance-single - Pandemonium X ----------------
#NOTES:
     dance-single:
     Pandemonium X:
     Easy:
     10:
     0,0,0,0,0:
0000
0000
0000
0000
,
0000
0000
0000
0000
,
0000
0000
0000
0000
,
0000
0000
0000
0000
,
0000
0000
0000
0000
,
0000
0000
0000
0000
,
0000
0000
0000
0000
,
0000
0000
0000
0000
,
0000
0000
0000
0000
,
0001
0000
1000
0100
,
1000
1000
1010
0000
,
1000
0000
0001
0010
,
0001
0001
0110
0000
,
1000
0000
0001
0010
,
0001
0001
0011
0000
,
1000
0000
0001
0000
,
1000
0000
1000
0000
0010
0100
0001
0000
,
0001
0000
0000
1000
0000
0000
0200
0000
,
0000
0000
0000
0000
,
1300
0000
0000
0001
0000
0000
0200
0000
,
0000
0000
0000
0000
,
0310
1000
0010
1000
,
0001
0100
0001
0100
,
0001
0010
0001
1000
,
0100
0010
0001
1000
,
0001
0100
1000
0100
,
0001
0010
0100
1000
,
1002
0013
2001
3100
,
2002
3003
0002
0000
,
1003
0000
0100
1000
0010
0000
0100
0000
,
0001
0010
0100
0000
0010
0000
0010
0000
,
0002
0000
1003
0000
0001
0100
0001
0000
,
1000
0100
2000
0000
3002
0000
0000
0000
,
0013
0000
0010
0001
0100
0000
0010
0000
,
0100
0010
2000
0000
3001
0000
0000
1000
,
0000
0000
0100
0000
0000
0010
0000
0000
,
0001
0010
1200
0000
,
0310
0000
0100
1000
0001
0000
1000
0000
,
0001
0100
0020
0000
0130
0000
0001
0000
,
2000
0000
3100
0000
1000
0010
0100
0000
,
0010
0100
0001
0000
0220
0000
0000
0000
,
0000
0330
1000
0001
,
0010
0001
0200
0000
0310
0000
0000
1000
,
0000
0000
0100
0000
0000
0010
0000
0000
,
0001
0010
2200
0000
,
3300
1000
0001
0100
,
0001
0010
0100
0000
0010
0000
0001
0000
,
0200
0000
0310
0000
0100
0010
0100
0000
,
0001
0100
0001
0000
2002
0000
0000
0000
,
3003
0000
1000
0001
1000
0000
0001
0000
,
0100
0001
0020
0000
0130
0000
0000
0010
,
0000
0000
0001
0000
0000
1000
0000
0000
,
0001
0000
1000
0000
0010
0000
0000
0010
,
0000
0000
0000
0000
0010
0000
0000
0010
,
0000
0000
0100
0000
0001
0000
0000
0001
,
0000
0000
0000
0000
0001
0000
0000
0001
,
0000
0000
1000
0000
0100
0000
0000
0100
,
0000
0000
0000
0000
0100
0000
0000
0100
,
0000
0000
0010
0000
0100
0000
0000
0100
,
0000
0010
0002
0000
,
0000
0003
1000
0100
,
1000
0010
0100
0001
,
0010
0001
1000
0001
,
0010
0011
0001
1000
,
0010
1010
0010
0100
,
1000
0100
0001
0010
,
1000
0010
0100
0010
,
0001
1000
0100
1000
,
0010
0100
0001
0100
,
0010
1000
0010
0100
,
0001
0010
0100
1000
,
0100
0000
0010
0000
0001
1000
0001
1000
,
0001
0101
0101
0101
,
0001
0000
1000
0000
0100
0000
0010
0100
,
1000
1100
0011
2100
,
3002
0000
0103
0000
0010
0000
1000
0001
,
0010
1100
1100
1100
,
0100
0000
1000
0000
0010
0000
0100
0001
,
1000
0000
0001
0000
0000
0010
0000
0000
,
0001
0000
0000
1000
0000
0000
0100
0000
,
1000
0000
0010
0000
0000
0100
0000
0000
,
0000
0000
0001
0000
0000
0010
0000
0100
,
0010
0001
1000
0000
0000
0001
0000
0000
,
0000
0000
1000
0000
0000
0010
0000
0000
,
1000
0000
0100
0000
0000
0010
0000
0000
,
0000
0000
0001
0000
0000
0010
0000
0100
,
0010
0001
1000
0000
0000
0001
0000
0000
,
0000
0000
0100
0000
0000
0001
0000
0000
,
1000
0000
0001
0000
0010
0001
0000
0010
,
0200
0000
0000
0000
,
0300
0000
0010
0000
0001
0010
0000
0100
,
2000
0000
0000
0000
,
3000
0001
0100
0001
,
1000
0100
0010
0100
,
1000
0001
0001
1000
,
1000
0000
0110
0000
0000
0000
0001
0100
,
0001
1000
0000
0000
0000
0000
0000
0000
;

//--------------- dance-single - Pandemonium X ----------------
#NOTES:
     dance-single:
     Pandemonium X:
     Medium:
     13:
     0,0,0,0,0:
0000
0000
0000
0000
,
0000
0000
0000
0000
,
0000
0000
0000
0000
,
0000
0000
0000
0000
,
0000
0000
0000
0000
,
0000
0000
0000
0000
,
0000
0000
0000
0000
,
0000
0000
0000
0000
,
0000
0000
0000
0000
,
0001
0000
1000
0010
,
0100
0000
0000
0100
0000
0000
0100
0000
0010
0000
0000
0000
0000
0000
0000
0000
,
1000
0000
0000
0001
0010
0000
0100
0000
,
0010
0000
0000
0010
0000
0000
0010
0000
1001
0000
0000
0000
0000
0000
0000
0000
,
0001
0000
0000
1000
0100
0000
1000
0000
,
0001
0000
0000
0001
0000
0000
0001
0000
0100
0000
0000
0000
0000
0000
0000
0000
,
0010
0000
0000
0100
0001
0000
0010
0000
,
0100
0000
0000
0100
0000
0000
0100
0000
0010
0000
0001
0000
1000
0000
0000
0000
,
0020
0000
0000
0230
0000
0000
0002
0000
,
0000
0000
0000
0303
,
2000
0000
0000
3002
0000
0000
0020
0000
,
0000
0000
0000
0033
,
2000
0000
0000
3002
0000
0000
0020
0000
,
0000
0000
0000
0033
,
0100
1000
0100
0010
,
0100
1000
0100
0010
,
1001
1000
0010
0100
,
1001
1000
0001
0100
,
0001
0100
0010
1000
0001
0100
0010
1000
,
0200
0300
0021
0000
,
0130
0000
0000
0000
0000
0000
1000
0000
0000
0000
0000
0000
0001
0000
0000
0000
1000
0000
0000
0000
0100
0000
0000
0000
0010
0000
0000
0000
0000
0000
0000
0000
0000
0010
0000
0000
0000
0000
0000
0000
0000
0000
0100
0000
0000
0000
0000
0000
,
1000
0000
0001
0000
0200
0000
0000
0000
0310
0000
0000
0010
0000
0000
0010
0000
,
2000
0000
0000
0000
0000
0000
3001
0000
0000
0010
0000
0000
0100
0000
1000
0000
0100
0000
1000
0000
0000
0001
0000
0000
,
0100
0010
0100
0002
0000
0000
2003
0000
0000
0000
0000
0000
,
3010
0000
0000
0000
0000
0000
1000
0000
0000
0000
0000
0000
0001
0000
0000
0000
0010
0000
0000
0000
0100
0000
0000
0000
0010
0000
0000
0000
0000
0000
0000
0000
0000
0010
0000
0000
0000
0000
0000
0000
0000
0000
0010
0000
0000
0000
0000
0000
,
0100
1000
0002
0000
1003
0010
1000
0001
,
0010
0001
1000
0001
0010
0001
1000
0010
,
1000
0001
0010
0100
2000
0000
0000
0000
,
3010
0000
0000
0000
0000
0000
0100
0000
0000
0000
0000
0000
0001
0000
0000
0000
0010
0000
0000
0000
0001
0000
0000
0000
1000
0000
0000
0000
0000
0000
0000
0000
0000
1000
0000
0000
0000
0000
0000
0000
0000
0000
0100
0000
0000
0000
0000
0000
,
0010
0000
0100
0000
2000
0000
0000
0000
3010
0000
0000
0010
0000
0000
0100
0000
,
0002
0000
0000
0000
0000
0000
0013
0000
0000
0100
0000
0000
1000
0000
0100
0000
1000
0000
0001
0000
0000
0100
0000
0000
,
0010
0100
0001
0100
0000
0000
2002
0000
0000
0000
0000
0000
,
0000
0000
0000
0000
3003
0000
0000
0000
0201
0000
0000
0010
0000
0000
0301
0000
,
1001
0000
2000
0000
3001
0100
0001
1000
,
0100
1000
0001
1000
0100
1000
0001
0100
,
0001
1000
0100
0010
0022
0000
0000
0033
,
0010
0000
0000
0000
0000
0000
0100
0000
0000
0000
0000
0000
1000
0000
0000
0000
0100
0000
0000
0000
1000
0000
0000
0000
0001
0000
0000
0000
0000
0000
0000
0000
0000
0001
0000
0000
0000
0000
0000
0000
0000
0000
0010
0000
0000
0000
0000
0000
,
0001
0000
0100
0000
0002
0000
0000
0000
1003
0000
0000
1000
0000
0000
1000
0000
,
0020
0000
0000
0000
0000
0000
0130
0000
0000
0001
0000
0000
0010
0000
0001
0000
0100
0000
0001
0000
0000
1000
0000
0000
,
0100
0010
0100
2000
0000
3000
0202
0000
0000
0000
0000
0303
,
0001
0000
0000
0000
0000
0000
0010
0000
0000
0000
0000
0000
0100
0000
0000
0000
0010
0000
0000
0000
0001
0000
0000
0000
1000
0000
0000
0000
0000
0000
0000
0000
0000
1000
0000
0000
0000
0000
0000
0000
0000
0000
1000
0000
0000
0000
0000
0000
,
0100
1000
0020
0000
0130
0001
0010
0001
,
0100
0010
0100
0001
0010
0001
0100
0010
,
0100
0001
0010
0100
1000
0000
0000
1000
,
0000
0000
0000
0000
0001
0000
0000
0001
,
0000
0000
0000
0000
0100
0000
0000
0100
,
0000
0000
0000
0000
0010
0000
0000
0010
,
0000
0100
0001
0101
,
0001
0100
0010
0000
1000
0000
1100
0000
,
0100
0010
0001
0000
0010
0000
0001
0100
,
0000
0001
1000
0000
0100
0000
0100
0000
,
0010
0000
0010
0000
0001
0001
0100
0010
,
1000
0001
0010
0000
0100
0100
0010
0001
,
1000
0100
0010
0000
0100
1000
0010
0100
,
0000
0000
0000
0000
0100
0010
1000
0100
,
0000
0000
0011
0011
,
0001
0100
0010
0000
1010
0000
1010
0000
,
1000
0010
0100
0000
0101
0000
0001
1000
,
0000
1000
0010
0000
0010
0100
0000
0100
,
0001
0010
0100
1000
0001
0000
0000
0100
,
0000
0000
0010
0000
0000
1000
0000
0000
,
0001
0000
0000
0000
0000
0000
0100
0000
0000
0000
0010
0000
0000
1000
0000
0000
,
0010
0000
0000
0100
0000
0000
0001
0000
0020
0000
0000
0000
0000
0000
0000
0000
,
0130
1100
0101
1001
,
1000
0000
0100
0000
0010
0000
0100
0000
0000
0000
0000
0000
1000
0000
0000
0000
0000
0000
0010
0000
0000
0100
0000
0000
,
0001
0011
0011
2001
,
3100
0000
0010
0000
0001
0000
1000
0000
0010
0000
1000
0000
0100
0000
0000
0010
0000
0000
0001
0000
0010
0000
0001
0000
,
0100
1010
0011
1001
,
0001
1000
0100
0000
0010
0100
0010
0001
,
1000
0000
0010
1000
0100
1000
0010
1000
,
0100
1000
0010
1000
0100
1000
0010
0100
,
0001
0010
0200
0000
0000
1000
0000
0000
,
0310
0000
0020
0000
0000
0001
0000
0130
,
0010
0001
2000
0000
0000
0010
0000
0000
,
3100
0000
0020
0000
0000
0001
0000
0000
,
0130
0000
1002
0000
0000
0010
0000
0000
,
0100
0000
0023
0000
0000
0001
0000
0130
,
0010
0001
2000
0000
0000
0010
0000
0000
,
0100
0000
3200
0000
0000
0301
0100
1000
,
0010
0100
0001
0000
1000
0001
0100
0000
,
1010
0000
1000
0000
0100
0010
0001
0010
,
1000
0010
0001
0000
0100
0001
0010
0000
,
0110
0000
0011
0000
0001
0100
0010
0000
,
1001
0000
1000
0001
0100
0000
0010
1000
,
0001
0000
0010
0100
1000
0000
0100
0010
,
0001
0000
0100
0010
1000
0001
0010
0100
,
0010
0000
0001
0000
1000
0000
0000
0000
0000
0000
0000
0000
0001
0100
0001
0010
,
0001
1000
0100
0010
0000
0000
0000
0000
0000
0000
0000
0000
0000
0000
0000
0000
;

//--------------- dance-single - Pandemonium X ----------------
#NOTES:
     dance-single:
     Pandemonium X:
     Hard:
     16:
     0,0,0,0,0:
0000
0000
0000
0000
,
0000
0000
0000
0000
,
0000
0000
0000
0000
,
0000
0000
0000
0000
,
0000
0000
0000
0000
,
0000
0000
0000
0000
,
0000
0000
0000
0000
,
0000
0000
0000
0000
,
0000
0000
0000
0000
,
0001
0000
0000
1000
0100
0000
1001
0000
,
0010
0000
0000
0010
0000
0000
0010
0000
1001
0000
0000
0000
0000
0000
0000
0000
,
1000
0000
0000
0001
0100
0000
1001
0000
,
0010
0000
0000
0010
0000
0000
0010
0100
0010
0000
0000
0000
0000
0000
0000
0000
,
1001
0000
0000
1000
0010
0000
1001
0000
,
0001
0000
0000
0001
0000
0000
0001
0000
0010
0000
1000
0000
0010
0000
0001
0000
,
1000
0000
0000
0001
1000
0000
1001
0000
,
1000
0000
0000
1000
0000
0000
1000
0010
1000
0000
0100
0000
0010
0000
0000
0000
,
0200
0000
0000
2300
0000
0000
3020
0000
,
0000
0000
0000
0000
,
0230
0000
0000
0302
0000
0000
2003
0000
,
0000
0000
0000
0000
,
3001
0010
0100
1000
,
0100
0000
0010
0000
0100
0000
0100
0010
,
0001
1000
1000
0001
0010
0010
0100
1000
,
1000
0100
0010
0010
0001
0010
0100
1000
,
0001
0010
0010
0100
1000
1000
0010
0100
,
0100
0001
1000
1000
0001
0010
0010
0100
,
1000
0010
1000
0010
0100
0010
0100
0010
0100
0001
0100
0001
0100
0001
0010
0002
,
2000
0000
3003
0000
2001
0000
0000
3010
,
0100
0000
0000
0000
0000
0000
0100
0000
0000
0000
0000
0000
0010
0000
0000
0000
1000
0000
0000
0000
0001
0000
0000
0000
1000
0000
0000
0000
0000
0000
0000
0000
0000
0100
0000
0000
0000
0000
0000
0000
0000
0000
0010
0000
0000
0100
0000
0000
,
1000
0000
0001
0000
0200
0000
0000
0000
0310
0000
0000
0010
0000
0010
0100
0000
,
0002
0000
0000
0000
0000
0000
0013
0000
0100
0000
0010
0000
0001
0000
0001
0000
1000
0000
0010
0000
0000
0100
0000
0000
,
0001
1000
0100
0010
0000
0000
1200
0000
0000
0000
0000
0000
,
0310
0000
0000
0000
0000
0000
0001
0000
0000
0000
0000
0000
0100
0000
0000
0000
0010
0000
0000
0000
1000
0000
0000
0000
0010
0000
0000
0000
0000
0000
0000
0000
0000
0010
0000
0000
0000
0000
0000
0000
0000
0000
0010
0000
0000
1000
0000
0000
,
0001
0000
0010
0000
2100
0000
0000
0000
3001
0000
1000
0010
1000
0000
0001
0000
,
0010
0001
0010
0000
0001
0000
1000
0010
1000
0000
0001
0000
0010
0001
0010
0000
,
0001
0000
1000
0010
1000
0100
0010
0100
2000
0000
0000
0000
0000
0000
0000
0000
,
3001
0000
0000
0000
0000
0000
0010
0000
0000
0000
0000
0000
0100
0000
0000
0000
1000
0000
0000
0000
0001
0000
0000
0000
0100
0000
0000
0000
0000
0000
0000
0000
0000
0001
0000
0000
0000
0000
0000
0000
0000
0000
0010
0000
0000
0001
0000
0000
,
1000
0000
0010
0000
0200
0000
0000
0000
0310
0000
0000
0010
0000
0010
0100
0000
,
0002
0000
0000
0000
0000
0000
1003
0000
0001
0000
0010
0000
0100
0000
0100
0000
0010
0000
0001
0000
0000
0001
0000
0000
,
0010
0000
0000
0000
0010
0000
0000
0000
0100
0000
0000
0000
1000
0000
0000
0000
0000
0000
0000
0000
0000
0000
0000
0000
0001
0000
0000
0100
0000
0000
0001
0000
0000
0100
0000
0000
0010
0000
0000
1000
0000
0000
0010
0000
0000
1000
0000
0000
,
0001
0100
0010
1000
0002
0000
0000
0000
0013
0000
0000
0010
0000
0000
0010
0001
,
0100
0000
0001
0000
1002
0000
0000
0000
1003
0000
0001
0100
0001
0000
1000
0000
,
0100
1000
0100
0000
1000
0000
0001
0100
0001
0000
1000
0000
0100
1000
0100
0000
,
0010
0000
0001
0010
0100
0010
0001
1000
0020
0000
0000
0000
0000
0000
0000
0000
,
0130
0000
0000
0000
0000
0000
0001
0000
0000
0000
0000
0000
0010
0000
0000
0000
0100
0000
0000
0000
0010
0000
0000
0000
0001
0000
0000
0000
0000
0000
0000
0000
0000
1000
0000
0000
0000
0000
0000
0000
0000
0000
0100
0000
0000
1000
0000
0000
,
0010
0000
0100
0000
0002
0000
0000
0000
0013
0000
0000
0010
0000
0010
0001
0000
,
2000
0000
0000
3001
0001
1000
0100
0010
0100
1000
0001
0100
,
0010
0000
1000
0000
0001
0000
0010
0000
0000
0000
0000
0000
2002
0000
0000
0000
0000
0000
0000
0000
0000
3003
0000
0000
,
1000
0000
0000
0000
0000
0000
0100
0000
0000
0000
0000
0000
0010
0000
0000
0000
0100
0000
0000
0000
0010
0000
0000
0000
0001
0000
0000
0000
0000
0000
0000
0000
0000
0001
0000
0000
0000
0000
0000
0000
0000
0000
0001
0000
0000
1000
0000
0000
,
0100
0000
0010
0000
0200
0000
0000
0000
0310
0000
0001
1000
0001
0000
0010
0000
,
0001
1000
0001
0000
0100
0000
0001
1000
0001
0000
0100
0000
0001
1000
0001
0000
,
1000
0100
0010
0100
1000
0100
0010
0001
1000
0000
0000
0000
0000
0000
1000
0000
,
0000
0000
0000
0000
0001
0000
0000
0001
,
0000
0000
0100
0010
1000
0100
0010
0001
1000
0000
0000
0000
0000
0000
1000
0000
,
0000
0000
0000
0000
0010
0000
0000
0010
,
0000
0000
0100
0000
0102
0000
0000
0010
,
0000
0000
1003
0000
1020
0000
0000
0130
,
0000
0000
0100
0010
1000
0100
0010
0001
1000
0000
0000
0000
0000
0000
0001
0000
,
0000
0200
0020
0000
0000
0000
0000
0000
,
0000
0000
0330
0000
0101
0200
0010
0000
,
0001
0000
0310
0000
1010
0020
0100
0000
,
1000
0000
0130
0000
0100
1000
0100
0001
,
1000
0100
0010
0000
0001
0010
1000
0010
,
0100
0010
0001
0000
0010
0000
1100
0000
,
0001
0100
0001
1000
0001
0000
0101
0000
,
1000
0100
0010
0001
0100
0000
0011
0000
,
0001
1000
0010
1000
0001
0000
1010
0000
,
1000
0100
0010
0100
2000
0000
0000
3200
,
0000
0000
0320
0000
0000
0032
0000
0000
,
0203
0000
0000
0000
0000
0000
0320
0000
0000
0000
2030
0000
0000
3020
0000
0000
,
2030
0000
0000
3002
0000
0000
0023
0000
0130
0010
0100
0010
0100
0010
0100
0010
,
0100
0000
2001
3001
1002
1003
2001
3100
,
0010
0000
0000
0000
0001
0000
0000
0000
0010
0000
0000
0000
0200
0000
0000
0000
0000
0000
0000
0000
0000
0000
0000
0000
0310
0000
0000
0000
0000
0000
0001
0000
0000
0000
0000
0000
0100
0000
0000
0000
0000
0000
0010
0000
0000
1000
0000
0000
,
0002
0000
0003
1100
0000
0000
0101
0000
0000
1002
0000
0000
,
0013
0000
0100
0000
1000
0000
0001
0000
0001
0000
1000
0000
0010
0000
0000
0100
0000
0000
0010
0000
0010
0000
1000
0000
,
0001
0000
1002
1003
2001
3001
1002
0013
,
0100
0000
0000
0000
1000
0000
0000
0000
0010
0000
0000
0000
0100
0000
0000
0000
0000
0000
0010
0000
0000
1000
0000
0000
0001
0000
0000
0000
0000
0000
0010
0000
0000
0100
0000
0000
1000
0000
0000
0000
0000
0000
0001
0000
0000
0000
0000
0000
,
0020
0000
0000
0000
0031
0000
0100
0010
0100
0000
0001
0000
0010
0100
0010
0000
,
0001
0000
0100
0010
0100
0000
0001
0000
0010
0100
0010
0000
0100
0010
0100
1000
,
0100
0010
0100
1000
0100
0000
0000
0000
1000
0000
0010
0000
0100
0000
0000
0000
,
1010
0000
0000
0000
1100
0000
0000
0000
0100
0000
0010
0000
0001
0000
0010
0100
,
1000
0010
1000
0100
1000
0000
0000
0000
0001
0000
0100
0000
0110
0000
0000
0010
,
0100
0000
0010
1000
0100
0000
0000
0000
0010
0000
0100
0000
1000
0100
0000
1000
,
0100
0010
0001
0000
0010
0001
0100
0000
,
1010
0000
0000
0000
1100
0000
0000
0000
1000
0000
0001
0000
0010
0000
0100
0010
,
0001
0100
0010
0100
0001
0000
0000
0000
1000
0000
0001
0000
0011
0000
0000
0100
,
0001
0000
0001
0010
0100
0000
0000
0000
0110
0000
0100
0000
1000
0001
1000
0010
,
1000
0001
0100
0001
0010
0000
0001
0000
1000
0000
0001
0000
0010
0000
0100
0000
,
0010
0000
0000
0000
0100
0000
1000
0000
0010
0000
1000
0000
0001
0000
0010
0100
,
0010
0001
0100
0010
1000
0000
0100
0000
1000
0000
0010
0000
0100
0000
0010
0000
,
1000
0000
0000
0000
0100
0000
0010
0000
0100
0000
0010
0000
0001
0100
0000
0100
,
0001
1000
0010
0001
0010
1000
0001
0010
,
0100
0000
0000
0000
1000
0000
0100
0000
0001
0000
0100
0000
1000
0000
0010
0100
,
0001
0010
0100
1000
0001
0100
0001
0100
0010
1000
0010
1000
0001
1000
0001
1000
,
0001
0010
0001
0010
0200
0000
0000
0000
0000
0000
0000
0000
1300
0100
0001
0100
,
1000
0100
0010
0001
0000
0000
0000
0000
0000
0000
0000
0000
0000
0000
0000
0000
;

//--------------- dance-double - Pandemonium X ----------------
#NOTES:
     dance-double:
     Pandemonium X:
     Easy:
     9:
     0,0,0,0,0:
00000000
00000000
00000000
00000000
,
00000000
00000000
00000000
00000000
,
00000000
00000000
00000000
00000000
,
00000000
00000000
00000000
00000000
,
00000000
00000000
00000000
00000000
,
00000000
00000000
00000000
00000000
,
00000000
00000000
00000000
00000000
,
00000000
00000000
00000000
00000000
,
00000000
00000000
00000000
00000000
,
00010000
00000000
00001000
00000000
,
00010000
00010000
00010000
00000000
,
00001000
00000000
00010000
00000000
,
00001000
00001000
00010000
00000000
,
00000100
00000000
00001000
00000000
,
00000010
00000010
00001000
00000000
,
00000001
00000000
00000100
00000000
,
00000010
00000010
00010000
00000000
,
00001000
00000000
00000000
01000000
00000000
00000000
00200000
00000000
,
00000000
00000000
00000000
00000000
,
01300000
00000000
00000000
00010000
00000000
00000000
20000000
00000000
,
00000000
00000000
00000000
00000000
,
31000000
00000000
00000000
00100000
00000000
00000000
00002000
00000000
,
00000000
00000000
00000000
00000000
,
00013000
00000000
00000000
00000010
00000000
00000000
00000200
00000000
,
00000000
00000000
00000000
00000000
,
00000320
00001030
00000200
00010300
,
00002000
01003000
00200000
10300000
,
00020000
00130000
02000000
13000000
,
10010000
00011000
00000000
00000000
00002100
00000000
00000000
00000000
,
00003001
00000100
00000010
00001000
,
00000100
00001000
00000100
00000000
00010000
00000000
00000100
00000000
,
00020000
00031000
01000000
01000000
,
00010000
00100000
00010000
00000000
20000000
00000000
00000000
00000000
,
31000000
00000000
10000000
00100000
10000000
00000000
00100000
00000000
,
01000000
00010000
02000000
00000000
03010000
00000000
00000000
00100000
,
00000000
00000000
00001000
00000000
00000000
00010000
00000000
00000000
,
00000010
00000100
00002001
00000000
,
00003010
00000000
00000100
00000010
00000100
00000000
00000001
00000000
,
00000010
00000100
00000010
00000000
00000100
00000000
00001000
00000000
,
00000200
00010300
00001000
01000000
,
00010000
01000000
00010000
00000000
10200000
00000000
00000000
00000000
,
00000000
01300000
00010000
00100000
,
01000000
10000000
02000000
00000000
03100000
00000000
00000000
00001000
,
00000000
00000000
00010000
00000000
00000000
00000010
00000000
00000000
,
00000100
00000010
00002020
00000000
,
00003030
00000000
00000010
00000100
00000010
00000000
00000100
00000000
,
00000001
00001000
00000001
00000000
00001000
00000000
00000100
00000000
,
00010000
00001000
01000000
00010000
,
00100000
01000000
00100000
00000000
20020000
00000000
00000000
00000000
,
30030000
00010000
00100000
01000000
,
10000000
01000000
10000000
00000000
01000000
00000000
00000000
00100000
,
00000000
00000000
00010000
00000000
00000000
00001000
00000000
00000000
,
00010000
00000000
00000100
00000000
00001000
00000000
00000000
00001000
,
00000000
00000000
00000000
00000000
00000010
00000000
00000000
00000010
,
00000000
00000000
00000100
00000000
00000001
00000000
00000000
00000001
,
00000000
00000000
00000000
00000000
00000010
00000000
00000000
00000010
,
00000000
00000000
00000100
00000000
00011000
00000000
00000000
00010000
,
00000000
00000000
00000000
00000000
00001000
00000000
00000000
00001000
,
00000000
00000000
01000000
00000000
00100000
00000000
00000000
01000000
,
00000000
00020000
20000000
00000000
,
00000000
00000000
30030000
00000000
10000000
00100000
10000000
00000000
,
00010000
00000000
00100000
00000000
00001000
00100000
00001000
00000000
,
00010000
00000000
00000100
00000000
00002000
00000000
00000010
00003010
,
00000000
00000000
00000000
00000000
00000200
00000000
00000001
00000301
,
00000000
00000000
00001000
00000001
,
00000010
00000100
00001000
00001000
,
00000100
00010000
00001000
00001000
,
00010000
00001000
01000000
01000000
,
00100000
10000000
01000000
00000000
,
00100000
00000000
00010000
00000000
,
00001000
00000000
00000100
00000010
,
00000001
00001000
00001200
00000000
,
00010300
00022000
00000000
00033000
,
00001000
00000000
01000000
00000000
00100000
00000000
10000000
00100000
,
10000000
10010000
01100000
10010000
,
00100000
00001000
00010000
00000100
,
00001000
00002002
00000000
00003003
,
00000001
00000100
00000001
00000000
00000100
00000000
00000010
00000100
,
00000010
00000000
00000100
00000000
00000000
00000001
00000000
00000000
,
00001000
00000000
00000000
00000100
00000000
00000000
00010000
00000000
,
00001000
00000000
01000000
00000000
00000000
00100000
00000000
00000000
,
00000000
00000000
01000000
00000000
00000000
00010000
00000000
00000000
,
00100000
00000000
01000000
00000000
00000000
10000000
00000000
00000000
,
00000000
00000000
00010000
00000000
00000000
00100000
00000000
00000000
,
00001000
00000000
00010000
00000000
00000000
00000100
00000000
00000000
,
00000000
00000000
00001000
00000000
00000000
00000010
00000000
00000000
,
00000100
00000000
00000001
00000000
00000000
00000010
00000000
00000000
,
00000000
00000100
00000000
00001000
,
00000100
00010000
00001000
01000000
,
00100000
10000000
00010000
00100000
,
01000000
10000000
01000000
00010000
,
00001000
00010000
00000100
00001000
,
00000010
00000100
00000001
00000010
,
00000100
00001000
00000100
00010000
,
00001000
00000000
01000000
00000000
00000000
01000000
00000000
00000000
,
00000000
00000000
01000000
00000000
00000000
00000000
01000000
00010000
,
00100000
00001000
00000000
00000000
00000000
00000000
00000000
00000000
;

//--------------- dance-double - Pandemonium X ----------------
#NOTES:
     dance-double:
     Pandemonium X:
     Medium:
     13:
     0,0,0,0,0:
00000000
00000000
00000000
00000000
,
00000000
00000000
00000000
00000000
,
00000000
00000000
00000000
00000000
,
00000000
00000000
00000000
00000000
,
00000000
00000000
00000000
00000000
,
00000000
00000000
00000000
00000000
,
00000000
00000000
00000000
00000000
,
00000000
00000000
00000000
00000000
,
00000000
00000000
00000000
00000000
,
00010000
00000000
00000000
00000100
00001000
00000000
00000010
00000000
,
00000100
00000000
00000000
00000100
00000000
00000000
00000100
00000000
00001001
00000000
00000000
00000000
00000000
00000000
00000000
00000000
,
00000001
00000000
00000000
00000010
00000001
00000000
00001000
00000000
,
00000100
00000000
00000000
00000100
00000000
00000000
00000100
00001000
00000100
00000000
00000000
00000000
00000000
00000000
00000000
00000000
,
00010000
00000000
00000000
00010000
00001000
00000000
00100000
00000000
,
01000000
00000000
00000000
01000000
00000000
00000000
01000000
00000000
10010000
00000000
00000000
00000000
00000000
00000000
00000000
00000000
,
10000000
00000000
00000000
00010000
00100000
00000000
01000000
00000000
,
10000000
00000000
00000000
10000000
00000000
00000000
10000000
01000000
10000000
00000000
00010000
00000000
02000000
00000000
00000000
00000000
,
03020000
00000000
00000000
00230000
00000000
00000000
00002000
00000000
,
00000000
00000000
00000000
00300000
,
00023000
00000000
00000000
00030020
00000000
00000000
00000200
00000000
,
00000000
00000000
00000000
00000030
,
00000301
00000100
00001000
00010000
,
00000100
00010000
00001000
00100000
,
00001000
01000000
00100000
10000000
,
00010000
00000000
00100000
00000000
01000000
10000000
00100000
01000000
,
00010000
00100000
00010000
00000000
10000000
01000000
10000000
00000000
,
00100000
10000000
00100000
00000000
01000000
00010000
01000000
00000000
,
00010000
00100000
00001000
00010000
00000010
00000100
00000001
00000010
,
00000200
00000300
00012000
00000000
,
01003000
00000000
00000000
00000000
00000000
00000000
00010000
00000000
00000000
00000000
00000000
00000000
00100000
00000000
00000000
00000000
01000000
00000000
00000000
00000000
10000000
00000000
00000000
00000000
00010000
00000000
00000000
00000000
00000000
00000000
00000000
00000000
00000000
00010000
00000000
00000000
00000000
00000000
00000000
00000000
00000000
00000000
00010000
00000000
00000000
00000000
00000000
00000000
,
10000000
00000000
01000000
00000000
00200000
00000000
00000000
00000000
01300000
00000000
00000000
01000000
00000000
00000000
01000000
00000000
,
00200000
00000000
00000000
00000000
00000000
00000000
00301000
00000000
00000000
00000000
00000000
00000000
00010000
00000000
00000100
00000000
00010000
00000000
00000100
00000000
00000000
00001000
00000000
00000000
,
00000010
00000100
00000010
00000200
00000000
00000000
00000302
00000000
00000000
00000000
00000000
00000000
,
00001003
00000000
00000000
00000000
00000000
00000000
00000100
00000000
00000000
00000000
00000000
00000000
00000010
00000000
00000000
00000000
00000100
00000000
00000000
00000000
00001000
00000000
00000000
00000000
00000001
00000000
00000000
00000000
00000000
00000000
00000000
00000000
00000000
00000001
00000000
00000000
00000000
00000000
00000000
00000000
00000000
00000000
00000001
00000000
00000000
00000000
00000000
00000000
,
00001000
00000100
00010000
00000000
00001000
00000000
01000000
00100000
,
00000000
01000000
00010000
00000000
00100000
01000000
00000000
00100000
,
00001000
00010000
00000010
00000100
00000002
00000000
00000000
00000000
,
00000013
00000000
00000000
00000000
00000000
00000000
00000100
00000000
00000000
00000000
00000000
00000000
00001000
00000000
00000000
00000000
00000100
00000000
00000000
00000000
00010000
00000000
00000000
00000000
00001000
00000000
00000000
00000000
00000000
00000000
00000000
00000000
00000000
00001000
00000000
00000000
00000000
00000000
00000000
00000000
00000000
00000000
00001000
00000000
00000000
00000000
00000000
00000000
,
00010000
00000000
00000100
00000000
00020000
00000000
00000000
00000000
00031000
00000000
00000000
00001000
00000000
00000000
00001000
00000000
,
02000000
00000000
00000000
00000000
00000000
00000000
03100000
00000000
00000000
10000000
00000000
00000000
01000000
00000000
00100000
00000000
01000000
00000000
00100000
00000000
00000000
00010000
00000000
00000000
,
10000000
00100000
10000000
00100000
00000000
00000000
01020000
00000000
00000000
00000000
00000000
00000000
,
00000000
00000000
00000000
00000000
00130000
00000000
00000000
00000000
00001000
00000000
00000000
00001000
00000000
00000000
00001000
00010000
,
00001000
00000000
00200000
00000000
00310000
00000000
01000000
00001000
,
00000000
00010000
00000100
00000000
00001000
00000010
00000000
00000100
,
00000001
00000010
00000100
00001000
00002200
00000000
00000000
00003300
,
00000100
00000000
00000000
00000000
00000000
00000000
00010000
00000000
00000000
00000000
00000000
00000000
00001000
00000000
00000000
00000000
00010000
00000000
00000000
00000000
00001000
00000000
00000000
00000000
01000000
00000000
00000000
00000000
00000000
00000000
00000000
00000000
00000000
01000000
00000000
00000000
00000000
00000000
00000000
00000000
00000000
00000000
01000000
00000000
00000000
00000000
00000000
00000000
,
00100000
00000000
10000000
00000000
02000000
00000000
00000000
00000000
03100000
00000000
00000000
00100000
00000000
00000000
00100000
00000000
,
00002000
00000000
00000000
00000000
00000000
00000000
00013000
00000000
00000000
00000100
00000000
00000000
00001000
00000000
00000010
00000000
00001000
00000000
00000010
00000000
00000000
00000100
00000000
00000000
,
00000001
00000100
00000001
00000020
00000000
00000030
00002002
00000000
00000000
00000000
00003003
00000000
,
00000001
00000000
00000100
00000000
00000001
00000000
00000010
00000000
00000100
00000000
00000000
00000100
00000000
00000000
00000100
00000000
,
00001000
00000100
00010000
00000000
00001000
00000000
00010000
00000100
,
00000000
00001000
00000010
00000000
00000100
00000001
00000000
00000010
,
00000001
00001000
00000100
00001000
00000010
00000000
00000000
00000010
,
00000000
00000000
00000000
00000000
00000100
00000000
00000000
00000100
,
00000000
00000010
00000100
00000001
00001000
00000000
00000000
00001000
,
00000000
00000000
00000000
00000000
00000100
00000000
00000000
00000100
,
00000000
00000000
00010000
00000000
00001000
00000000
00000000
00001000
,
00000000
00000000
00000000
00000000
00100000
00000000
00000000
00100000
,
00000000
00010000
00100000
01000000
10000000
00000000
00000000
00010000
,
00000000
01000000
00200000
02000000
00000000
00000000
00000000
00000000
,
00000000
03300000
20010000
30100000
,
01000000
00010000
00100000
00000000
00102000
00000000
00013000
00000000
,
00000100
00001000
00000010
00000000
00001000
00000100
00000001
00000100
,
00000000
00000000
00000000
00000000
00000001
00000010
00001000
00000010
,
00000000
00000000
00000100
00000101
,
00000001
00000010
00000100
00001000
00000100
00000000
00001100
00000000
,
00001000
00000100
00010000
00001000
01000000
00000000
01100000
00000000
,
01000000
00010000
00100000
00001000
00010000
00000000
00010100
00000000
,
00000100
00001000
00000010
00000100
00000001
00000000
00000000
00000010
,
00000000
00000000
00000100
00000000
00000000
00001000
00000000
00000000
,
00000100
00000000
00000000
00000000
00000000
00000000
00010000
00000000
00000000
00000000
00001000
00000000
00000000
01000000
00000000
00000000
,
00100000
00000000
00000000
10000000
00000000
00000000
00010000
00000000
00200000
00000000
00000000
00000000
00000000
00000000
00000000
00000000
,
00300000
00011000
00011000
00010000
,
00000100
00000000
00001000
00000000
00000010
00000000
00000100
00000001
,
00000010
00000110
00000011
00001100
,
00000100
00000000
00000000
00010000
00000000
00000000
00001000
00000000
00010000
00000000
00001000
00000000
01000000
00000000
00000000
00010000
00000000
00000000
00100000
00000000
01000000
00000000
00100000
00000000
,
00010000
01010000
10100000
11000000
,
10000000
00000000
01000000
00000000
00100000
00000000
01000000
00000000
00000000
00000000
00000000
00000000
00100000
00000000
00000000
00000000
00000000
00000000
00001000
00000000
00000000
00010000
00000000
00000000
,
00000100
00000000
00001000
00000000
00000010
00000100
00000000
00000001
,
00000010
00000000
00000100
00001000
00000000
00000100
00010000
00001000
,
01000000
00010000
00100000
00000000
01000000
10000000
00100000
00000000
,
01000000
00000000
01010000
00000000
00010000
00100000
00001000
00010000
,
00000100
00001000
00000010
00000000
00000100
00000001
00000010
00000000
,
00001100
00000000
00000100
00000000
00000010
00000001
00000100
00000000
,
00001001
00000000
00001100
00000000
00000100
00010000
00001000
00000000
,
00011000
00000000
00010100
00000000
00000100
00001000
00000010
00000001
,
00000010
00000100
00000001
00000000
00000100
00000010
00001000
00000000
,
00010100
00000000
00011000
00000000
00001000
01000000
00100000
00010000
,
00100000
10000000
00010000
00100000
01000000
10000000
00010000
01000000
,
00002000
00010000
00100000
00010000
,
00103000
00000000
00001000
00010000
00000010
00000100
00000001
00000010
,
00000200
00001000
00000010
00001000
,
00000310
00000000
00000100
00001000
00000100
00000000
00000010
00000001
,
00000010
00000000
00000001
00000100
00000001
00000000
00001000
00000010
,
00001000
00000000
00000100
00010000
00001000
01000000
00010000
00100000
,
01000000
10000000
00020000
00000000
00030000
00000000
00100000
00001000
,
00010000
00001000
00010000
00001000
00000000
00000000
00000000
00000000
00000000
00000000
00000000
00000000
00000000
00000000
00000000
00000000
;

//--------------- dance-double - Pandemonium X ----------------
#NOTES:
     dance-double:
     Pandemonium X:
     Hard:
     16:
     0,0,0,0,0:
00000000
00000000
00000000
00000000
,
00000000
00000000
00000000
00000000
,
00000000
00000000
00000000
00000000
,
00000000
00000000
00000000
00000000
,
00000000
00000000
00000000
00000000
,
00000000
00000000
00000000
00000000
,
00000000
00000000
00000000
00000000
,
00000000
00000000
00000000
00000000
,
00000000
00000000
00000000
00000000
,
00110000
00000000
00001000
00010100
,
00000100
00000000
00000000
00001000
00000000
00000000
00000010
00000000
00001001
00000000
00000000
00000000
00000000
00000000
00000000
00000000
,
00001100
00000000
00000000
00000100
00010000
00000000
00101000
00000000
,
00010000
00000000
00000000
01000000
00000000
00000000
00100000
10000000
01000000
00000000
00000000
00000000
00000000
00000000
00000000
00000000
,
00110000
00000000
00101000
00011000
,
00000100
00000000
00000000
00001000
00000000
00000000
00000010
00000000
00000101
00000000
00000000
00000000
00000000
00000000
00000000
00000000
,
00001010
00000000
00000000
00001000
00001100
00000000
00010100
00000000
,
00010000
00000000
00000000
00001000
00000000
00000000
01000000
00000000
00100000
00000000
10000000
00000000
02000000
00000000
00000000
00000000
,
03100000
00000000
00000000
00001000
00000000
00000000
00020000
00000000
,
00000000
00000000
00000000
00030000
,
00000100
00000000
00000000
00001000
00000000
00000000
00000020
00000000
,
00000000
00000000
00000000
00000030
,
00000100
00000001
00000010
00000100
,
00000010
00000000
00000000
00000000
00000001
00000000
00000000
00000000
00001000
00000000
00000100
00010000
00001000
00010000
00000100
00001000
,
00000100
00001000
00001000
00000010
00000100
00000100
00000001
00001000
,
00001000
00000100
00010000
00010000
00001000
01000000
00100000
10000000
,
01000000
01000000
00100000
00010000
00010000
00100000
00001000
00001000
,
00010000
00000100
00000100
00001000
00000010
00000010
00000100
00000001
,
00001000
00000100
00001000
00000100
00010000
00001000
00010000
00001000
01000000
00001000
01000000
00001000
01000000
00100000
01000000
00100000
,
20000000
30000000
00210000
00000000
,
00001000
00000000
00000000
00000000
00000000
00000000
00301000
00000000
00000000
00000000
00000000
00000000
00010000
00000000
00000000
00000000
00000100
00000000
00000000
00000000
00001000
00000000
00000000
00000000
00000010
00000000
00000000
00000000
00000000
00000000
00000000
00000000
00000000
00000010
00000000
00000000
00000000
00000000
00000000
00000000
00000000
00000000
00000100
00000000
00000000
00000001
00000000
00000000
,
00001000
00000000
00000100
00000000
00020000
00000000
00000000
00000000
00031000
00000000
00000000
00001000
00000000
00001000
00010000
00000000
,
00001200
00000000
00000000
00000000
00000000
00000000
00010300
00000000
00001000
00000000
00100000
00000000
00010000
00000000
00100000
00000000
01000000
00000000
10000000
00000000
00000000
00100000
00000000
00000000
,
01000000
10000000
01000000
00010000
00000000
00000000
01020000
00000000
00000000
00000000
00000000
00000000
,
00100000
00000000
00000000
00000000
00000000
00000000
00130000
00000000
00000000
00000000
00000000
00000000
00010000
00000000
00000000
00000000
01000000
00000000
00000000
00000000
00001000
00000000
00000000
00000000
00010000
00000000
00000000
00000000
00000000
00000000
00000000
00000000
00000000
00010000
00000000
00000000
00000000
00000000
00000000
00000000
00000000
00000000
00010000
00000000
00000000
00000100
00000000
00000000
,
00001000
00000000
00000010
00000000
00000102
00000000
00000000
00000000
00000013
00000000
00000100
00001000
00000100
00000000
00010000
00000000
,
00001000
00010000
00001000
00000000
01000000
00000000
00010000
01000000
00010000
00000000
00100000
00000000
01000000
10000000
01000000
00000000
,
10000000
01000000
00100000
01000000
10000000
00010000
00100000
01000000
20000000
00000000
00000000
00000000
00000000
00000000
00000000
00000000
,
00100000
00000000
00000000
00000000
00000000
00000000
30100000
00000000
00000000
00000000
00000000
00000000
01000000
00000000
00000000
00000000
00010000
00000000
00000000
00000000
00100000
00000000
00000000
00000000
00001000
00000000
00000000
00000000
00000000
00000000
00000000
00000000
00000000
00001000
00000000
00000000
00000000
00000000
00000000
00000000
00000000
00000000
00001000
00000000
00000000
00010000
00000000
00000000
,
00000010
00000000
00000100
00000000
00000002
00000000
00000000
00000000
00000013
00000000
00000000
00000010
00000000
00000010
00000100
00000000
,
00002000
00000000
00000000
00000000
00000000
00000000
00003100
00000000
00010000
00000000
00000100
00000000
00001000
00000000
00000010
00000000
00000100
00000000
00000001
00000000
00000000
00000010
00000000
00000000
,
00000100
00000000
00000000
00000000
00001000
00000000
00000000
00000000
00000100
00000000
00000000
00000000
00020000
00000000
00000000
00000000
00000000
00000000
00000000
00000000
00000000
00000000
00000000
00000000
00031000
00000000
00000000
00010000
00000000
00000000
00001000
00000000
00000000
00010000
00000000
00000000
00001000
00000000
00000000
00010000
00000000
00000000
00001000
00000000
00000000
00010000
00000000
00000000
,
00001000
00010000
00001000
00010000
00002000
00000000
00000000
00000000
01003000
00000000
00000000
01000000
00000000
00000000
01000000
00100000
,
01000000
00000000
00010000
00000000
00200000
00000000
00000000
00000000
01300000
00000000
10000000
00010000
10000000
00000000
00010000
00000000
,
00100000
00001000
00100000
00000000
00001000
00000000
00010000
00000100
00010000
00000000
00000010
00000000
00000100
00000001
00000100
00000000
,
00000001
00000100
00000010
00000100
00000001
00000010
00000100
00020000
00002000
00000000
00000000
00000000
00000000
00000000
00000000
00033000
,
00010000
00000000
00000000
00000000
00000000
00000000
00000010
00000000
00000000
00000000
00000000
00000000
00000100
00000000
00000000
00000000
00001000
00000000
00000000
00000000
00000100
00000000
00000000
00000000
00000001
00000000
00000000
00000000
00000000
00000000
00000000
00000000
00000000
00000001
00000000
00000000
00000000
00000000
00000000
00000000
00000000
00000000
00000001
00000000
00000000
00000010
00000000
00000000
,
00000100
00000000
00010000
00000000
00002000
00000000
00000000
00000000
00013000
00000000
00000000
00010000
00000000
00010000
00001000
00000000
,
02000000
00000000
00000000
00000000
00000000
00000000
03010000
00000000
00100000
00000000
10000000
00000000
00100000
00000000
00010000
00000000
00100000
00000000
01000000
00000000
00000000
10000000
00000000
00000000
,
01000000
00000000
00100000
00000000
00010000
00000000
01000000
00000000
00000000
00000000
00000000
00000000
00022000
00000000
00000000
00000000
00000000
00000000
00000000
00000000
00000000
00033000
00000000
00000000
,
00000100
00000000
00000000
00000000
00000000
00000000
00001000
00000000
00000000
00000000
00000000
00000000
00000010
00000000
00000000
00000000
00000100
00000000
00000000
00000000
00001000
00000000
00000000
00000000
00000100
00000000
00000000
00000000
00000000
00000000
00000000
00000000
00000000
00000001
00000000
00000000
00000000
00000000
00000000
00000000
00000000
00000000
00000010
00000000
00000000
00000001
00000000
00000000
,
00001000
00000000
00000100
00000000
00020000
00000000
00000000
00000000
00030100
00000000
00010000
00001000
00010000
00000000
00001000
00000000
,
01000000
00100000
01000000
00000000
00010000
00000000
00100000
01000000
00100000
00000000
01000000
00000000
10000000
01000000
10000000
00000000
,
00010000
00100000
00001000
00010000
00000010
00000100
00000001
00000010
00000100
00000000
00000000
00000000
00000000
00000000
00000100
00000000
,
00000000
00000000
00000000
00000000
00001000
00000000
00000000
00001000
,
00000000
00000000
00000100
00001000
00000100
00010000
00001000
00100000
00010000
00000000
00000000
00000000
00000000
00000000
00010000
00000000
,
00000000
00000000
00000000
00000000
10000000
00000000
00000000
10000000
,
00000000
00000000
00100000
00000000
02100000
00000000
00000000
03010000
,
00000000
00000000
00000000
00000000
00210000
00000000
00000000
00301000
,
00000000
00001000
00010000
00000100
00010000
00000010
00000100
00000001
00000010
00000000
00000000
00000000
00000000
00000000
00000100
00000000
,
00000000
00020000
00002000
00000000
00000000
00000000
00000000
00000000
,
00000000
00000000
00000000
00033000
00010100
00010000
00000100
00001000
,
00000010
00000100
00000101
00000000
00000011
00000010
00000100
00001000
,
00000100
00010000
00011000
00000000
00001000
00001000
01000000
00100000
,
10000000
01000000
00110000
00000000
00100000
00100000
00001000
00010000
,
00000100
00001000
00001001
00000000
00000110
00000000
00001001
00000000
,
00000001
00000100
00001000
00010000
00001000
00000000
00011000
00000000
,
00001000
01000000
00100000
10000000
01000000
00000000
11000000
00000000
,
10000000
01000000
00010000
00001000
00000100
00000000
00001100
00000000
,
00000010
00000001
00001000
00000100
00020000
00000000
00030000
00000200
,
00000000
00000300
00020000
00000000
00030000
00002000
00000000
00003000
,
02000000
00000000
00000000
00000000
03000000
00000000
00002000
00000000
00000000
00000000
00023000
00000000
00000000
00030200
00000000
00000000
,
00020300
00000000
00000000
00032000
00000000
00000000
02003000
00000000
03100000
10000000
00100000
10000000
00100000
10000000
00100000
10000000
,
00100000
00000000
01010000
00000000
00110000
00000000
00102000
00203000
,
00301000
00000000
00000000
00000000
00010000
00000000
00000000
00000000
00000010
00000000
00000000
00000000
00000100
00000000
00000000
00000000
00000000
00000000
00000010
00000000
00000000
00001000
00000000
00000000
00000100
00000000
00000000
00000000
00000000
00000000
00000010
00000000
00000000
00000001
00000000
00000000
00001000
00000000
00000000
00000000
00000000
00000000
00000100
00000000
00000000
00000000
00000000
00000000
,
00020100
00000000
00000000
00000000
00031000
00000000
00000000
00001000
01000000
00000000
00000000
01000000
00200000
00000000
00000000
00000000
,
01300000
00000000
00010000
00000000
00100000
00000000
01000000
00000000
00100000
00000000
00010000
00000000
00100000
00000000
00000000
00001000
00000000
00000000
00010000
00000000
00000100
00000000
00001000
00000000
,
00000020
00000000
00000130
00000000
00000101
00000000
00000021
00000230
,
00001300
00000000
00000000
00000000
00000010
00000000
00000000
00000000
00010000
00000000
00000000
00000000
00001000
00000000
00000000
00000000
00000000
00000000
00010000
00000000
00000000
00001000
00000000
00000000
00010000
00000000
00000000
00000000
00000000
00000000
00001000
00000000
00000000
01000000
00000000
00000000
00001000
00000000
00000000
00000000
00000000
00000000
01000000
00000000
00000000
00000000
00000000
00000000
,
00200000
00000000
00000000
00000000
10300000
00000000
01000000
00100000
01000000
00000000
00100000
00000000
00001000
00010000
00001000
00000000
,
00010000
00000000
00000010
00001000
00000010
00000000
00000100
00000000
00000001
00001000
00000001
00000000
00000010
00000001
00001000
00000010
,
00001000
00000100
00010000
00001000
02000000
00000000
03010000
00000000
00100000
00000000
02000000
00000000
13000000
00000000
00010000
00000000
,
10010000
00000000
00000000
00000000
00020000
00000000
00130000
00000000
00001000
00000000
00020000
00000000
00030010
00000000
00000100
00000010
,
00000100
00000001
00000010
00000100
00002000
00000000
00003001
00000000
00001000
00000000
00000200
00000000
00000310
00000000
00000001
00000100
,
00000001
00000000
00000100
00000010
00000200
00000000
00000310
00000000
00001000
00000000
00000200
00000000
00010300
00001000
00000000
00001000
,
01000000
00100000
20010000
30010000
00100000
00002000
00013000
00000010
,
00000110
00000000
00000000
00000000
00000002
00000000
00000013
00000000
00000100
00000000
00002000
00000000
00003100
00000000
00010000
00001000
,
01000000
00010000
00100000
01000000
20000000
00000000
31000000
00000000
00100000
00000000
00002000
00000000
00013000
00000000
00000000
00000010
,
00010000
00000000
00001000
00010000
00002000
00000000
00013000
00000000
00000010
00000000
00000100
00000000
00000001
00000010
00000001
00000010
,
00000100
00001000
00000100
00010000
00001000
00000000
00000000
00010000
00000100
00000000
00000000
00000100
00001000
00000000
00000000
00001000
,
00000010
00000000
00000100
00000000
00000001
00000000
00000000
00000001
00000010
00000000
00000000
00000010
00000100
00000000
00000000
00000100
,
00010000
00001000
00010000
00001000
01000000
00000000
00000000
01000000
00100000
00000000
00000000
00100000
10000000
00000000
00000000
10000000
,
00010000
00000000
00100000
00000000
00001000
00000000
00000000
00010000
00100000
00000000
00000000
01000000
10000000
01000000
00000000
01000000
,
00100000
00010000
10000000
00010000
10000000
00010000
00100000
00010000
,
00100000
00001000
00100000
00001000
00010000
00001000
00010000
00000100
,
00010000
00000000
00000100
00000000
00001000
00000010
00001000
00000010
00000100
00000001
00000100
00000001
00000010
00000100
00000010
00000100
,
00001000
00000100
00001000
00000100
00020000
00000000
00000000
00000000
00030000
00000000
00000000
00000000
00001000
01000000
00001000
00010000
,
00000100
00001000
00000010
00010000
00000000
00000000
00000000
00000000
00000000
00000000
00000000
00000000
00000000
00000000
00000000
00000000
;
