#TITLE:ZED (REDALiCE Remix);
#SUBTITLE:;
#ARTIST:USAO;
#TITLETRANSLIT:;
#SUBTITLETRANSLIT:;
#ARTISTTRANSLIT:;
#GENRE:;
#CREDIT:;
#MUSIC:ZED (REDALiCE Remix).ogg;
#BANNER:;
#BACKGROUND:ZED (REDALiCE Remix)-bg.png;
#CDTITLE:;
#SAMPLESTART:32.930;
#SAMPLELENGTH:21.927;
#SELECTABLE:YES;
#OFFSET:2.725;
#BPMS:0.000=87.506
,36.000=175.012
,96.000=87.506
,98.000=175.012
,126.000=87.506
,142.000=175.012
,171.000=87.506
,173.000=175.012
,201.000=87.506
,203.000=175.012
,231.000=87.506
,233.000=175.012
,261.000=87.506
;
#STOPS:142.000=1.028;
#BGCHANGES:;
#FGCHANGES:;

//--------------- dance-single - Pandemonium X ----------------
#NOTES:
     dance-single:
     Pandemonium X:
     Beginner:
     5:
     0,0,0,0,0:
0000
0000
0000
0000
,
0000
0000
0000
0000
,
0000
0000
0000
0000
,
0000
0000
0000
0000
,
0000
0000
0000
0000
,
0001
0000
1000
0000
,
0010
0000
0100
0000
,
0001
0000
0010
0000
,
0100
0000
1000
0000
,
0001
0000
0000
0001
0000
0000
0001
0000
,
0000
0001
0000
0000
0001
0000
0000
0000
,
1000
0000
0000
1000
0000
0000
1000
0000
,
0000
1000
0000
0000
1000
0000
0000
0000
,
0010
0000
0000
0010
0000
0000
0010
0000
,
0000
0010
0000
0000
0010
0000
0000
0010
,
0000
0000
0010
0000
0000
0010
0000
0000
,
1001
0000
0000
0000
,
1000
0000
0001
0000
,
0100
0000
0010
0000
,
1000
0000
1000
0000
,
1000
0000
1000
1000
,
0001
0000
0010
0000
,
0001
0000
0100
0000
,
0010
0000
0010
0000
,
1001
0000
0001
0001
2000
0000
0000
0000
,
0000
3000
0002
0000
,
0000
0003
0100
0000
,
0010
0000
1000
0000
,
0001
1000
0100
0100
,
0100
0000
0010
0010
,
0010
0000
0001
0000
,
1000
0000
0000
0000
0110
0000
1000
1000
,
0002
0000
0000
0003
,
2000
0000
0000
3000
,
0020
0000
0000
0030
,
0200
0000
0300
0010
,
0000
0100
0000
0001
,
0000
1000
0000
0100
,
0000
0010
0000
0001
,
0000
1000
1000
0001
,
0000
0100
0000
0010
,
0000
1000
0000
0001
,
0000
1000
0000
0110
,
0001
0001
2000
0000
0000
0000
0000
0000
,
3000
0002
0000
0000
,
0003
0100
0000
0010
,
0000
1000
0000
0001
,
0001
1000
0000
0100
,
0000
0010
0000
0001
,
0000
1000
0000
0001
,
0000
0000
0110
0000
1000
1000
0020
0000
,
0000
0000
0030
0200
,
0000
0000
0000
0000
0300
0000
0000
0001
,
0000
0000
0000
0000
,
0000
0000
0000
0001
,
0000
0000
0000
1000
,
0000
0000
0000
0000
0000
0000
0000
0100
,
0000
0000
0000
1001
,
0010
0010
1002
0000
0000
0000
0000
0000
,
0003
2000
0000
0000
,
3000
0000
0000
0010
0000
0000
0000
0000
,
0000
0000
0000
0000
,
0000
0100
0000
0010
,
0000
1000
0000
0001
,
0000
1000
0000
0100
,
0000
0000
0010
0000
1001
1001
0000
0000
;

//--------------- dance-single - Pandemonium X ----------------
#NOTES:
     dance-single:
     Pandemonium X:
     Easy:
     8:
     0,0,0,0,0:
0000
0000
0000
0000
,
0000
0000
0000
0000
,
0000
0000
0000
0000
,
0001
0000
0000
0001
0000
0000
0000
0000
1000
0000
0000
1000
0000
0000
0000
0000
,
0010
0000
0000
0010
0000
0000
0000
0000
0100
0000
0000
0100
0000
0000
0000
0000
,
0001
0100
0010
1000
,
0100
0000
0010
0000
0100
0000
1000
0001
,
0100
0001
0010
0001
,
1000
0010
0100
0010
,
1000
0001
1000
0001
,
1000
0001
1000
0110
,
0001
1000
0001
1000
,
0001
1000
0001
0110
,
0001
0000
0000
0100
0000
0000
0010
0000
,
0000
1000
0000
0000
0100
0000
0000
0010
,
0000
0000
0001
0000
0000
1000
0000
0000
,
0220
0000
0000
0330
,
0001
0001
1000
0100
,
0010
0100
1000
0001
,
0200
0301
0200
0310
,
0200
0301
0200
0310
,
1001
0110
1000
0001
,
0010
0001
1000
0100
,
0020
0130
0020
0031
,
1100
0000
0001
0001
0100
0000
1001
0000
,
0001
1000
0010
0100
,
0001
0010
0200
1300
,
0200
0310
0200
1300
,
0100
0010
0001
0001
,
1000
0010
0100
0100
,
0010
0100
0002
0013
,
0002
0000
1003
0000
1001
0000
1000
0001
,
0100
0000
0000
0100
0000
0000
0100
0000
0000
0000
0000
0000
0000
0000
0000
0000
,
0010
0000
0000
0010
0000
0000
0010
0000
0000
0000
0000
0000
0000
0000
0000
0000
,
1000
0000
0000
1000
0000
0000
1000
0000
0000
0000
0000
0000
0000
0000
0000
0000
,
0001
0000
0000
0001
0000
0000
0001
0000
1001
0000
0000
0000
1000
0000
0000
0000
,
0010
0100
0001
0010
,
0100
0010
0001
1001
,
0001
1001
1000
1001
,
0001
1000
0001
0100
,
0100
0001
0100
0010
,
1000
0100
0010
0110
,
0100
0110
0010
1001
,
1000
1000
0001
0000
0101
0000
0100
0000
,
0001
0010
0001
1000
,
0100
0110
0100
1100
,
1000
1010
0010
0110
,
0100
0101
0101
0001
,
1000
0100
0010
0100
,
1000
1001
0010
1001
,
0100
0000
1001
0000
0010
0010
1001
0000
,
0001
1000
0010
1000
,
0001
0000
0010
0000
0100
0000
1000
0100
,
1000
0100
0010
0001
,
0100
0010
0100
0001
,
0001
1000
0001
0010
,
0100
0000
0010
0000
0001
0000
0100
0010
,
0100
0010
1000
0001
,
1000
1000
0001
0000
0010
0000
0001
0000
,
0100
0010
1000
0100
,
0010
0000
0001
0100
0001
0000
0100
0000
,
0001
0010
0001
1000
,
0100
0010
0010
0100
,
0100
1000
0010
0100
,
0001
0000
0010
0001
0010
0000
0100
0000
,
1000
0000
0002
0000
1000
1003
0000
0000
;

//--------------- dance-single - Pandemonium X ----------------
#NOTES:
     dance-single:
     Pandemonium X:
     Medium:
     12:
     0,0,0,0,0:
0000
0000
0000
0000
,
0000
0000
0000
0000
,
0000
0000
0000
0000
,
1000
0000
0000
0100
0000
0000
0020
0000
0000
0000
0000
0000
0030
0000
0000
0000
,
0100
0000
0000
1000
0000
0000
0002
0000
0000
0000
0000
0000
1003
0010
1000
0001
,
0020
0000
0000
0000
0001
0000
0000
0000
0100
0000
0000
0000
0031
0010
0100
0010
,
0001
0000
0000
1000
0000
0000
0000
0000
0001
0000
0000
0100
0000
0000
0001
0000
,
2000
0000
0000
0000
0010
0000
0000
0000
0100
0000
0000
0000
3010
1000
0100
1000
,
0001
0000
0000
1000
0000
0000
0000
0000
1200
0000
0001
0000
1300
0000
1001
0000
,
0001
0100
0010
1000
,
0100
0000
0010
0000
0100
1000
0001
0100
,
0010
0100
0001
0010
,
0100
0000
0010
0000
0001
1000
0100
0010
,
0100
0000
0000
1000
0000
0000
0010
0000
,
0000
0100
0000
0000
0001
0000
0000
1000
,
0000
0000
0001
0000
0000
0010
0000
0000
,
2200
0000
0000
3300
,
0011
0101
0001
1000
,
0010
0100
0001
0010
,
0001
0100
0010
0100
0001
0010
0001
0100
,
0010
0100
0001
0010
0100
1000
0001
1000
,
1010
1100
0100
0010
,
0001
0100
0001
1000
,
0001
0100
0010
0100
0001
0010
0001
1000
,
0010
0000
1001
1001
1100
0000
1010
0000
,
1000
0001
0100
0010
,
1000
0000
0100
0000
1000
0010
0100
0010
,
1000
0100
1000
0010
0100
0010
1000
0100
,
0010
0001
1000
0001
0101
0000
0011
0000
,
0010
0100
1000
0010
,
1000
0000
0001
0000
1000
0010
0100
0010
,
1000
0100
1000
0010
0100
0000
1001
0110
,
1000
0000
0000
0100
0000
0000
0020
0000
0000
0000
0000
0000
0000
0000
0000
0000
,
0130
0000
0000
0010
0000
0000
0002
0000
0000
0000
0000
0000
0000
0000
0000
0000
,
1003
0000
0000
0001
0000
0000
0200
0000
0000
0000
0000
0000
0000
0000
0000
0000
,
0310
0000
0000
1000
0000
0000
0001
0000
1001
0000
0000
0000
1200
0000
0000
0000
,
0010
1000
0310
0012
,
1000
0000
0010
0000
1003
0000
0001
1000
,
0010
1000
0001
0010
0001
1000
0010
1000
,
0001
0010
0100
1000
0100
0010
0021
0000
,
0130
0000
2100
0000
3010
0000
0100
1000
,
0100
0001
1000
0000
1001
0000
1000
0001
,
0100
0001
1000
0100
1000
0001
0101
0000
,
1010
1100
0021
0000
0100
0000
0001
0000
,
0130
2100
0001
0100
,
3001
0000
1000
0001
0100
0001
1000
0100
,
1000
0001
0100
0001
1000
0100
0010
0001
,
0010
0100
1200
0000
0310
0000
0012
0000
,
0103
0000
0010
0001
0010
1000
0001
0000
,
1001
0000
0001
1000
0010
1000
0001
0010
,
0001
1000
1010
0000
0101
0011
1000
0000
,
0001
0010
0001
1000
,
0010
0000
1000
0000
0100
0010
0001
0200
,
0310
0010
1000
0001
,
0010
0001
1000
1100
,
1100
0100
0010
0001
,
0100
0000
0010
0000
0100
0000
0001
2000
,
3100
0010
0100
1000
,
1001
1001
0001
0000
0100
0000
0001
0000
,
0010
0100
1000
0100
,
0010
0000
0100
2000
3010
0000
0100
0000
,
0001
0010
0001
1000
,
0010
0100
0001
0010
,
0100
1000
0100
0010
,
0001
0000
1000
0002
0103
0000
0001
0000
,
0010
0000
0200
0000
1000
0010
0300
0000
;

//--------------- dance-single - Pandemonium X ----------------
#NOTES:
     dance-single:
     Pandemonium X:
     Hard:
     16:
     0,0,0,0,0:
0000
0000
0000
0000
,
0000
0000
0000
0000
,
0000
0000
0000
0000
,
0001
0000
0000
0100
0000
0000
0020
0000
0000
0000
0000
0000
0130
0000
0001
0000
,
1000
0000
0000
0000
0000
0000
0100
0000
0000
0000
0000
0000
0020
0000
0000
0000
0000
0000
0000
0000
0000
0000
0000
0000
0130
0010
0001
0000
1000
0000
0010
1000
,
0001
0000
0000
0000
0000
0000
0001
0000
0000
0000
0000
0000
0000
0000
0000
0000
1000
0000
0000
0000
0000
0000
1000
0000
0000
0000
0010
1000
0100
1000
0010
1000
,
0001
0000
0000
0001
0000
0000
0000
0000
1000
0000
0000
1000
0000
0000
0010
0000
,
0100
0000
0000
0000
0000
0000
0100
0000
0000
0000
0000
0000
0000
0000
0000
0000
0010
0000
0000
0000
0000
0000
0010
0000
0000
0000
0100
0001
0010
0001
1000
0001
,
0100
0000
0000
0100
0000
0000
0000
0000
0010
0000
0000
0010
0000
0000
0110
0000
,
0001
0001
1000
0010
0010
1000
0001
0001
,
0010
0100
0100
1000
0100
0001
0100
1000
,
0010
0100
0100
0010
0100
0100
0010
1000
,
1000
0100
0010
0010
0100
1000
0100
0001
,
0100
1000
1000
0100
0010
0010
0001
0010
,
0010
0100
1000
1000
0010
1000
0001
0010
,
0100
1000
0100
1000
0001
0010
0001
0010
0001
0100
0001
0100
0010
1000
0010
1000
,
0004
4000
0000
0000
0000
0000
0000
0000
0000
0000
0000
0000
3003
0000
0000
0000
,
0001
0000
1000
0000
0100
0000
0000
0000
0010
0000
0100
1000
0100
0000
1000
0000
,
0001
0000
0100
0000
0010
0000
0100
0000
0001
0000
0010
0000
0100
1000
0100
1000
,
0001
0010
0100
1000
0001
0000
0001
0010
0100
1000
0001
0000
0001
0010
0100
1000
,
0001
0000
0001
0010
0100
1000
0001
1000
0010
0000
0100
0000
0001
0000
1000
0000
,
0100
0000
0000
0000
0011
0000
0000
0000
0001
0000
0100
0001
0100
0000
0010
0000
,
1000
0000
0100
0000
0001
0000
0100
0000
1000
0000
0010
0000
0100
0001
0100
0001
,
1000
0100
0010
0001
1000
0000
1000
0100
0010
0001
1000
0000
1000
0100
0010
0001
,
1000
0000
0000
0000
0000
0000
0001
0100
0010
0000
0000
0000
1001
0000
0000
0000
1200
0000
0000
0000
0000
0000
0000
0000
0310
0000
0000
0000
0001
0000
0000
0000
,
0100
0010
0100
0001
1000
0001
0010
0100
0010
0000
0001
0000
0100
0000
0010
0000
,
0100
0000
0001
0000
0010
0100
1000
0001
1000
0010
1000
0010
0100
0000
0001
0100
,
0001
0100
0010
0000
1000
0100
1000
0100
0010
0000
0001
0010
0001
0010
0100
1000
,
0010
1000
0100
0010
0002
0000
0100
0000
,
1003
0000
1000
0010
1000
0000
0010
0000
1000
0000
0100
0000
0010
0000
0001
0000
,
0100
0000
0001
0000
1000
0010
1000
0010
0100
0001
0100
0001
0010
0000
0100
1000
,
0100
0000
1000
0000
0010
0000
0000
0000
0100
0000
0001
0000
0100
0000
0001
0000
1000
0000
0000
0000
0000
0000
0001
0010
0100
0000
0000
0000
1100
0000
0000
0000
,
1002
0000
0000
0203
0000
0000
0020
0000
0000
0000
0000
0000
0000
0000
0330
0000
,
0200
0000
0000
0302
0000
0000
2000
0000
0000
0000
0000
0000
0000
0000
0000
3003
,
2000
0000
0000
3200
0000
0000
0020
0000
0000
0000
0000
0000
0330
0000
0000
0000
,
0001
1000
0001
1000
0001
1000
0001
1000
0001
1000
0001
1000
0001
1000
0001
1000
0002
0000
0003
0000
0000
0000
0000
0000
0102
0000
0000
0000
0000
0000
0000
0000
,
1000
0000
0000
0000
0013
0000
0001
1000
0001
0000
1000
0000
0100
0000
1000
0000
,
0001
0000
0100
0000
0001
0000
0010
0000
0100
0010
0100
0010
0100
1000
0010
0100
,
0001
0000
0100
0001
1000
0010
0100
0000
0010
0100
0001
1000
0100
0000
0010
0100
,
1000
0001
1000
0010
0100
0000
0010
0000
0100
0000
0001
0000
1002
0000
0000
0000
,
0010
0000
0000
0000
1003
0000
0001
0100
0001
0000
0100
0000
0010
0000
1000
0000
,
0100
0000
1000
0000
0001
0000
0010
0000
0100
1000
0100
1000
0100
1000
0010
0100
,
0001
0000
0000
0000
0010
0000
0100
0000
1000
0000
0001
0000
0100
0000
0000
0000
0001
0000
1000
0000
0100
0000
0010
0000
0001
0000
0000
0000
0000
0000
0100
0010
,
1000
0000
0011
0000
1200
0000
0000
0000
0310
0000
0000
0000
0001
0000
0010
0100
,
0010
0001
1000
0010
0100
0001
0010
0100
,
0010
0100
0010
0001
1000
0010
1000
0100
0010
0000
0100
0010
0001
0100
0010
0000
,
0100
0001
1000
0010
1000
0000
0100
0010
0001
1000
0010
0100
0001
0000
1000
0000
,
0100
0000
0010
0000
0210
0000
0000
0000
1000
0000
0000
0000
0310
0000
0001
0100
,
0010
0100
0001
1000
0100
1000
0010
1000
,
0001
0100
0001
0100
0001
1000
0010
1000
0100
0000
0010
0001
1000
0100
0010
0000
,
0100
0000
1000
0000
0001
0000
0100
0000
0010
0000
0000
0000
0000
0000
0100
0010
1000
0000
0000
0000
1001
0000
0000
0000
0021
0000
0000
0000
0000
0000
0000
0000
,
0100
0000
0001
0000
0130
1000
1020
0000
,
0100
0000
0000
0000
1030
0000
0001
0000
1000
0100
1000
0100
1000
0000
0001
0000
,
0100
1000
0100
0001
,
1000
0100
0010
0011
,
1100
0000
0000
0000
0101
0000
0001
1000
0010
0000
0100
0000
0001
0000
0010
0000
,
0001
0000
1000
0000
0100
0000
0010
0000
0100
1000
0100
1000
0001
0000
0000
0000
,
1000
0000
0000
0000
0010
0000
0000
0000
0100
0001
0100
0001
0010
0000
0000
0000
,
1001
1001
1200
0000
0010
0000
1000
0000
,
0310
0001
0201
0000
0010
0000
0301
1000
,
0001
0010
0001
0010
0001
0000
1000
0000
0010
0000
0000
0000
0001
0000
0000
0000
,
0010
1000
0001
0010
,
0100
0000
0000
0000
1000
0010
1000
0000
0010
0000
0100
0001
0100
0000
0001
0000
,
0010
0100
0010
0000
0100
1000
0100
0000
0010
0000
0001
0100
0001
0000
1000
0000
,
0001
0010
0001
0010
0100
1000
0100
0000
1000
0010
1000
0000
0010
0100
0010
0000
,
0100
0000
0001
0000
0100
0000
0000
0000
1001
0000
0000
0000
0000
0000
0001
0100
0010
0000
0000
0000
1001
0000
0000
0000
0000
0000
0000
0000
0000
0000
0000
0000
;

//--------------- dance-double - Pandemonium X ----------------
#NOTES:
     dance-double:
     Pandemonium X:
     Easy:
     9:
     0,0,0,0,0:
00000000
00000000
00000000
00000000
,
00000000
00000000
00000000
00000000
,
00000000
00000000
00000000
00000000
,
00001000
00000000
00000000
00001000
00000000
00000000
00000000
00000000
00001000
00000000
00000000
00001000
00000000
00000000
00000000
00000000
,
00010000
00000000
00000000
00010000
00000000
00000000
00000000
00000000
00010000
00000000
00000000
00010000
00000000
00000000
00000000
00000000
,
00000100
00000000
00000000
00001000
00000000
00000000
00000000
00000000
00000010
00000000
00000000
00000100
00000000
00000000
00000000
00000000
,
00000001
00000000
00000000
00001000
00000000
00000000
00000000
00000000
00000100
00000000
00000000
00010000
00000000
00000000
00001000
00000000
,
01000000
00000000
00000000
00010000
00000000
00000000
00000000
00000000
00100000
00000000
00000000
01000000
00000000
00000000
00000000
00000000
,
10000000
00000000
00000000
00100000
00000000
00000000
00000000
00000000
01000000
00000000
00000000
00001000
00000000
00000000
00000000
00000000
,
00010000
00010000
00000100
00000100
,
00001000
00000000
00001000
00000000
00000010
00000100
00000001
00000010
,
00000100
00000100
00001000
00001000
,
00000100
00000000
00000100
00000000
00010000
00001000
01000000
00010000
,
00100000
00000000
00000000
01000000
00000000
00000000
10000000
00000000
,
00000000
00100000
00000000
00000000
01000000
00000000
00000000
00001000
,
00000000
00000000
00010000
00000000
00000000
00000100
00000000
00000000
,
00022000
00000000
00000000
00033000
,
00010000
00010000
00000100
00001000
,
00000010
00000100
00000001
00000010
,
00000200
00001300
00000200
00000310
,
00000200
00000000
00001300
00000000
00000001
00000100
00000010
00001000
,
00000100
00000100
00010000
00001000
,
01000000
00010000
00100000
01000000
,
00200000
00310000
00200000
01300000
,
10010000
00000000
10100000
01010000
00010000
00000000
00100000
00000000
,
00001000
00010000
00000010
00000100
,
00000001
00000010
00000200
00000301
,
00000200
00001300
00000200
00000301
,
00000100
00001000
00001100
00001100
,
00000100
00010000
00001000
01000000
,
00100000
10000000
02000000
03010000
,
02000000
00000000
13000000
00000000
10010000
00000000
01100000
10010000
,
10000000
00000000
00000000
01000000
00000000
00000000
00100000
00000000
00000000
00000000
00000000
00000000
00000000
00000000
00000000
00000000
,
01000000
00000000
00000000
10000000
00000000
00000000
00010000
00000000
00000000
00000000
00000000
00000000
00000000
00000000
00000000
00000000
,
00100000
00000000
00000000
00001000
00000000
00000000
00010000
00000000
00000000
00000000
00000000
00000000
00000000
00000000
00000000
00000000
,
00000100
00000000
00000000
00001000
00000000
00000000
00000010
00000000
00001001
00000000
00000000
00000000
00000001
00000000
00000000
00000000
,
00000100
00001000
00000100
00010000
,
00001000
01000000
00100000
20000000
,
31000000
20000000
30100000
20000000
,
30010000
00000000
00100000
00001000
00010000
00000010
00000100
00000000
,
00001001
00000001
00001000
00000100
,
00010000
00001000
00010000
00000200
,
00001300
00000200
00000310
00000011
,
00001001
00001001
00000001
00000000
00000100
00000000
00000010
00000000
,
00001000
00000100
00010000
00001000
,
01000000
00020000
00130000
00020000
,
10030000
00000000
00020000
00000000
01030000
00000000
00010000
00100000
,
01000000
10000000
00010000
00000000
01100000
00000000
10000000
00000000
,
00100000
01000000
00010000
00100000
,
00001000
00020000
00030100
00020000
,
00031000
00000000
00011000
00000000
00110000
11000000
10010000
00000000
,
10000000
00100000
01000000
00010000
,
00100000
00000000
00001000
00000000
00010000
00000000
00000010
00001000
,
00000010
00000100
00000001
00000010
,
00000001
00001000
00000100
00010000
,
00010000
00001000
00001000
01000000
,
01000000
00000000
00100000
00000000
00100000
00000000
01000000
00010000
,
00100000
01000000
10000000
00010000
,
10010000
10010000
10000000
00000000
00010000
00000000
01000000
00000000
,
00010000
00100000
00001000
00010000
,
00000100
00000000
00001000
00000010
00000100
00000000
00000001
00000000
,
00000010
00000100
00001000
00000100
,
00010000
00001000
00001000
01000000
,
01000000
00100000
00100000
10000000
,
10000000
00010000
00100000
01000000
,
10000000
00000000
10010000
00000000
00110000
11000000
00000000
00000000
;

//--------------- dance-double - Pandemonium X ----------------
#NOTES:
     dance-double:
     Pandemonium X:
     Medium:
     13:
     0,0,0,0,0:
00000000
00000000
00000000
00000000
,
00000000
00000000
00000000
00000000
,
00000000
00000000
00000000
00000000
,
00001000
00000000
00000000
00001000
00000000
00000000
00000000
00000000
00001000
00000000
00000000
00001000
00000000
00000000
00000000
00000000
,
00010000
00000000
00000000
00000000
00000000
00000000
00010000
00000000
00000000
00000000
00000000
00000000
00000000
00000000
00000000
00000000
00010000
00000000
00000000
00000000
00000000
00000000
00010000
00000000
00000100
00000000
00001000
00000000
00000010
00000000
00000100
00000010
,
00000100
00000000
00000000
00000100
00000000
00000000
00000000
00000000
00000010
00000000
00000000
00000010
00000000
00001000
00000100
00010000
,
00001000
00000000
00000000
00001000
00000000
00000000
00000000
00000000
00010000
00000000
00000000
00010000
00000000
00000000
00000100
00000000
,
00010000
00000000
00000000
00010000
00000000
00000000
00000000
00000000
00001000
00000000
00000000
00001000
00000000
01000000
00010000
00100000
,
01000000
00000000
00000000
01000000
00000000
00000000
00000000
00000000
10000000
00000000
00000000
10000000
00000000
00000000
00000000
00000000
,
00010000
01000000
00010000
00100000
,
00001000
00000000
00010000
00000000
00000100
00001000
00000010
00000100
,
00000001
00001000
00000100
00010000
,
00001000
00000000
01000000
00000000
00010000
00100000
01000000
10000000
,
00010000
00000000
00000000
01000000
00000000
00000000
00001000
00000000
,
00000000
00010000
00000000
00000000
00000010
00000000
00000000
00000100
,
00000000
00000000
00000001
00000000
00000000
00000010
00000000
00000000
,
00022000
00000000
00000000
00033000
,
00010100
00001100
00001020
00000130
,
00000010
00000100
00000001
00001000
,
00000100
00010000
00001000
01000000
00010000
00100000
01000000
10000000
,
00010000
10000000
00100000
01000000
00010000
00100000
01000000
10000000
,
10010000
01010000
20010000
31000000
,
00100000
00010000
00001000
00010000
,
00000100
00001000
00000010
00000100
00000001
00000010
00001000
00000100
,
00010100
00000000
00011000
00011000
00120000
00000000
01030000
00000000
,
00100000
10000000
10020000
10030000
,
01000000
00000000
00100000
00010000
01000000
00100000
10000000
00010000
,
00100000
00001000
00010000
00000100
00001000
00000010
00000100
00000001
,
00000010
00000100
00001000
00000100
00020100
00000000
00031000
00000000
,
00010000
00000100
00001020
00000130
,
00000010
00000000
00001000
00000000
00000001
00000010
00000100
00001000
,
00000100
00010000
00001000
01000000
00100000
00000000
10010000
10010000
,
10000000
00000000
00000000
01000000
00000000
00000000
00200000
00000000
00000000
00000000
00000000
00000000
00000000
00000000
00300000
00000000
,
00010000
00000000
00000000
00001000
00000000
00000000
00000200
00000000
00000000
00000000
00000000
00000000
00000300
00000000
00000000
00000000
,
00000010
00000000
00000000
00000001
00000000
00000000
00002000
00000000
00000000
00000000
00000000
00000000
00003000
00000000
00000000
00000000
,
00000010
00000000
00000000
00010000
00000000
00000000
00002000
00000000
00013000
00000000
00000000
00000000
00010100
00000000
00000000
00000000
,
00011000
01001000
01100000
10010000
,
10100000
00000000
11000000
00000000
02100000
00000000
13000000
00100000
,
01000000
00010000
00100000
00001000
00010000
00000010
00000100
00000001
,
00000010
00000100
00001000
00000100
00010000
00001000
01001000
00000000
,
01100000
10010000
11000000
00110000
,
11000000
00000000
10010000
00000000
02010000
00000000
03001000
00010000
,
00000010
00000100
00000001
00000010
00000100
00001000
00010100
00000000
,
00011000
00011000
02001000
00000000
03100000
00000000
10100000
00000000
,
11000000
01100000
00110000
00101000
,
00011000
00000000
00000100
00001000
00000010
00000100
00000001
00000010
,
00000100
00001000
00000100
00010000
00001000
00010000
00001000
01000000
,
00010000
00100000
01100000
00000000
11000000
00000000
01100000
00000000
,
00110000
01010000
10100000
10010000
,
00110000
00000000
10000000
00010000
01000000
00010000
00100000
00001000
,
00010000
00000010
00001010
00000000
00001001
00001001
00000001
00000000
,
00000100
00000010
00001000
00000100
,
00010000
00000000
00001000
00000000
01000000
00000000
00100000
10000000
,
01000000
00100000
00010000
00001000
,
00000100
00000010
00000001
00001000
,
00001000
00000001
00000100
00000010
,
00000010
00000000
00000100
00000000
00000001
00000000
00000001
00000100
,
00001000
00000100
00000001
00001001
,
00001100
00001100
00000100
00000000
00010000
00000000
00001000
00000000
,
01000000
00100000
10000000
00010000
,
00100000
00000000
10000000
01000000
00010000
00000000
01000000
00000000
,
10000000
00100000
01000000
00010000
,
00100000
00101000
00101000
00011000
,
00011000
00010100
00010100
00001100
,
00001100
00001000
00000010
00000100
,
00000010
00010000
00002000
00000000
00013000
00011000
00000000
00000000
;

//--------------- dance-double - Pandemonium X ----------------
#NOTES:
     dance-double:
     Pandemonium X:
     Hard:
     16:
     0,0,0,0,0:
00000000
00000000
00000000
00000000
,
00000000
00000000
00000000
00000000
,
00000000
00000000
00000000
00000000
,
00001000
00000000
00000000
00000000
00000000
00000000
00001000
00000000
00000000
00000000
00000000
00000000
00000000
00000000
00000000
00000000
00001000
00000000
00000000
00000000
00000000
00000000
00001000
00000000
00000000
00000000
01000000
00010000
00100000
00001000
00010000
00000100
,
00001000
00000000
00000000
00000000
00000000
00000000
00001000
00000000
00000000
00000000
00000000
00000000
00000000
00000000
00000000
00000000
00001000
00000000
00000000
00000000
00000000
00000000
00001000
00000000
00000010
00000100
00000010
00000000
00000100
00000000
00000100
00000001
,
00000010
00000000
00000000
00000000
00000000
00000000
00000010
00000000
00000000
00000000
00000000
00000000
00000000
00000000
00000000
00000000
00000100
00000000
00000000
00000000
00000000
00000000
00000100
00000000
00000000
00000000
00000010
00000001
00000100
00000010
00001000
00000100
,
00010000
00000000
00000000
00010000
00000000
00000000
00000000
00000000
00010000
00000000
00000000
00010000
00000000
00000000
00001000
00000000
,
01000000
00000000
00000000
00000000
00000000
00000000
01000000
00000000
00000000
00000000
00000000
00000000
00000000
00000000
00000000
00000000
01000000
00000000
00000000
00000000
00000000
00000000
01000000
00000000
00000000
00000000
00100000
10000000
00010000
00100000
01000000
10000000
,
00010000
00000000
00000000
00010000
00000000
00000000
00000000
00000000
00010000
00000000
00000000
00010000
00000000
00000000
00000000
00000000
,
10000000
01000000
01000000
00100000
00010000
00010000
00100000
00001000
,
00001000
00010000
00000100
00001000
00001000
00000010
00000001
00000010
,
00001000
00001000
00000100
00000010
00000010
00000001
00001000
00001000
,
00000100
00010000
00010000
00001000
01000000
00100000
00010000
00100000
,
10000000
01000000
10000000
01000000
00100000
00010000
00100000
00001000
,
00100000
00001000
00010000
00000100
00010000
00000100
00001000
00000010
,
00001000
00000001
00000010
00000100
00001000
00100000
00010000
01000000
,
00100000
00000000
10000000
00000000
01000000
00100000
01000000
00100000
02000000
00000000
00000000
00000000
03000000
00000000
00000000
00000000
,
00110000
00000000
00000000
00000000
10010000
00000000
00000000
00000000
01010000
00000000
00010000
01000000
00010000
00000000
00100000
00000000
,
00001000
00000000
00010000
00000000
00000010
00000000
00000100
00000000
00000001
00000000
00000010
00000000
00000100
00001000
00000100
00001000
,
00000100
00010000
00001000
01000000
00010000
00000000
00100000
01000000
10000000
00010000
01000000
00000000
00010000
00100000
00001000
00010000
,
00000100
00000000
00001000
00000010
00000100
00000010
00001000
00000001
00000010
00000000
00001000
00000000
00000010
00000000
00000001
00000000
,
00000101
00000000
00000000
00000000
00001100
00000000
00000000
00000000
00001001
00000000
00001000
00000010
00001000
00000000
00000100
00000000
,
00000010
00000000
00000100
00000000
00001000
00000000
00000001
00000000
00000100
00000000
00000010
00000000
00001000
00000100
00001000
00000100
,
00001000
00000100
00010000
00001000
01000000
00000000
00010000
00100000
01000000
10000000
00010000
00000000
01000000
00100000
10000000
00010000
,
00100000
00000000
00000000
00000000
00000000
00000000
00010000
00100000
00001000
00000000
00000000
00000000
00001010
00000000
00000000
00000000
00000201
00000000
00000000
00000000
00000000
00000000
00000000
00000000
00000310
00000000
00000000
00000000
00000000
00000000
00000000
00000000
,
00001000
00000000
00000100
00000010
00000100
00000010
00000001
00000000
00001000
00000000
00000010
00000000
00001000
00000000
00000100
00000000
,
00010000
00000000
00001000
00000000
01000000
00010000
00100000
01000000
10000000
00100000
01000000
00010000
00100000
00000000
00010000
00100000
,
00001000
00010000
00000010
00000000
00000100
00000001
00000010
00000100
00001000
00000000
00000100
00000010
00000001
00000010
00000100
00001000
,
00000100
00010000
00001000
01000000
01010000
00000000
11000000
00000000
,
10010000
00000000
10000000
01000000
10000000
00000000
00010000
00000000
00100000
00000000
00100000
00000000
01000000
00000000
10000000
00000000
,
00010000
00000000
01000000
00000000
00100000
01000000
00010000
00100000
00001000
00010000
00000100
00001000
00000010
00000000
00000100
00000010
,
00001000
00000000
00000001
00000000
00000010
00000000
00000000
00000000
00000100
00000000
00001000
00000000
00000100
00000000
00010000
00000000
00001000
00000000
00000000
00000000
00000000
00000000
00010000
00001000
01000000
00000000
00000000
00000000
10100000
00000000
00000000
00000000
,
01010000
00000000
00000000
00010000
00100000
00000000
01000000
00000000
10000000
00000000
00010000
00000000
01100000
00000000
00000000
00000000
,
01000000
00000000
00000000
00010000
00100000
00000000
00001000
00000000
00010000
00000000
00000100
00000000
00001100
00000000
00000000
00000000
,
00010000
00000000
00000000
00000010
00000100
00000000
00000001
00000000
00000010
00000000
00000100
00000000
00001100
00000000
00000000
00000000
,
00000100
00010000
00000100
00010000
00001000
00010000
00001000
01000000
00001000
01000000
00100000
10000000
00010000
00100000
01000000
10000000
00010000
00000000
00000000
00000000
00000000
00000000
00000000
00000000
10000000
00000000
00000000
00000000
10000000
00000000
00000000
00000000
,
01000000
00000000
00000000
00000000
00100000
00000000
00100000
01000000
10000000
00000000
10000000
00000000
00010000
00000000
01000000
00000000
,
00100000
00000000
10000000
00000000
00010000
00000000
00100000
00000000
00001000
00010000
00000100
00001000
00000010
00001000
00000100
00010000
,
00001000
00000000
00010000
00001000
01000000
00010000
10000000
00000000
01000000
00100000
00001000
00010000
00000100
00000000
00001000
00000010
,
00010000
00000010
00001000
00000001
00000010
00000000
00001000
00000000
00000010
00000000
00000001
00000000
00000101
00000000
00000000
00000000
,
00001010
00000000
00000000
00000000
00000101
00000000
00000001
00000100
00000010
00000000
00001000
00000000
00000100
00000000
00000100
00000000
,
00010000
00000000
00001000
00000000
01000000
00000000
00010000
00000000
00100000
01000000
10000000
00010000
10000000
00010000
00100000
00001000
,
00010000
00000000
00000000
00000000
00000100
00000000
00001000
00000000
00000010
00000000
00001000
00000000
00000001
00000000
00000000
00000000
00001000
00000000
00000010
00000000
00010000
00000000
00001000
00000000
00010000
00000000
00000000
00000000
00000000
00000000
00001000
00100000
,
00010000
00000000
00100010
00000000
00012000
00000000
00000000
00000000
01003000
00000000
01000000
00000000
00010000
00000000
00100000
01000000
,
00100000
00010000
10000000
00000000
00010000
00000000
10000000
00000000
10000000
00000000
01000000
00000000
00100000
00000000
00001000
00000000
,
00010000
00000100
00001000
00000010
00000100
00000010
00010000
00001000
00100000
00000000
00010000
00100000
01000000
10000000
00010000
00000000
,
00100000
00001000
00010000
00000010
00001000
00000000
00000010
00001000
00000001
00001000
00000100
00010000
00001000
00000000
00100000
00000000
,
00010000
00000000
10000000
00000000
11000000
00000000
00000000
00000000
00110000
00000000
00000000
00000000
11000000
00000000
01000000
00100000
,
00010000
00100000
00001000
00010000
00000010
00000100
00001000
00000100
,
00000001
00000100
00000010
00001000
00000100
00010000
00001000
01000000
00010000
00000000
00100000
01000000
10000000
00010000
01000000
00000000
,
00010000
00000000
00100000
00000000
00001000
00000000
00010000
00000000
00001000
00000000
00000000
00000000
00000000
00000000
00010000
00000100
00001000
00000000
00000000
00000000
01000100
00000000
00000000
00000000
00012000
00000000
00000000
00000000
00000000
00000000
00000000
00000000
,
00010000
00100000
00013000
00021000
,
00000100
00000000
00000000
00000000
00001000
00000000
00000000
00000000
00030100
00001000
00000100
00001000
00000100
00000000
00002000
00000000
,
00003010
00000100
00000001
00000010
,
00000001
00001000
00000100
00001100
,
00010100
00000000
00000000
00000000
00011000
00000000
00001000
01000000
00001000
00000000
01000000
00000000
00010000
00000000
00100000
00000000
,
10000000
00000000
00100000
00000000
00010000
00000000
10000000
00000000
00100000
01000000
00100000
01000000
00100000
00000000
20000000
00000000
,
31000000
00100000
01000000
00110000
,
00011000
00011000
00010200
00000000
00001000
00000000
00010000
00000000
,
00001300
00012000
00100000
00010000
,
00103000
00010000
00100000
00010000
00100000
00000000
02000000
00000000
13000000
00000000
00000000
00000000
00010000
00000000
00000000
00000000
,
01000000
00100000
10000000
00010000
,
00100000
00011000
00001100
00001010
,
00000101
00000011
00000110
00001100
,
00000100
00010000
00000100
00010000
00001000
00000000
00020000
00000000
00030010
00000000
00000000
00000000
00000100
00000000
00000000
00000000
,
00001000
00000000
00000000
00000000
00000000
00000000
00000000
00000000
00001001
00000000
00000000
00000000
00000000
00000000
00000010
00001000
00000100
00000000
00000000
00000000
00011000
00000000
00000000
00000000
00000000
00000000
00000000
00000000
00000000
00000000
00000000
00000000
;
