#TITLE:White Lovers;
#SUBTITLE:;
#ARTIST:新谷さなえ;
#TITLETRANSLIT:;
#SUBTITLETRANSLIT:;
#ARTISTTRANSLIT:;
#GENRE:;
#CREDIT:;
#MUSIC:White Lovers.ogg;
#BANNER:;
#BACKGROUND:White Lovers-bg.png;
#CDTITLE:;
#SAMPLESTART:65.482;
#SAMPLELENGTH:15.833;
#SELECTABLE:YES;
#OFFSET:1.082;
#BPMS:0.000=125.294;
#STOPS:;
#BGCHANGES:;
#FGCHANGES:;

//--------------- dance-single - Pandemonium X ----------------
#NOTES:
     dance-single:
     Pandemonium X:
     Beginner:
     4:
     0,0,0,0,0:
0000
0000
0000
0000
,
0000
0000
0000
0000
,
0000
0000
0000
0000
,
0000
0000
0000
0000
,
0000
0000
0000
0000
,
0001
0000
1000
0000
,
0010
0000
0100
0000
,
0002
0000
0000
0000
,
0003
0000
0000
0000
,
1000
0000
0000
0000
,
0001
0000
0000
0000
,
1000
0000
0001
0000
,
0100
0100
0100
0000
,
0010
0000
0000
0000
,
1000
0000
0000
0000
,
1001
0000
0110
0000
,
1001
0000
0000
0000
,
0001
0000
0000
0000
,
0100
0000
0000
0000
,
0001
0000
0000
0000
,
1000
0000
0000
0000
,
0100
0000
0000
0000
,
0010
0000
0000
0000
,
0001
0000
0000
0000
,
1000
0000
0001
0000
,
0100
0000
0000
0000
,
0010
0000
0000
0000
,
1000
0000
0000
0000
,
0001
0000
1000
0000
,
0100
0000
0000
0000
,
0010
0000
0000
0000
,
0001
0000
0000
0000
,
1000
0000
0000
0000
,
0001
0000
1000
0000
,
0110
0000
0000
0100
,
1001
0000
0001
0000
,
1000
1000
1000
0000
,
0001
0000
1000
0000
,
0010
0010
0010
0000
,
0100
1001
0001
0000
,
1000
0000
0010
0010
,
0010
0000
0100
0000
,
0001
0001
0001
0000
,
0100
1001
0001
0000
,
1000
0000
0001
0000
,
0100
0000
0010
0000
,
1000
1000
0001
0001
,
0000
0110
1000
0000
,
0001
0000
1000
0001
,
0100
0000
0010
0000
,
0000
0000
0000
0000
,
0010
0000
0000
0010
0000
0000
0000
0000
;

//--------------- dance-single - Pandemonium X ----------------
#NOTES:
     dance-single:
     Pandemonium X:
     Easy:
     6:
     0,0,0,0,0:
0000
0000
0000
0000
,
0000
0000
0000
0000
,
0000
0000
0000
0000
,
0000
0000
0000
0000
,
0000
0000
0000
0000
,
0001
0000
1000
0000
,
0010
0000
0100
0010
,
2000
0000
0002
0000
,
0000
0000
3003
0000
,
0110
0000
0000
0001
0000
0000
0100
0000
,
0010
0000
0000
1000
0000
0000
0010
0000
,
0100
0001
0100
0010
,
1000
1000
0001
0001
,
1001
0000
0000
1000
0000
0000
0100
0000
,
0010
0000
0000
0010
0000
0000
0100
0000
,
0110
0000
1001
0000
,
0110
0000
0000
0000
,
0001
0000
0000
0001
0000
0000
0000
0000
,
1000
0000
0000
1000
0000
0000
0000
0000
,
0010
0000
0000
0100
0000
0100
0000
0000
,
0010
0000
0000
1000
0000
1000
0000
0000
,
0001
0000
0000
0010
0000
0000
0001
0000
,
1000
0000
0000
0100
0000
0000
1000
0000
,
0010
0000
0000
0100
0000
0100
0000
0000
,
0010
0000
0000
1000
0001
0000
0000
0000
,
2000
0000
0000
3000
0000
0000
0000
0000
,
0020
0000
0000
0030
0000
0000
0000
0000
,
0200
0000
0000
0300
0000
0000
0000
0000
,
0002
0000
0000
0003
1001
0000
0110
0000
,
0002
0000
0000
0003
0000
0000
0000
0000
,
0020
0000
0000
0030
0000
0000
0100
0000
,
2000
0000
0000
0000
0000
3000
0000
0000
,
0002
0000
0000
0000
0000
0003
0000
0000
,
0110
0000
1001
0000
,
0220
0000
0330
1000
,
0110
0000
0001
0000
,
1000
1000
0001
0001
,
0010
0000
0100
0000
,
0010
0100
1000
0010
,
0100
1001
0001
0000
,
1000
0000
0100
1000
,
0001
0000
0100
0000
,
0010
0000
0010
0000
0010
0100
0010
0000
,
0100
1001
1000
0000
,
0001
0010
0001
1000
,
0100
0000
1000
0000
,
0010
1000
0010
0100
,
0010
1001
0001
0000
,
1000
0000
0100
1000
,
0010
0000
0100
0000
,
0001
0100
0010
1000
,
0001
0000
0000
0220
0000
0000
0000
0000
,
0000
0330
0000
0000
;

//--------------- dance-single - Pandemonium X ----------------
#NOTES:
     dance-single:
     Pandemonium X:
     Medium:
     9:
     0,0,0,0,0:
0000
0000
0000
0000
,
0000
0000
0000
0000
,
0000
0000
0000
0000
,
0000
0000
0000
0000
,
0000
0000
0000
0000
,
0001
0000
0000
1000
0100
0000
0000
1000
,
0010
0000
0100
0010
,
2000
0000
0002
0000
,
0000
0000
0000
3003
,
0001
0001
0100
0020
0000
0000
0130
0010
,
1000
1000
1000
0002
0000
0000
0013
0100
,
0010
0010
0010
0001
0010
0100
0010
0001
,
2000
3010
0200
0301
,
1001
1000
0001
2000
0000
0000
3100
0010
,
0100
0100
0100
0020
0000
0000
0130
1000
,
0010
0010
0010
0100
0001
1000
0100
0010
,
0200
0000
0000
0300
,
1000
0000
0001
0100
0000
0001
0010
0000
,
0100
0000
0010
0001
0000
1000
0001
0001
,
1000
0000
0010
0100
0000
0001
0000
0000
,
0010
0000
0100
0010
0000
0001
0000
0000
,
1000
0000
0010
0010
0000
0100
0001
0000
,
1000
0100
0010
0001
0000
1000
0001
0000
,
0100
0000
0010
0100
0000
0001
0000
0000
,
1000
0100
0001
0000
0001
0100
1000
0000
,
0001
0100
0010
0100
0000
0000
0000
0000
,
0010
1000
0100
0010
0000
0000
0000
0000
,
0100
0010
0001
0100
0000
0000
0000
0010
,
0100
0010
1000
0001
1000
0100
0010
0001
,
1000
0001
0100
0010
0000
0000
0000
0010
,
0100
0000
0001
0000
1000
0000
0100
0000
0000
0000
0010
0000
0000
0010
0000
0000
,
0100
0100
1000
0010
0000
0110
0000
0010
,
0100
0100
0001
0010
0000
0110
0000
0000
,
2100
3010
0102
0013
,
2002
0000
3003
0010
,
1001
0000
0000
0001
0100
0000
0000
0001
,
2000
3200
0302
0203
,
2300
0000
0000
0001
3001
0000
0000
0100
,
0020
1030
0020
0130
,
0001
0000
1001
1000
0001
0000
0000
0001
,
0010
0000
0000
0000
0000
0000
0000
0000
0100
0000
0000
0010
0000
0000
0001
0000
,
0200
0000
0000
0010
0020
0000
0300
0000
,
0130
0000
0000
0000
0001
0000
0000
0000
1000
0000
0001
0000
1000
0001
0000
0000
,
0100
0000
1020
0000
0130
0000
0000
0010
,
2000
3200
0302
0203
,
2300
0000
0000
0001
3001
0000
0000
0100
,
0002
0023
2030
3020
,
0031
0000
1100
0100
0010
0000
0100
1000
,
0010
0000
0000
0000
0000
0000
0000
0000
0100
0000
0000
0001
0000
0000
1000
0000
,
0200
0000
0000
0010
0020
0000
0330
0000
,
0002
0103
0020
1030
,
1001
0000
0000
0220
0000
0000
0000
0000
,
0000
0330
0000
0000
;

//--------------- dance-single - Pandemonium X ----------------
#NOTES:
     dance-single:
     Pandemonium X:
     Hard:
     11:
     0,0,0,0,0:
0000
0000
0000
0000
,
0000
0000
0000
0000
,
0000
0000
0000
0000
0000
0000
0000
0100
,
1001
0000
0000
0000
,
0101
0000
0000
0000
1000
0000
0000
0000
0100
0000
0000
0010
0100
0000
1000
0000
,
0001
0000
0000
0000
0000
0000
0100
0001
0100
0000
0000
0000
0000
0000
0010
1000
,
0010
0000
0100
0001
,
0020
0000
0200
0000
,
0000
0000
0330
0000
,
1001
0001
0010
0200
0000
0300
0010
0100
,
1000
0100
1000
0100
1000
0000
0020
0000
0000
0000
0030
0000
0010
0000
0100
0000
,
0001
0010
0001
0010
0001
0000
0010
0000
1000
0000
0010
0000
0001
0000
0100
0000
,
0020
1030
0002
1003
,
0100
0010
0100
0010
0100
0000
2000
0000
0000
0000
3000
0000
0010
0000
1000
0000
,
0001
0100
0001
0100
0001
0000
0020
0000
0000
0000
0030
0000
0100
0000
0100
0000
,
1000
0010
1000
0010
1000
0000
0001
0000
1001
0000
0001
0000
0010
0000
0100
0000
,
2100
0001
0100
3001
,
1100
0100
1000
0010
0000
0100
0010
1000
,
0001
0001
0010
0001
0000
0010
0001
0100
,
0010
0000
1000
1000
0000
0002
0000
0000
,
0013
0000
0100
0010
0000
0100
0000
0000
,
0100
0000
0010
0001
0000
0010
0001
1000
,
0001
0100
1000
0100
0000
0010
0100
0001
,
1000
0000
0100
0010
0000
0200
0000
0000
,
1300
0000
0100
0000
0010
0100
0010
0100
0000
0010
0000
0010
0000
0010
0001
0000
,
1000
0010
0010
0001
0000
0000
0000
0001
,
0010
0010
1000
0001
0000
0000
0000
1000
,
0100
0100
0001
1000
0000
0000
0000
0001
,
0100
0000
0100
0000
1000
0000
0001
1000
0010
0100
0010
1000
0100
0010
0001
0000
,
1000
0010
0010
0001
0000
0000
0000
0001
,
0010
0000
0010
0000
1000
0000
0001
0000
0000
0000
1000
0000
0000
0100
0000
0000
,
0010
0010
0100
1000
0000
0011
0000
0001
,
0100
0100
0010
0100
0000
1010
0000
0000
,
2001
0000
0000
0100
0000
0000
3001
0000
1002
0000
0000
0000
0013
0000
0000
0000
,
0220
0000
0330
1000
,
1001
0000
0000
0000
1100
0000
1000
0000
0010
0000
0000
0000
0000
0000
0100
0001
,
0100
0000
0001
0000
0000
1000
0000
0000
0100
0000
0000
0010
0000
0000
0100
0000
,
1000
0000
0000
0000
0001
0000
1000
0010
1000
0000
0000
0000
0010
0000
0100
0001
,
0020
0230
2300
3002
,
1003
0000
0011
0001
0100
0000
0000
0010
,
1000
0000
0000
0000
0000
0000
0000
0000
0010
0000
0000
0100
0000
0000
0001
0000
,
2000
0000
0000
0001
0002
0000
3003
0000
,
0101
0000
0000
0000
0011
0000
0000
0000
0110
0000
0010
0000
0010
0100
0000
0000
,
1000
0000
0000
0000
0011
0000
0010
0100
1000
0000
0000
0000
0000
0000
0001
1000
,
0010
0000
0100
0000
0000
0010
0000
0000
1000
0000
0000
0001
0000
0000
0010
0000
,
0100
0000
0000
0000
0000
0000
0010
0001
1000
0000
0000
0000
0000
0000
0001
0100
,
0020
1030
0002
0103
,
0010
0000
0000
0000
1001
0000
1000
0100
0010
0000
0000
0000
0000
0000
0100
0000
,
1000
0000
0000
0000
0000
0000
0000
0000
0100
0000
0000
1000
0000
0000
0010
0000
,
0200
0000
0000
0010
0020
0000
0330
0000
,
1001
0101
1010
1001
,
0010
0000
0000
2002
0000
0000
0000
0000
,
0000
3003
0000
0000
;

//--------------- dance-double - Pandemonium X ----------------
#NOTES:
     dance-double:
     Pandemonium X:
     Easy:
     6:
     0,0,0,0,0:
00000000
00000000
00000000
00000000
,
00000000
00000000
00000000
00000000
,
00000000
00000000
00000000
00000000
,
00000000
00000000
00000000
00000000
,
00000000
00000000
00000000
00000000
,
00001000
00000000
00010000
00000000
,
00000100
00000000
00001000
00000010
,
00002000
00000000
00000002
00000000
,
00000000
00000000
00003003
00000000
,
00001001
00000000
00000000
00000002
00000000
00000000
00000103
00000000
,
00000001
00000000
00000000
00002000
00000000
00000000
00003100
00000000
,
00010000
00001000
01000000
00100000
,
10000000
01000000
00010000
01000000
,
10000000
00000000
00000000
00200000
00000000
00000000
01300000
00000000
,
00010000
00000000
00000000
00200000
00000000
00000000
00310000
00000000
,
00110000
00000000
00011000
00000000
,
00001010
00000000
00000000
00000000
,
00000010
00000000
00000000
00000010
00000000
00000000
00000000
00000000
,
00000100
00000000
00000000
00000100
00000000
00000000
00000000
00000000
,
00000001
00000000
00000000
00001000
00000000
00001000
00000000
00000000
,
00000100
00000000
00000000
00010000
00000000
00010000
00000000
00000000
,
00001000
00000000
00000000
00100000
00000000
00000000
00000000
00000000
,
00010000
00000000
00000000
10000000
00000000
00000000
00000000
00000000
,
01000000
00000000
00000000
00100000
00000000
00100000
00000000
00000000
,
01000000
00000000
00000000
10000000
00010000
00000000
00000000
00000000
,
01000000
00010000
00100000
00000000
,
00010000
00100000
00001000
00000000
,
00010000
00000100
00001000
00000000
,
00000010
00000100
00000002
00000000
,
00001003
00000100
00010000
00000000
,
00001000
01000000
00100000
01000000
,
00010000
00100000
01000000
00000000
,
00100000
01000000
10000000
00000000
,
10010000
00000000
01100000
00000000
,
20020000
00000000
30030000
10000000
,
00110000
00000000
00100000
00000000
,
00001000
00010000
00000100
00001000
,
00000010
00000000
00000100
00000000
,
00000001
00000100
00001000
00000100
,
00000001
00001010
00001000
00000000
,
00000100
00000000
00010000
00001000
,
01000000
00000000
00000000
00100000
01000000
00000000
00000000
00000000
,
00010000
00100000
01000000
10000000
,
00010000
00110000
00100000
00000000
,
00001000
00010000
00000100
00001000
,
00000010
00000000
00000100
00000000
,
00000001
00000010
00000100
00001000
,
00000100
00011000
00001000
00000000
,
01000000
00000000
00100000
01000000
,
00010000
00000000
00000000
00100000
01000000
00000000
00000000
00000000
,
00100000
00010000
00001000
00000100
,
00000010
00000000
00000000
00001001
00000000
00000000
00000000
00000000
;

//--------------- dance-double - Pandemonium X ----------------
#NOTES:
     dance-double:
     Pandemonium X:
     Medium:
     8:
     0,0,0,0,0:
00000000
00000000
00000000
00000000
,
00000000
00000000
00000000
00000000
,
00000000
00000000
00000000
00000000
,
00000000
00000000
00000000
00000000
,
00000000
00000000
00000000
00000000
,
00100000
00000000
00001000
00000000
,
00010000
00000000
00000010
00010000
,
00002000
00000000
00010000
00000000
,
00000000
00000000
00000000
00003000
,
00010100
00000000
00000100
00001000
00000000
00000000
00000100
00000000
,
00000010
00000000
00000001
00000100
00000000
00000000
00000010
00000000
,
00001000
00000000
00000100
00010000
00001000
00000000
01000000
00000000
,
01100000
01100000
10010000
10010000
,
11000000
00000000
10000000
01000000
00000000
00000000
00100000
00000000
,
00010000
00000000
01000000
00001000
00000000
00000000
00010000
00010000
,
00010100
00000000
00001100
00000000
,
00000011
00000000
00000000
00000000
,
00000001
00000100
00000010
00001000
00000000
00000000
00000000
00000000
,
00000100
00010000
00001000
01000000
00000000
00000000
00000000
00000000
,
00100000
00000000
01000000
00010000
00000000
00010000
00000000
00000000
,
10000000
00000000
01000000
00100000
00000000
01000000
00000000
00000000
,
10000000
00000000
00010000
00100000
00000000
00020000
00000000
00130000
,
00001000
00100000
00001000
00010000
00000000
00000100
00001000
00000010
,
00000100
00000000
00000010
00001000
00000000
00000100
00000000
00000000
,
00010000
00001000
00001000
00000000
00010000
00000100
00000100
00000000
,
00001000
00000010
00010000
00001000
00000000
00000000
00000000
00010000
,
00001000
01000000
00100000
10000000
00000000
00000000
00000000
01000000
,
00100000
00001000
00010000
00000100
00000000
00000000
00000000
00001000
,
00000010
00000100
00000001
00000010
00000000
00000000
00000000
00000000
,
00000100
00001000
00000100
00010000
00000000
00000000
00000000
00001000
,
01000000
00000000
00100000
00000000
10000000
00000000
01000000
00000000
00000000
00000000
00100000
00000000
00000000
00100000
00000000
00000000
,
00100000
00001000
00010000
00000100
00000000
00001000
00000000
00001000
,
00000100
00000010
00000001
00000100
00000000
00000100
00000000
00000000
,
00000010
00000000
00000000
00000010
00000000
00000000
00000010
00000000
00010000
00000000
00000000
00000000
00002000
00000000
00000000
00000000
,
00020000
00000000
00033000
00001000
,
00110000
00000000
00010000
01000000
00100000
00000000
01000000
00100000
,
10000000
10000000
00010000
00010000
,
10000000
00000000
01000000
10000000
00100000
00000000
01000000
00010000
,
00200000
00301000
00020000
00030010
,
00000100
00000000
00001001
00000001
00001000
00000000
00000100
00001000
,
00000100
00000000
00000000
00000000
00000000
00000000
00000000
00000000
00010000
00000000
00000000
00010000
00000000
00000000
00001000
00000000
,
01000000
00000000
00000000
00100000
00100000
00000000
00000000
00000000
,
01000000
00000000
00000000
00000000
00010000
00000000
00000000
00000000
00100000
00000000
01000000
00000000
10000000
00010000
00000000
00000000
,
10000000
00000000
01010000
00010000
00100000
00000000
00000000
01000000
,
00100000
00001000
00010000
00000010
,
00000100
00000000
00000000
00000001
00000010
00000000
00000000
00000100
,
00000020
00000031
00000200
00000310
,
00001000
00000000
00001100
00000100
00010000
00000000
00000000
00001000
,
01000000
00000000
00000000
00000000
00000000
00000000
00000000
00000000
00100000
00000000
00000000
00100000
00000000
00000000
00100000
00000000
,
01000000
00000000
00000000
00010000
00010000
00000000
00000000
00000000
,
00200000
00301000
00020000
00030010
,
00000100
00000000
00000000
00002002
00000000
00000000
00000000
00000000
,
00000000
00003003
00000000
00000000
;

//--------------- dance-double - Pandemonium X ----------------
#NOTES:
     dance-double:
     Pandemonium X:
     Hard:
     11:
     0,0,0,0,0:
00000000
00000000
00000000
00000000
,
00000000
00000000
00000000
00000000
,
00000000
00000000
00000000
00000000
,
00011000
00000000
00000000
00000000
,
00001100
00001100
01010000
01010000
,
00011000
00000000
00000000
00010000
00000010
00000000
00000000
00000100
,
00000001
00000000
00000100
00001000
,
00020000
00000000
00002000
00000000
,
00000000
00000000
00033000
00000000
,
01001000
01000000
00010000
02000000
00000000
03000000
00100000
00100000
,
10000000
00010000
10000000
00010000
00100000
00000000
00002000
00000000
00000000
00000000
00003000
00000000
00010000
00000000
00010000
00000000
,
00000100
00001000
00000100
00001000
00000100
00000000
00000001
00000000
00000100
00000000
00001000
00000000
00000010
00000000
00010000
00000000
,
00002000
02003000
03002000
00023000
,
00030100
00001000
00000100
00001000
00000100
00000000
00002000
00000000
00000000
00000000
00003000
00000000
00000010
00000000
00000100
00000000
,
00000001
00001000
00000001
00001000
00000001
00000000
00000020
00000000
00000000
00000000
00000030
00000000
00000100
00000000
00000100
00000000
,
00001000
00000100
00001000
00000100
00001000
00000000
00000100
00000000
00010000
00000000
00001000
00000000
01000000
00000000
00100000
00000000
,
20000000
01000000
00100000
30010000
,
10000000
10000000
00010000
00100000
00000000
01000000
00100000
00001000
,
00010000
00010000
00000100
00001000
00000000
00000010
00000100
00000100
,
00000010
00000000
00001000
00000100
00000000
00010000
00000000
00000000
,
00001000
00000000
01000000
00100000
00000000
10000000
00000000
00000000
,
01000000
00000000
00100000
00010000
00000000
00100000
00010000
00001000
,
00000100
00000010
00000001
00001000
00000000
00000010
00000100
00001000
,
00020000
00000000
00000100
00000100
00000000
00030100
00000000
00000000
,
00001000
00000000
00000010
00000000
00000010
00000100
00000010
00000100
00000000
00000010
00001000
00000000
00000100
00010000
00001000
00000000
,
00010000
00001000
01000000
00100000
00000000
00000000
00000000
00100000
,
01000000
00010000
10000000
01000000
00000000
00000000
00000000
01000000
,
00100000
00000000
00001000
00000000
00010000
00000000
00000100
00000000
00000000
00000000
00000000
00000000
00000000
00000000
00000100
00001000
,
00000100
00000000
00000010
00000000
00000001
00000000
00001000
00000010
00000100
00000001
00000010
00000001
00001000
00000001
00001000
00000000
,
00000100
00000110
00001000
00000001
00000000
00000000
00000000
00001000
,
00000100
00000000
00010000
00000000
00001000
00000000
01000000
00000000
00000000
00000000
00100000
00000000
00000000
00100000
00000000
00000000
,
00100000
00010000
00100000
10000000
00000000
11000000
00000000
10000000
,
01000000
00010000
01000000
10000000
00000000
11000000
00000000
00000000
,
01100000
00000000
00011000
00000000
,
00000220
00000000
00000330
00000010
,
00001001
00000000
00000000
00000000
00000001
00000000
00000100
00000000
00000010
00000000
00000000
00000000
00000100
00000000
00000010
00001000
,
00000200
00020300
00032000
02003000
,
03200000
00000000
00000000
00000000
01300000
00000000
01000000
00010000
10000000
00000000
00000000
00000000
01000000
00000000
00100000
01000000
,
20000000
32000000
03020000
00032000
,
00013000
00000000
00000110
00001000
00000002
00000000
00000000
00000103
,
00000020
00000000
00000000
00000000
00000030
00000000
00000000
00000000
00000100
00000000
00000000
00000010
00000000
00000000
00010000
00000000
,
00002000
00000000
00000000
01000000
02000000
00000000
03003000
00000000
,
00120000
00000000
00000000
00000000
00230000
00000000
00000000
00000000
01300000
00000000
01000000
00000000
01000000
00100000
00000000
00000000
,
00001000
00000000
00000000
00000000
00011000
00000000
00010000
00000100
00001000
00000000
00000000
00000000
00000000
00000000
00000010
00010000
,
00002000
02003000
03200000
20300000
,
32000000
00000000
00000000
00000000
00000000
00000000
03100000
00010000
10000000
00000000
00000000
00000000
00000000
00000000
00100000
01000000
,
00020000
00230000
00302000
00023000
,
00030100
00000000
00000000
00000000
00001010
00000000
00000010
00000100
00000001
00000000
00000000
00000000
00000000
00000000
00000010
00000000
,
00000100
00000000
00000000
00000000
00000000
00000000
00000000
00000000
00000010
00000000
00000000
00000010
00000000
00000000
00000001
00000000
,
00002000
00000000
00000000
00000100
00000200
00000000
00003300
00000000
,
00001100
00011000
00110000
01100000
,
10010000
00000000
00000000
00202000
00000000
00000000
00000000
00000000
,
00000000
00303000
00000000
00000000
;
