#TITLE:Vision;
#SUBTITLE:;
#ARTIST:Solarstone;
#TITLETRANSLIT:;
#SUBTITLETRANSLIT:;
#ARTISTTRANSLIT:;
#GENRE:;
#CREDIT:;
#MUSIC:Vision.ogg;
#BANNER:Vision.png;
#BACKGROUND:Vision-bg.png;
#CDTITLE:cdtitle.png;
#SAMPLESTART:104.427;
#SAMPLELENGTH:13.913;
#SELECTABLE:YES;
#OFFSET:-0.079;
#BPMS:0.000=138.000;
#STOPS:;
#ORIGIN:;
#TAGS:;
#PREVIEWVID:;
#JACKET:Vision-jacket.png;
#CDIMAGE:;
#DISCIMAGE:;
#BGCHANGES:;
#FGCHANGES:;

//--------------- dance-single - ----------------
#NOTES:
     dance-single:
     :
     Beginner:
     3:
     0.194859,0.280176,0.036865,0.110596,0,185,180,5,15,0,0,0,0,0,0.194859,0.280176,0.036865,0.110596,0,185,180,5,15,0,0,0,0,0:
0000
0000
0000
0000
,
0000
0000
0000
0000
,
0000
0000
0000
0000
,
0000
0000
0000
0000
,
0000
0000
0000
0000
,
0000
0000
0000
0000
,
0000
0000
0000
0000
,
0000
0000
0000
0000
,
0001
0000
0000
0000
,
0000
0000
0000
0000
,
0000
0000
0000
0000
,
1000
0000
0001
0000
,
0220
0000
0000
0000
,
0000
0000
0000
0000
,
0330
0000
0000
0000
,
0000
0000
0000
0000
,
0001
1000
0000
0001
,
1000
0001
0000
1000
,
0001
1000
0000
0001
,
1000
1000
0001
1001
,
1000
0000
0000
0000
0000
0010
0000
0000
,
0100
0000
0000
0000
0000
0001
0000
0000
,
1000
0100
0010
0001
,
0010
0100
0010
0001
,
1000
0000
0200
0000
0000
0310
0000
0000
,
0100
0000
0000
0000
0000
1000
0000
0000
,
0001
0000
0000
0000
0000
0100
0000
0000
,
0010
0000
0000
0000
0000
1000
0000
0000
,
1001
0000
0000
0000
0000
1000
0000
0000
,
0010
0000
0000
0000
0000
0100
0000
0000
,
0001
0100
0010
0100
,
0001
0010
0100
1000
,
0100
0000
0020
0000
0000
0130
0000
0000
,
0010
0000
0000
0000
0000
0001
0000
0000
,
1000
0000
0000
0000
0000
0001
0000
0000
,
0100
0000
0000
0000
0000
0010
0000
0000
,
1001
0001
1000
0001
,
0100
0001
0100
0001
,
0100
0010
0100
0010
,
0100
0010
0100
0010
,
1000
0001
1000
0001
,
1000
0001
1000
0001
,
1000
0001
1000
0001
,
0020
0000
0000
0000
,
0130
0000
0000
0000
0000
1000
0000
0000
,
1000
0000
0000
0000
0000
0001
0000
0000
,
0001
0000
0000
0000
0000
0100
0000
0000
,
0100
0000
0000
0000
0000
0010
0000
0000
,
0010
0000
0000
0000
0000
1000
0000
0000
,
1000
0000
0000
0000
0000
0001
0000
0000
,
0001
0000
0000
0000
0000
0010
0000
0000
,
0010
0000
0000
0000
0000
0100
0000
0000
,
0100
1000
0100
1000
,
0100
0010
0100
0010
,
0001
0010
0001
0010
,
0001
0010
0001
0010
,
0001
0100
0001
0100
,
0010
1000
0010
1000
,
0001
1000
0001
1000
,
0200
0000
0000
0000
,
0310
0000
0000
0000
0000
0001
0000
0000
,
0000
2000
3001
2000
,
3010
0100
0010
1000
,
0100
0010
0001
0010
,
0100
0000
0020
0000
0000
0031
0000
0000
,
0010
0200
1300
0200
,
0310
0000
0000
0000
0000
0100
0000
0000
,
1000
0000
0000
0000
0000
0010
0000
0000
,
1001
0000
0000
0000
0000
0001
0000
0000
,
1000
0002
0013
0002
,
1003
0100
0010
0100
,
1000
0001
0010
0100
,
1000
0000
0002
0000
0000
0103
0000
0000
,
0010
0000
0000
0000
0000
1000
0000
0000
,
0001
0000
0000
0000
0000
1000
0000
0000
,
0200
0000
0000
0000
,
0310
0000
0000
0000
;

//--------------- dance-single - ----------------
#NOTES:
     dance-single:
     :
     Easy:
     6:
     0.258057,0.336211,0.058984,0.36128,0.040552,245,237,8,49,0,0,0,0,0,0.258057,0.336211,0.058984,0.36128,0.040552,245,237,8,49,0,0,0,0,0:
0000
0000
0000
0000
,
0000
0000
0000
0000
,
0000
0000
0000
0000
,
0000
0000
0000
0000
,
0000
0000
0000
0000
,
0000
0000
0000
0000
,
0000
0000
0000
0000
,
0000
0000
0000
0000
0000
0000
0000
0001
,
1000
0002
0000
0000
0000
0000
0000
0000
,
0003
0000
0000
0000
,
0000
0000
0000
0100
,
0010
0000
1000
0001
,
0220
0000
0000
0000
,
0000
0000
0000
0000
,
0330
0000
0000
0000
,
0000
0000
0000
0000
,
1000
0000
0001
0000
0000
1000
0001
0000
,
1000
0000
0001
0000
0000
1000
0001
0000
,
1000
0000
0001
0000
0000
1000
0001
0000
,
1000
0010
0100
0001
,
1001
0001
1000
0010
,
1000
0100
0010
0100
,
2000
3020
0230
0302
,
0023
0230
2300
3200
,
2300
3002
0103
0001
,
0010
0001
1000
0100
,
1000
0010
0100
0010
,
1000
0001
0010
0100
,
1001
0001
1000
0010
,
1000
0100
1000
0010
,
0200
0320
2030
3002
,
0023
0230
0320
0032
,
2003
3200
0310
0001
,
0100
0010
1000
0100
,
0010
0000
0100
0000
,
1000
0000
0001
0000
,
0100
0100
0100
0100
,
0010
0010
0010
0010
,
1000
1000
1000
1000
,
1000
1000
1000
1000
,
0001
0001
0001
0001
,
0001
0001
0001
0001
,
0001
0001
0001
0001
,
2020
0000
0000
3030
,
1000
0000
0000
1000
0000
0000
1000
0000
0000
0000
0010
0000
0000
0000
0000
0000
,
0100
0000
0000
0100
0000
0000
0100
0000
0000
0000
0001
0000
0000
0000
0000
0000
,
0010
0000
0000
0010
0000
0000
0010
0000
0000
0000
0100
0000
0000
0000
0000
0000
,
1000
0000
0000
1000
0000
0000
1000
0000
0000
0000
0001
0000
0000
0000
0000
0000
,
0100
0000
0000
0100
0000
0000
0100
0000
0000
0000
0010
0000
0000
0000
0000
0000
,
1000
0000
0000
1000
0000
0000
1000
0000
0000
0000
0001
0000
0000
0000
0000
0000
,
0010
0000
0000
0010
0000
0000
0010
0000
0000
0000
0100
0000
0000
0000
0000
0000
,
0010
0000
0000
0010
0000
0000
0010
0000
0000
0000
0001
0000
0000
0000
0000
0000
,
1000
1000
1000
1000
,
0100
0100
0100
0100
,
0010
0010
0010
0010
,
0010
0010
0010
0010
,
0001
0001
0001
0001
,
1000
1000
1000
1000
,
0001
0001
0001
0001
,
0220
0000
0000
0330
,
1001
1000
0001
0010
,
0001
0000
0100
0010
0100
0000
0010
0100
,
0020
2030
3002
0023
,
0230
0320
0032
2003
,
3020
0230
0301
0100
,
0010
0000
1000
0001
1000
0000
1000
0001
,
1000
0001
0010
0001
,
1000
0100
1000
0010
,
1001
0001
1000
0010
,
0100
0000
0001
1000
0001
0000
0001
1000
,
0002
0023
0230
0320
,
0032
2003
3200
0320
,
0032
0000
0000
0000
0203
0000
0000
0000
0300
0000
0010
0000
0000
0010
0000
0000
,
0000
0000
0000
0000
0000
0000
0000
0000
0000
0000
0100
0000
0000
0100
0000
0000
,
0000
0000
0000
0000
0000
0000
0000
0000
0000
0000
0010
0000
0000
0010
0000
0000
,
2002
0000
0000
0000
,
3003
0000
0000
0000
;

//--------------- dance-single - ----------------
#NOTES:
     dance-single:
     :
     Medium:
     8:
     0.332841,0.504317,0.309668,0.36128,0.125342,316,274,42,49,0,0,0,0,0,0.332841,0.504317,0.309668,0.36128,0.125342,316,274,42,49,0,0,0,0,0:
0000
0000
0000
0000
,
0000
0000
0000
0000
,
0000
0000
0000
0000
,
0000
0000
0000
0000
,
0000
0000
0000
0000
,
0000
0000
0000
0000
,
0000
0000
0000
0000
,
0000
0000
0000
0000
0000
0000
0000
1000
,
0001
0020
0000
0000
0000
0000
0000
0000
,
0000
0000
0000
0000
,
0030
0000
0000
0100
,
1000
0001
0000
0000
0100
0001
0000
0000
,
0012
0000
0000
0000
,
0103
0000
0000
0000
,
0010
0000
1000
0000
,
0100
1000
0010
0100
,
0001
0000
1001
0000
0000
1000
0010
0000
,
1000
0000
1001
0000
0000
0001
0010
0000
,
0001
0000
1001
0000
0000
1000
0010
0000
,
1000
0000
0100
0000
1000
0000
0001
0000
1000
0001
0000
0001
1000
0000
0000
0000
,
0100
0000
0000
0000
0010
0000
0000
0000
0001
0000
0100
0000
0000
0100
0000
0000
,
0010
0000
0000
0000
1000
0000
0000
0000
0001
0000
1000
0000
0000
1000
0000
0000
,
0200
2300
3200
0320
,
0032
0203
0320
0230
,
0302
0000
0000
0000
2003
0000
0000
0000
3001
0000
0100
0000
0000
0100
0000
0000
,
0001
0000
0000
0000
1000
0000
0000
0000
1000
0000
0100
0000
0000
0100
0000
0000
,
1000
0000
0000
0000
0010
0000
0000
0000
0100
0000
0001
0000
0000
0001
0000
0000
,
0010
0000
0000
0000
0001
0000
0000
0000
1000
0000
0100
0000
0000
0100
0000
0000
,
1100
0000
0000
0000
1000
0000
0000
0000
0001
0000
1000
0000
0000
1000
0000
0000
,
0010
0000
0000
0000
1000
0000
0000
0000
0001
0000
0100
0000
0000
0100
0000
0000
,
0002
0023
2030
3020
,
0032
0203
2300
3200
,
0320
0000
0000
0000
2030
0000
0000
0000
3100
0000
0010
0000
0000
0010
0000
0000
,
0002
0000
0000
0000
0103
0000
0000
0000
0010
0000
0100
0000
0000
0100
0000
0000
,
0001
1000
0000
0001
,
0000
1000
0000
0001
,
0101
0101
0101
0010
,
1100
1100
1100
0001
,
1010
1010
1010
1010
,
0101
0101
0101
0101
,
1001
0101
1001
0101
,
1001
1100
1001
1100
,
1001
1001
1001
1001
,
0220
0000
0000
0330
,
1000
0000
0000
1000
0000
0000
1000
0000
0000
0000
0001
0000
0000
0001
0000
0000
,
1000
0000
0000
1000
0000
0000
1000
0000
0000
0000
0001
0000
0000
0001
0000
0000
,
1000
0000
0000
1000
0000
0000
1000
0000
0000
0000
0001
0000
0000
0001
0000
0000
,
1000
0000
0000
1000
0000
0000
1000
0000
0000
0000
0001
0000
0000
0001
0000
0000
,
0100
0000
0000
0010
0000
0000
1000
0000
0000
0000
0001
0000
0000
0001
0000
0000
,
0100
0000
0000
0010
0000
0000
1000
0000
0000
0000
0010
0000
0000
0010
0000
0000
,
0100
0000
0000
0010
0000
0000
1000
0000
0000
0000
0001
0000
0000
0001
0000
0000
,
0100
0000
0000
0010
0000
0000
1000
0000
0000
0000
0010
0000
0000
0010
0000
0000
,
0110
0100
0100
0100
,
0110
0010
0010
0010
,
1001
1000
1000
1000
,
1000
1000
1000
1000
,
1001
0001
0001
0001
,
0011
0010
0010
0010
,
0110
0100
0100
0100
,
2002
0000
0000
3003
,
1000
0100
1000
0010
,
0100
0000
1000
0100
0001
0000
0100
0000
,
0020
2030
3002
0023
,
2030
3020
0032
0203
,
0320
0000
0000
0030
2000
0000
0000
0000
3001
0000
0100
0000
0000
0100
0000
0000
,
0001
0000
0000
0000
0010
0000
0100
0000
1000
0000
0001
0000
0000
0001
0000
0000
,
0100
0000
0000
0000
0010
0000
0000
0000
1000
0000
0100
0000
0000
0100
0000
0000
,
0010
0100
1000
0001
,
1001
1000
0001
0100
,
0010
0000
1000
0010
0001
0000
0010
0000
,
2000
3020
0032
0023
,
0230
0302
0023
0230
,
2300
0000
0000
0000
3200
0000
0000
0000
0300
0000
1000
0000
0000
1000
0000
0000
,
0001
0000
0000
0000
1000
0000
0000
0000
0010
0000
0100
0000
0000
0100
0000
0000
,
0010
1000
0100
0010
,
2002
0000
0000
3003
,
0110
0000
0000
0000
;

//--------------- dance-single - ----------------
#NOTES:
     dance-single:
     :
     Hard:
     13:
     0.472929,0.616387,0.516114,0.656202,0.357593,449,379,70,89,0,0,6,0,0,0.472929,0.616387,0.516114,0.656202,0.357593,449,379,70,89,0,0,6,0,0:
0000
0000
0000
0000
,
0000
0000
0000
0000
,
0000
0000
0000
0000
,
0000
0000
0000
0000
,
0002
0203
2300
3020
,
0032
2003
3200
0302
,
0023
2030
3020
1030
,
0020
0000
1030
0000
0020
0000
1030
0001
,
0010
0200
0000
0000
0000
0000
0000
0000
,
0000
0000
0000
0000
,
0300
0000
0000
0020
,
0031
2000
0000
0000
3010
0200
0000
0300
,
2002
0000
0000
3003
,
0001
0000
1000
0000
,
0001
0000
1000
0000
,
0001
0000
1000
0000
,
0100
0000
0000
0000
1001
0000
0000
0000
0000
0000
0001
1000
0010
0000
0000
0000
,
0100
0000
0000
0000
1001
0000
0000
0000
0000
0000
1000
0001
0100
0000
0000
0010
,
0100
0000
0000
0000
1001
0000
0000
0000
0000
0000
0100
0010
0001
0000
0000
0000
,
1000
0000
1000
0000
0001
0000
0001
0000
0010
0001
0100
0001
0010
0000
1001
0000
,
1000
0000
0010
0000
1000
0000
0100
0000
0010
0000
0110
0000
0000
1100
0000
0000
,
0100
0000
1000
0000
0010
0000
0100
0000
0001
0000
0011
0000
0000
0110
0000
0100
,
2000
3200
0302
0203
,
0320
0032
0203
2300
,
3200
0000
0000
0000
0020
0000
0000
0000
0330
0000
1001
0000
0000
1010
0000
0000
,
1000
0000
0100
0000
0010
0000
0001
0000
1000
0000
1001
0000
0000
0011
0000
0000
,
0001
0000
0010
0000
0001
0000
1000
0000
0010
0000
1010
0000
0000
1100
0000
0000
,
0100
0000
0010
0000
0100
0000
1000
0000
0001
0000
0101
0000
0000
1010
0000
0000
,
1001
0000
1000
0000
0100
0000
0010
0000
0100
0000
0110
0000
0000
1100
0000
0000
,
1000
0000
0010
0000
1000
0000
0001
0000
0010
0000
0110
0000
0000
1100
0000
1000
,
0020
0032
0023
2030
,
3200
0302
0203
0320
,
0032
0000
0000
0000
2000
0000
0000
0000
3003
0000
0011
0000
0000
0101
0000
0000
,
0001
0000
0100
0000
0010
0000
1000
0000
0100
0000
1001
0000
0000
1100
0000
0000
,
1000
0000
0000
0000
0000
0000
0000
0000
0000
0000
0011
0000
0000
1001
0000
0000
,
0000
0000
0000
0000
0000
0000
0000
0000
0000
0000
1001
0000
0000
0011
0000
1000
,
0100
0000
0000
0100
0010
0000
0000
0010
0001
0000
0000
0001
1000
0000
0000
0001
,
0010
0000
0000
0010
0100
0000
0000
0100
1000
0000
0000
1000
0001
0000
0000
1000
,
0010
0000
0000
0100
0001
0000
0000
1000
0010
0000
0000
0100
0001
0000
0000
1000
,
0010
0000
0000
0100
0001
0000
0000
1000
0010
0000
0000
0100
0001
0000
0000
1000
,
0001
0000
0000
0001
0010
0000
0000
0010
0100
0000
0000
0100
1000
0000
0000
1000
,
0001
0000
0000
1000
0100
0000
0000
0100
0010
0000
0000
0010
0001
0000
0000
0001
,
1000
0000
0000
1000
0010
0000
0000
0010
0100
0000
0000
0100
0001
0000
0000
0001
,
0040
0400
0000
0000
0000
0000
0000
0000
0000
0000
0000
0000
0000
0000
0330
0000
,
1001
0000
0000
1010
0000
0000
1001
0000
0000
0000
0001
0000
1000
0010
0000
0010
,
0100
0000
0000
0110
0000
0000
1001
0000
0000
0000
0011
0000
0001
0010
0000
0010
,
0001
0000
0000
0110
0000
0000
1100
0000
0000
0000
1001
0000
1000
0010
0000
0010
,
0100
0000
0000
0110
0000
0000
1001
0000
0000
0000
1100
0000
0010
0001
0000
0001
,
0100
0000
0000
0101
0000
0000
1001
0000
0000
0000
1001
0000
1000
0100
0000
0100
,
0010
0000
0000
0011
0000
0000
1001
0000
0000
0000
1010
0000
1000
0001
0000
0001
,
1000
0000
0000
1010
0000
0000
1001
0000
0000
0000
0011
0000
0100
1000
0000
1000
,
0001
0000
0000
0101
0000
0000
1010
0000
0000
0000
1100
0000
0010
0001
0000
1000
,
0020
0032
0023
2030
,
3200
0302
0203
0320
,
0032
0203
2300
3200
,
0320
2030
3002
0023
,
2030
3020
0230
0320
,
0032
0203
2300
3200
,
0320
2030
3002
2003
,
3040
0400
0000
0000
0000
0000
0000
0000
0000
0000
0000
0000
0000
0000
0000
0330
,
1001
0000
1000
0000
0100
0000
1000
0000
0010
0000
0110
0000
0000
0101
0000
0000
,
0011
0000
0000
0000
0001
0010
0100
1000
0001
0000
0000
0000
0001
0010
0100
1000
,
0002
0023
2030
3200
,
0302
2003
3020
0032
,
0203
0000
0000
0000
2300
0000
0000
0000
3000
0000
0011
0000
0000
1100
0000
0000
,
1001
0000
0000
0000
0001
0100
0010
1000
0001
0000
0000
0000
0001
0100
0010
1000
,
0001
0000
1000
0000
0100
0000
1000
0000
0010
0000
0110
0000
0000
1010
0000
0000
,
0001
0000
0010
0000
0100
0000
0010
0000
0001
0000
1001
0000
0000
1010
0000
0000
,
1000
0000
0100
0000
0010
0000
0100
0000
1000
0000
1001
0000
0000
0101
0000
0000
,
1001
0000
0000
0000
1000
0100
0010
0001
1000
0000
0000
0000
1000
0100
0010
0001
,
2000
3200
0302
0023
,
2030
3002
0203
2300
,
3020
0000
0000
0000
0032
0000
0000
0000
0000
0000
0100
0000
0000
0103
0000
0000
,
2010
0000
0000
0000
0000
0000
0000
0000
0000
0000
0001
0000
0000
3001
0000
0000
,
0021
0000
0000
0000
0000
0000
0000
0000
0000
0000
0100
0000
0000
0130
0000
0000
,
4000
0004
0000
0000
0000
0000
0000
0000
0000
0000
0000
0000
0000
0000
0000
0000
,
3003
0000
0000
0000
;

//--------------- dance-double - ----------------
#NOTES:
     dance-double:
     :
     Easy:
     5:
     0.219085,0.280176,0.066357,0.066357,0,208,199,9,9,0,0,0,0,0,0.219085,0.280176,0.066357,0.066357,0,208,199,9,9,0,0,0,0,0:
00000000
00000000
00000000
00000000
,
00000000
00000000
00000000
00000000
,
00000000
00000000
00000000
00000000
,
00000000
00000000
00000000
00000000
,
00010000
00001000
00100000
00001000
,
00010000
00000010
00010000
00001000
,
00010000
00001000
00000000
00000000
,
00000000
00000000
00000000
00000000
,
00200000
00000000
00000000
00000000
,
00300000
00000000
00000000
00000000
,
00000000
00000000
00000000
00000000
,
01000000
00000000
10000000
00000000
,
20020000
00000000
00000000
00000000
,
00000000
00000000
00000000
00000000
,
30030000
00000000
00000000
00000000
,
00000000
00000000
00000000
00000000
,
10000000
00010000
00000000
00100000
,
00001000
00010000
00000000
00000010
,
00000100
00000001
00000000
00001000
,
00000100
00010000
00001000
01000000
,
01100000
01000000
00100000
00010000
,
10000000
00010000
00100000
00001000
,
00010000
00010000
00000100
00000100
,
00001000
00001000
00000010
00000010
,
00000100
00000100
00000001
00000100
,
00000010
00001000
00000100
00010000
,
00001000
00100000
00010000
00100000
,
01000000
10000000
01000000
10000000
,
10100000
00100000
01000000
00001000
,
00010000
00000100
00010000
00001000
,
01000000
01000000
00100000
00100000
,
10000000
10000000
00010000
00010000
,
00100000
00100000
00001000
00010000
,
00000100
00001000
00000010
00000100
,
00000001
00000000
00000000
00000000
,
00000000
00000000
00000000
00000000
,
00000110
00000010
00000010
00000010
,
00001000
00001000
00001000
00001000
,
00000100
00000100
00000100
00000100
,
00000100
00000100
00000100
00000100
,
00010000
00010000
00010000
00010000
,
00010000
00010000
00010000
00010000
,
00010000
00010000
00010000
00010000
,
00022000
00000000
00000000
00033000
,
00100000
00000000
00000000
00000000
00000000
01000000
00000000
00000000
,
10000000
00000000
00000000
00000000
00000000
00100000
00000000
00000000
,
01000000
00000000
00000000
00000000
00000000
00001000
00000000
00000000
,
00010000
00000000
00000000
00000000
00000000
00000100
00000000
00000000
,
00001000
00000000
00000000
00000000
00000000
00000010
00000000
00000000
,
00000100
00000000
00000000
00000000
00000000
00000001
00000000
00000000
,
00001000
00000000
00000000
00000000
00000000
00000100
00000000
00000000
,
00010000
00000000
00000000
00000000
00000000
00001000
00000000
00000000
,
01000000
01000000
01000000
01000000
,
00100000
00100000
00100000
00100000
,
10000000
10000000
10000000
10000000
,
10000000
10000000
10000000
10000000
,
00010000
00010000
00010000
00010000
,
00100000
00100000
00100000
00100000
,
00001000
00001000
00001000
00001000
,
00022000
00000000
00000000
00033000
,
00001100
00000000
00000000
00000000
,
00000000
00000000
00001000
00000010
00000100
00000000
00000000
00000000
,
00000010
00000100
00000001
00001000
,
00000100
00010000
00001000
01000000
,
00100000
10000000
00000000
00000000
,
00000000
00000000
01000000
00100000
00010000
00000000
00000000
00000000
,
00100000
00000000
00001000
00000000
,
00010000
00000000
00000100
00000000
,
00000110
00000000
00000100
00000000
,
00001000
00000000
00000001
00000010
00000100
00000000
00000000
00000000
,
00000010
00000001
00000100
00000010
,
00001000
00000100
00010000
00001000
,
01000000
00100000
00000000
00000000
,
10000000
00000000
00000000
00000000
,
01000000
00000000
00010000
00000000
,
00022000
00000000
00000000
00000000
,
00033000
00000000
00000000
00000000
;

//--------------- dance-double - ----------------
#NOTES:
     dance-double:
     :
     Medium:
     8:
     0.310722,0.420264,0.132715,0.376026,0.151148,295,277,18,51,0,0,0,0,0,0.310722,0.420264,0.132715,0.376026,0.151148,295,277,18,51,0,0,0,0,0:
00000000
00000000
00000000
00000000
,
00000000
00000000
00000000
00000000
,
00000000
00000000
00000000
00000000
,
00000000
00000000
00000000
00000000
,
10000000
01000000
00100000
00010000
,
00100000
00001000
00010000
00000100
,
00001000
00000001
00000000
00000000
,
00000000
00000000
00000000
00000000
00000000
00000000
00000000
00001000
,
00000001
00000200
00000000
00000000
00000000
00000000
00000000
00000000
,
00000300
00000000
00000000
00000000
,
00000000
00000000
00000000
00000010
,
00000100
00000001
00000000
00000000
00001000
00000100
00000000
00000000
,
00022000
00000000
00000000
00000000
,
00033000
00000000
00000000
00000000
,
00000000
00000000
00000000
00000000
,
00000000
00000000
00000000
00000000
,
00010000
00000000
00001000
00000000
00000000
00010000
00001000
00000000
,
00010000
00000000
00001000
00000000
00000000
00010000
00001000
00000000
,
00001000
00000000
00010000
00000000
00000000
00001000
00010000
00000000
,
00001000
00010000
00001000
00001000
00010000
00001000
00011000
00000000
,
01001000
00000000
00000000
00000000
01000000
00000000
00000000
00000000
00100000
00000000
10000000
00000000
00000000
10000000
00000000
00000000
,
01000000
00000000
00000000
00000000
00100000
00000000
00000000
00000000
00001000
00000000
00010000
00000000
00000000
00010000
00000000
00000000
,
00000200
00002300
00003020
00000230
,
00000320
00020030
00032000
02003000
,
03200000
00000000
00000000
00000000
20300000
00000000
00000000
00000000
00000000
00000000
31000000
00000000
00000000
01000000
00000000
00000000
,
00100000
00000000
00000000
00000000
00001000
00000000
00000000
00000000
00010000
00000000
00000100
00000000
00000000
00000100
00000000
00000000
,
00001000
00000000
00000000
00000000
00000010
00000000
00000000
00000000
00000100
00000000
00000001
00000000
00000000
00000001
00000000
00000000
,
00000010
00000000
00000000
00000000
00000100
00000000
00000000
00000000
00001000
00000000
00000100
00000000
00000000
00000100
00000000
00000000
,
00011000
00000000
00000000
00000000
00010000
00000000
00000000
00000000
00000100
00000000
00010000
00000000
00000000
00010000
00000000
00000000
,
00001000
00000000
00000000
00000000
01000000
00000000
00000000
00000000
00100000
00000000
10000000
00000000
00000000
10000000
00000000
00000000
,
00200000
02300000
03002000
00023000
,
02030000
03200000
00320000
20030000
,
30020000
00000000
00000000
00000000
20030000
00000000
00000000
00000000
00000000
00000000
00100000
00000000
00000000
30100000
00000000
00000000
,
10010000
00000000
00000000
00000000
10000000
00000000
00000000
00000000
00010000
00000000
00100000
00000000
00000000
00100000
00000000
00000000
,
00001000
00000000
00000000
00000000
00010000
00000000
00000000
00000000
00000100
00000000
00001000
00000000
00000000
00001000
00000000
00000000
,
00000010
00000100
00000001
00001000
,
00001100
00000100
00000100
00000100
,
00011000
00001000
00001000
00001000
,
01001000
01000000
01000000
01000000
,
01000000
01000000
01000000
01000000
,
01100000
00100000
00100000
00100000
,
00100000
00100000
00100000
00100000
,
00100000
00100000
00100000
00100000
,
20020000
00000000
00000000
30000000
,
10030000
00000000
00000000
01000000
00000000
00000000
00100000
00000000
00000000
00000000
00001000
00000000
00000000
00001000
00000000
00000000
,
00010000
00000000
00000000
00000100
00000000
00000000
00001000
00000000
00000000
00000000
00000010
00000000
00000000
00000010
00000000
00000000
,
00000100
00000000
00000000
00000001
00000000
00000000
00000010
00000000
00000000
00000000
00000100
00000000
00000000
00000100
00000000
00000000
,
00010000
00000000
00000000
00001000
00000000
00000000
00100000
00000000
00000000
00000000
00010000
00000000
00000000
00010000
00000000
00000000
,
00100000
00000000
00000000
01000000
00000000
00000000
00100000
00000000
00000000
00000000
01000000
00000000
00000000
01000000
00000000
00000000
,
10000000
00000000
00000000
00100000
00000000
00000000
01000000
00000000
00000000
00000000
00001000
00000000
00000000
00001000
00000000
00000000
,
00010000
00000000
00000000
00000100
00000000
00000000
00001000
00000000
00000000
00000000
00000010
00000000
00000000
00000010
00000000
00000000
,
00000100
00000000
00000000
00000001
00000000
00000000
00000010
00000000
00000000
00000000
00000100
00000000
00000000
00000100
00000000
00000000
,
00000110
00000010
00000001
00000100
,
00000010
00001000
00000100
00010000
,
00001000
01000000
00100000
10000000
,
01000000
00100000
01000000
10000000
,
00010000
00100000
00001000
00010000
,
00000100
00001000
00000010
00000100
,
00000001
00001000
00000100
00001000
,
00022000
00000000
00000000
00033000
,
00120000
00000000
00000000
00000000
00000000
00000000
00000000
00000000
00000000
00000000
10000000
00000000
00000000
10030000
00000000
00000000
,
10010000
00000000
00000000
00000000
10000000
00100000
10000000
00100000
10000000
00000000
00000000
00000000
00000000
00000000
10000000
00000000
,
00020000
00230000
00302000
00023000
,
00030200
00002300
00003020
00000230
,
00000302
00000000
00000000
00000000
00000023
00000000
00000000
00000000
00000000
00000000
00000100
00000000
00000030
00000100
00000000
00000000
,
00000110
00000000
00000000
00000000
00001000
00000001
00001000
00000001
00001000
00000000
00000000
00000000
00000001
00000000
00000000
00000000
,
00000100
00000000
00000000
00000000
00000010
00000000
00000000
00000000
00001000
00000000
00000100
00000000
00000000
00000100
00000000
00000000
,
00001000
00000000
00000000
00000000
00000100
00000000
00000000
00000000
00010000
00000000
00001000
00000000
00000000
00001000
00000000
00000000
,
00001020
00000000
00000000
00000000
00000000
00000000
00000000
00000000
00000000
00000000
00000130
00000000
00000000
00000100
00000000
00000000
,
00001001
00000000
00000000
00000000
00000001
00000010
00000001
00000010
00000001
00000000
00000000
00000000
00000000
00000000
00000010
00000000
,
00000200
00002300
00003200
00020300
,
00032000
02003000
03200000
20300000
,
30020000
00000000
00000000
00000000
00230000
00000000
00000000
00000000
00000000
00000000
01000000
00000000
00000000
01300000
00000000
00000000
,
10000000
00000000
00000000
00000000
00000000
00000000
00000000
00000000
00000000
00000000
00010000
00000000
00000000
00010000
00000000
00000000
,
00100000
00000000
00000000
00000000
00000000
00000000
00000000
00000000
00000000
00000000
00001000
00000000
00000000
00001000
00000000
00000000
,
00022000
00000000
00000000
00000000
,
00033000
00000000
00000000
00000000
;

//--------------- dance-double - ----------------
#NOTES:
     dance-double:
     :
     Hard:
     13:
     0.43817,0.644405,0.538233,0.619337,0.195386,416,343,73,84,0,0,6,0,0,0.43817,0.644405,0.538233,0.619337,0.195386,416,343,73,84,0,0,6,0,0:
00000000
00000000
00000000
00000000
,
00000000
00000000
00000000
00000000
,
00000000
00000000
00000000
00000000
,
00000000
00000000
00000000
00000000
,
10000000
01000000
00010000
00001000
,
00000010
00000001
00000100
00001000
,
00010000
00100000
10000000
00010000
,
00000000
00000000
00000000
00000000
00000000
00000000
00000000
10000000
,
01000000
00200000
00000000
00000000
00000000
00000000
00000000
00000000
,
00000000
00000000
00000000
00000000
,
00300000
00000000
00000000
01000000
,
00100000
00001000
00000000
00000000
00010000
00000010
00000000
00000000
,
00000102
00000000
00000000
00000000
,
00001003
00000000
00000100
00000000
,
00010000
00001000
01000000
00100000
,
10000000
01000000
00010000
01000000
,
00100000
00000000
00011000
00000000
00000000
00000100
00001100
00000000
,
00010000
00000000
00000000
00000000
00011000
00000000
00000000
00000000
00000000
00000000
01000000
00000000
01010000
00000000
00000000
00001000
,
00100000
00000000
00011000
00000000
00000000
00000010
00001010
00000000
,
00000100
00000000
00010000
00000000
00011000
00000000
00011000
00000000
00001000
01000000
00100000
01000000
00010000
00000000
10000000
00000000
,
10010000
00000000
10000000
00000000
01000000
00000000
00100000
00000000
00001000
00000000
00011000
00000000
00000000
00010100
00000000
00000000
,
00001000
00000000
00000010
00000000
00000100
00000000
00000001
00000000
00000010
00000000
00000011
00000000
00000000
00000110
00000000
00000000
,
00000002
00000203
00002300
00023000
,
00230000
20300000
30020000
00230000
,
00302000
00000000
00000000
00000000
00023000
00000000
00000000
00000000
00030010
00000000
00001010
00000000
00000000
00001100
00000000
00000000
,
00000100
00000000
00010000
00000000
00001000
00000000
01000000
00000000
00001000
00000000
00011000
00000000
00000000
00110000
00000000
00000000
,
10000000
00000000
00100000
00000000
01000000
00000000
00010000
00000000
01000000
00000000
01010000
00000000
00000000
00011000
00000000
00000000
,
00010000
00000000
00000100
00000000
00001000
00000000
00000010
00000000
00010000
00000000
00010100
00000000
00000000
00010010
00000000
00000000
,
00001001
00000000
00000001
00000000
00000100
00000000
00000001
00000000
00001000
00000000
00001100
00000000
00000000
00011000
00000000
00000000
,
00001000
00000000
01000000
00000000
00100000
00000000
10000000
00000000
01000000
00000000
01100000
00000000
00000000
00110000
00000000
00000000
,
20000000
32000000
03020000
00032000
,
00003020
00000032
00000203
00002300
,
00023000
00000000
00000000
00000000
00031000
00000000
00100000
00000000
00010000
00000000
10010000
00000000
00000000
11000000
00000000
00000000
,
10000000
00000000
00010000
00000000
00100000
00000000
00001000
00000000
00010000
00000000
00011000
00000000
00000000
00010100
00000000
00000000
,
00000200
00000000
00000000
00000000
00010000
00000000
00000000
00000000
00001000
00000000
00001300
00000000
00000000
00011000
00000000
00000000
,
02000000
00000000
00000000
00000000
00001000
00000000
00000000
00000000
00010000
00000000
03010000
00000000
00000000
00011000
00000000
00000000
,
00200000
00010000
00001000
00310000
,
00000200
00010000
00001000
00010300
,
00002000
00010000
00100000
00010000
,
00100000
00010000
00100000
00013000
,
00020100
00001000
00000100
00001000
,
00000100
00001000
00000100
00001000
,
00000100
00000100
00001000
00031000
,
00040000
00004000
00000000
00000000
00000000
00000000
00000000
00000000
00000000
00000000
00000000
00000000
00033000
00000000
00000000
00000000
,
00120000
00000000
00000000
01000000
00000000
00000000
00130000
00000000
00000000
00000000
00110000
00000000
00000000
11000000
00000000
00000000
,
10200000
00000000
00000000
01000000
00000000
00000000
10300000
00000000
00000000
00000000
11000000
00000000
00000000
00110000
00000000
00000000
,
00102000
00000000
00000000
00010000
00000000
00000000
00103000
00000000
00000000
00000000
00011000
00000000
00000000
00001010
00000000
00000000
,
00000201
00000000
00000000
00000010
00000000
00000000
00000301
00000000
00000000
00000000
00001001
00000000
00000000
00001100
00000000
00000000
,
00021000
00000000
00000000
00000100
00000000
00000000
00030010
00000000
00000000
00000000
00000110
00000000
00000000
00001010
00000000
00000000
,
00001200
00000000
00000000
00010000
00000000
00000000
00001300
00000000
00000000
00000000
00011000
00000000
00000000
00110000
00000000
00000000
,
21000000
00000000
00000000
00100000
00000000
00000000
31000000
00000000
00000000
00000000
01100000
00000000
00000000
00110000
00000000
00000000
,
00102000
00000000
00000000
00010000
00000000
00000000
01003000
00000000
00000000
00000000
01001000
00000000
00000000
00110000
00000000
00000000
,
12000000
23000000
32000000
03020000
,
00032000
00003020
00000032
00000203
,
00002300
00023000
00230000
20300000
,
32000000
03020000
00032000
00003020
,
00000032
00000203
00002300
00023000
,
00230000
20300000
32000000
03020000
,
00032000
00003020
00000032
00002003
,
00003040
00000400
00000000
00000000
00000000
00000000
00000000
00000000
00000000
00000000
00000000
00000000
00000330
00000000
00000000
00000000
,
00001001
00000000
00001000
00000000
00000100
00000000
00010000
00000000
00000100
00000000
00010100
00000000
00000000
00011000
00000000
00000000
,
01001000
00000000
00000000
00000000
01000000
00001000
00010000
00000010
00000100
00000000
00000000
00000000
00000010
00001000
00000100
00000010
,
00000002
00000203
00002300
00023000
,
00230000
20300000
32000000
03020000
,
00032000
00000000
00000000
00000000
00003200
00000000
00000000
00000000
00001300
00000000
00001100
00000000
00000000
00001010
00000000
00000000
,
00000010
00000000
00000000
00000000
00000100
00000010
00010000
00001000
00100000
00000000
00000000
00000000
00001000
00100000
00001000
01000000
,
00100000
00000000
10000000
00000000
01000000
00000000
00100000
00000000
00010000
00000000
00110000
00000000
00000000
00011000
00000000
00000000
,
00010000
00000000
00000100
00000000
00001000
00000000
00000010
00000000
00000100
00000000
00000101
00000000
00000000
00001010
00000000
00000000
,
00001001
00000000
00000001
00000000
00000010
00000000
00000001
00000000
00001000
00000000
00001100
00000000
00000000
00011000
00000000
00000000
,
01001000
00000000
00000000
00000000
01000000
00001000
00010000
00001000
00100000
00000000
00000000
00000000
00010000
00100000
01000000
10000000
,
02000000
03200000
00320000
00032000
,
00003200
00000320
00000032
00000203
,
00000320
00000000
00000000
00000000
00002030
00000000
00000000
00000000
00000000
00000000
00000010
00000000
00000000
00000010
00000000
00000000
,
00003002
00000000
00000000
00000000
00000000
00000000
00000000
00000000
00000000
00000000
00001000
00000000
00000000
00001000
00000000
00000000
,
00001003
00000010
00001000
00000100
00010000
00001000
01000000
00001000
,
00040000
00004000
00000000
00000000
00000000
00000000
00000000
00000000
00000000
00000000
00000000
00000000
00000000
00000000
00000000
00000000
,
00033000
00000000
00000000
00000000
;
