#TITLE:Vision (BetweenUs Remix);
#SUBTITLE:;
#ARTIST:Solarstone;
#TITLETRANSLIT:;
#SUBTITLETRANSLIT:;
#ARTISTTRANSLIT:;
#GENRE:;
#CREDIT:;
#MUSIC:Vision (BetweenUs Remix).ogg;
#BANNER:;
#BACKGROUND:Vision (BetweenUs Remix)-bg.png;
#CDTITLE:;
#SAMPLESTART:85.223;
#SAMPLELENGTH:15.605;
#SELECTABLE:YES;
#OFFSET:-0.059;
#BPMS:0.000=124.000;
#STOPS:;
#BGCHANGES:;
#FGCHANGES:;

//--------------- dance-single - Pandemonium X ----------------
#NOTES:
     dance-single:
     Pandemonium X:
     Beginner:
     1:
     0,0,0,0,0:
0000
0000
0000
0000
,
0000
0000
0000
0000
,
0000
0000
0000
0000
,
0000
0000
0000
0000
,
0001
0000
0000
0000
,
0001
0000
0000
0000
,
0000
0000
0000
0000
,
0000
0000
0000
1000
,
0100
0000
0000
0000
,
0100
0000
0000
0000
,
0000
0000
0000
0000
,
0000
0000
0000
0010
,
0001
0000
0000
1000
,
0001
0000
0000
0000
,
0100
0000
0000
0000
,
0010
0000
0000
0100
,
0010
0000
0000
1000
,
0100
0000
0000
0000
,
0010
0000
0000
0000
,
0001
0000
0000
0000
,
1000
0000
0000
0000
,
0020
0000
0000
0030
,
0100
0000
0100
0000
,
0010
0000
0010
0000
,
1000
0000
0000
0000
,
0002
0000
0000
0000
,
0000
0000
0000
0000
,
0003
0000
0000
0000
,
1000
0000
0000
0000
,
0020
0000
0000
0030
,
1000
0000
0001
0000
,
0010
0000
0100
0000
,
1000
0000
0000
0000
,
0020
0000
0000
0000
,
0030
0000
0000
0000
,
0000
0000
0000
0000
,
0100
0010
0000
0000
,
2000
0000
0000
3000
,
0001
0000
1000
0000
,
0010
0000
0100
0000
,
0010
0000
0000
0000
,
1000
0000
0001
0000
,
0020
0000
0000
0000
,
0030
0000
0000
0000
,
0100
0000
0000
0000
,
1000
0000
0000
0000
,
0010
0000
0000
0000
,
0100
0000
0000
0000
,
0001
0000
0000
0000
,
1000
0000
0000
0000
,
0200
0000
0000
0300
,
0010
0000
0000
0000
,
0001
0000
0000
0000
,
1000
0000
0000
0000
,
0010
0000
0000
0000
,
0100
0000
0000
0000
,
0001
0000
0000
0000
,
1000
0000
0000
0000
,
0002
0000
0000
0003
,
1000
0000
0000
0000
,
0010
0000
0000
0000
;

//--------------- dance-single - Pandemonium X ----------------
#NOTES:
     dance-single:
     Pandemonium X:
     Easy:
     4:
     0,0,0,0,0:
0000
0000
0000
0000
,
0000
0000
0000
0000
,
0000
0000
0000
0000
,
0000
0000
0000
0000
,
0002
0000
0003
1000
,
0020
0000
0030
0100
,
0000
0001
0000
0010
,
0000
0100
0000
0001
,
0200
0000
0300
0010
,
0002
0000
0003
1000
,
0000
0001
0000
0100
,
0000
0001
0000
1000
,
0200
0000
0300
0010
,
0002
0000
0003
1000
,
0000
0001
0000
1000
,
0000
0010
0000
0100
,
0002
0000
0003
0010
,
0200
0000
0000
0310
,
0000
0010
0000
0100
,
0000
0100
0000
1000
,
0001
2000
0000
3000
,
0200
0000
0000
0300
,
0010
0000
0001
0000
,
0100
0000
0010
0000
,
1000
0000
0000
0000
,
0001
0010
0100
1000
,
1001
0000
0000
0000
,
0000
0000
0000
0000
,
0001
0011
0000
0000
,
2000
0000
0000
3000
,
0100
0000
0010
0000
,
0001
0000
1000
0000
,
0010
0000
0000
0000
,
0100
0001
1000
0100
,
0020
0000
0000
0030
,
0000
0000
0000
0000
,
0001
1100
0000
0000
,
0002
0000
0000
0003
,
0100
0000
0001
0000
,
0010
0000
0100
0000
,
1000
0001
0000
0000
,
0100
0010
1000
0100
,
0020
0000
0000
0000
,
0030
0000
0000
0000
,
0100
0000
0000
1000
,
0001
0000
0000
0100
,
0010
1000
0010
0100
,
0001
0010
0100
1000
,
0001
1000
0000
0000
,
0100
0000
0010
0000
,
1001
0000
1000
0000
,
0001
0000
0010
0000
,
0100
0010
0000
0001
,
0000
1000
0000
0010
,
1000
0100
0010
0001
,
0010
0100
0010
0001
,
1000
0100
0000
0000
,
0010
0000
0100
0000
,
1001
0000
0001
0000
,
0100
0000
0010
0000
,
2002
0000
0000
0000
,
3003
0000
0000
0000
;

//--------------- dance-single - Pandemonium X ----------------
#NOTES:
     dance-single:
     Pandemonium X:
     Medium:
     8:
     0,0,0,0,0:
0000
0000
0000
0000
,
0000
0000
0000
0000
,
0000
0000
0000
0000
,
0000
0000
0000
0000
0000
0000
0000
0000
0000
0000
0001
0000
0000
0001
0000
0000
,
1000
0000
0000
0100
0000
0000
0010
0000
0000
0000
0100
0000
0000
1000
0000
0000
,
0001
0000
0000
0001
0000
0000
0010
0000
0100
0000
0000
0000
1000
0000
0000
0000
,
0010
0100
0001
0010
,
0001
0000
0000
0000
1000
0000
0000
0000
0010
0000
1000
0000
0000
0100
0000
0000
,
0010
0000
0000
0010
0000
0000
0100
0000
0000
0000
1000
0000
0000
0001
0000
0000
,
0100
0000
0000
0100
0000
0000
0001
0000
1000
0000
0000
0000
0100
0000
0000
0000
,
1000
0010
0100
0001
,
0010
0000
0000
0000
0100
0000
0000
0000
0010
0000
0001
0000
0000
0001
0000
0000
,
0010
0000
0000
1000
0000
0000
0010
0000
0000
0000
0001
0000
0000
0100
0000
0000
,
1000
0000
0000
0100
0000
0000
0001
0000
1000
0000
0000
0000
0001
0000
0000
0000
,
0010
0001
1000
0100
,
0010
0000
0000
0000
0100
0000
0000
0000
1000
0000
0001
0000
0000
0010
0000
0000
,
1000
0000
0000
0010
0000
0000
0001
0000
0000
0000
1000
0000
0000
0100
0000
0000
,
0001
0000
0000
0100
0000
0000
1000
0000
0001
0000
0000
0000
0100
0000
0000
0000
,
0001
0010
0100
0010
,
0001
1000
0010
0000
,
1001
0000
1000
1000
0000
0000
0000
0001
,
0100
0020
0000
0000
0000
0000
0030
0000
,
1000
0100
0001
0100
,
0010
0001
0100
1000
,
0100
0010
0000
2000
,
3002
2003
3200
0320
,
0032
0000
0003
0000
,
0000
0000
0000
0000
,
2100
0000
0010
3020
0000
0000
0000
0130
,
0001
2000
0000
0000
0000
0000
3000
0000
,
1000
0010
0001
0010
,
0100
1000
0100
0001
,
1000
0100
0000
0010
,
0100
1000
0001
0100
,
0020
0000
0000
0130
,
0000
0100
0000
0100
,
0002
0000
1000
2003
0000
0000
0000
3100
,
1000
0020
0000
0000
0000
0000
0030
0000
,
0100
1000
0100
0001
,
0010
1000
0010
0100
,
0010
0001
0000
1000
,
0010
0001
0010
0100
,
0002
0000
1000
0000
,
1003
0000
0100
0000
0010
0000
0001
1000
,
0010
0000
0000
0010
0000
0000
0010
0000
0000
0000
0100
0000
0000
0001
0000
0000
,
1000
0000
0000
1000
0000
0000
1000
0000
0000
0000
0100
0000
0000
0010
0000
0000
,
0011
1100
0101
1010
,
1001
0101
1001
1100
,
0110
0000
0000
0000
0011
0000
0000
0000
0000
0000
0001
0000
0000
0001
0000
0000
,
1000
0000
0000
0010
0000
0000
0100
0000
0000
0000
0010
0000
0000
0010
0000
0000
,
1000
0000
0000
0100
0000
0000
0010
0000
0000
0000
0100
0000
0000
0100
0000
0000
,
0010
0000
0000
0001
0000
0000
1000
0000
0000
0000
0010
0000
0000
0010
0000
0000
,
1010
0000
0000
0000
0010
0000
0100
0000
0001
0000
0010
0000
0000
0010
0000
0000
,
0100
0000
0000
0010
0000
0000
0001
0000
0000
0000
1000
0000
0000
1000
0000
0000
,
1001
1100
1010
0101
,
0011
0110
1100
1010
,
0101
0000
0000
0000
1001
0000
0000
0000
0000
0000
1000
0000
0000
1000
0000
0000
,
0001
0000
0000
0100
0000
0000
0001
0000
0000
0000
0010
0000
0000
0010
0000
0000
,
0100
0000
0000
1000
0000
0000
0010
0000
0000
0000
0100
0000
0000
0100
0000
0000
,
0010
0000
0000
1000
0000
0000
0010
0000
0000
0000
0100
0000
0000
0001
0000
0000
,
0110
0000
0001
1000
0002
0000
0000
0000
,
0003
0000
0000
0000
;

//--------------- dance-single - Pandemonium X ----------------
#NOTES:
     dance-single:
     Pandemonium X:
     Hard:
     12:
     0,0,0,0,0:
0000
0000
0000
0000
,
0000
0000
0000
0000
,
0000
0000
0000
0000
,
0000
0000
0000
0000
0000
0000
0000
0000
0000
0000
0000
0000
0001
1000
0000
1000
,
0100
0000
0000
0100
0000
0000
0100
0000
0000
0000
1000
0000
0000
0001
0000
0000
,
0010
0000
0000
0010
0000
0000
0010
0000
0001
0000
0000
0000
0100
0000
0000
0000
,
0010
0001
0010
1000
,
0001
0000
0000
0000
0100
0000
0000
0000
0010
0000
1000
0000
0000
0001
0000
0000
,
0010
0000
0000
0010
0000
0000
0010
0000
0000
0000
0100
0000
0000
1000
0000
0000
,
0001
0000
0000
0001
0000
0000
0001
0000
1000
0000
0000
0000
0100
0000
0000
0000
,
0010
1000
0010
0001
,
1000
0000
0000
0000
0001
0000
0000
0000
1000
0000
0010
0000
0000
0100
0000
0000
,
0001
0000
0000
0001
0000
0000
0001
0000
0000
0000
0010
0000
0000
0100
0000
0000
,
1000
0000
0000
1000
0000
0000
1000
0000
0010
0000
0000
0000
0100
0000
0000
0000
,
1000
0100
0001
0100
,
0001
0000
0000
0000
0010
0000
0000
0000
0100
0000
0010
0000
0000
0001
0000
0000
,
0100
0000
0000
0100
0000
0000
0100
0000
0000
0000
0010
0000
0000
1000
0000
0000
,
0100
0000
0000
0100
0000
0000
0100
0000
1000
0000
0000
0000
1000
0000
0000
0000
,
0100
0001
0100
1000
,
0001
0100
0010
1000
,
0002
0000
0203
0000
0300
0000
0000
0010
,
1000
2002
0000
0000
0000
0000
3003
0000
,
0002
0203
2300
3020
,
0032
2003
3200
0302
,
0023
2030
0000
3002
,
2003
3200
0320
0032
,
2000
0000
0000
0000
,
3003
0000
0000
0000
,
2001
0000
0010
3010
0000
0000
0000
0100
,
0001
2002
0000
0000
0000
0000
3003
0000
,
2000
3200
0302
0023
,
2030
3002
0203
2300
,
3020
0032
0000
2003
,
3020
0230
0302
0023
,
0200
0000
0000
0330
,
0001
0000
1000
0000
0000
0001
1000
0000
,
2001
0000
0100
3100
0000
0000
0000
0010
,
0100
2200
0000
0000
0000
0000
3300
0000
,
0002
0203
2300
3020
,
0032
0023
2030
3200
,
0302
2000
3003
0002
,
2003
3200
0320
0032
,
2000
0000
0000
3003
,
0001
0000
1000
0000
0100
0000
0000
0100
0010
0000
0000
0010
0001
0000
1000
0000
,
2001
0000
0000
0010
0000
0000
3001
0000
0000
0000
0011
0000
0000
0101
0000
0000
,
1020
0000
0000
0100
0000
0000
1030
0000
0000
0000
1001
0000
0000
1100
0000
0000
,
0021
0000
0000
0100
0000
0000
0031
0000
0000
0000
0011
0000
0000
0110
0000
0000
,
2100
0000
0000
0100
0000
0000
3001
0000
0000
0000
0101
0000
0000
1001
0000
0000
,
1020
0000
0000
0100
0000
0000
1030
0000
0000
0000
1100
0000
0000
0110
0000
0000
,
0021
0000
0000
0100
0000
0000
0031
0000
0000
0000
0011
0000
0000
0101
0000
0000
,
0120
0000
0000
1000
0000
0000
0130
0000
0000
0000
0110
0000
0000
1001
0000
0000
,
2100
0000
0000
0100
0000
0000
3010
0000
0000
0000
0101
0000
0000
1010
0000
0000
,
1001
0000
0000
0000
0001
0000
0100
0000
0020
0000
1000
0000
0000
1030
0000
0000
,
2001
0000
0000
0001
0000
0000
3010
0000
0000
0000
1100
0000
0000
0110
0000
0000
,
0021
0000
0000
0031
0200
0000
0000
0310
2000
0000
0000
3100
0020
0000
0000
0031
,
2000
0000
0000
3010
0200
0000
0000
0310
2000
0000
0000
3100
0020
0000
0000
0130
,
2000
0000
0000
3001
2000
0000
0000
0000
3000
0000
0011
0000
0000
1100
0000
0000
,
1002
0000
0000
0100
0000
0000
0013
0000
0000
0000
1001
0000
0000
1100
0000
0000
,
0021
0000
0000
0100
0000
0000
0031
0000
0000
0000
0011
0000
0000
0101
0000
0000
,
1020
0000
0000
1000
0000
0000
0130
0000
0000
0000
1001
0000
0000
0110
0000
0000
,
1001
0000
0010
0010
0020
0000
0000
0000
,
0030
0000
0000
0000
;

//--------------- dance-double - Pandemonium X ----------------
#NOTES:
     dance-double:
     Pandemonium X:
     Easy:
     3:
     0,0,0,0,0:
00000000
00000000
00000000
00000000
,
00000000
00000000
00000000
00000000
,
00000000
00000000
00000000
00000000
,
00000000
00000000
00000000
00000000
,
00001000
00000000
00000000
00000000
,
01000000
00000000
00000000
00000000
,
00010000
00000000
00000000
00000000
,
00100000
00000000
00000000
00000000
,
01000000
00000000
00000000
00000000
,
10000000
00000000
00000000
00000000
,
00010000
00000000
00000000
00000000
,
01000000
00000000
00000000
00000000
,
00010000
00000000
00000000
00000000
,
00100000
00000000
00000000
00000000
,
00001000
00000000
00000000
00000000
,
00010000
00000000
00000000
00000000
,
00000100
00000000
00000000
00000000
,
00001000
00000000
00000000
00000000
,
00000010
00000000
00000000
00000000
,
00000100
00000000
00000000
00000000
,
00000002
00000000
00000000
00000000
,
00000000
00000000
00000000
00000003
,
00000100
00000010
00000100
00000001
,
00000100
00000010
00000100
00000001
,
00000100
00000010
00000000
00000000
,
00001000
00000100
00001000
00000100
,
00020000
00000000
00000000
00030000
,
00000000
00000000
00000000
00000000
,
00011000
00000000
00000000
00000000
,
02000000
00000000
00000000
03000000
,
00100000
10000000
01000000
10000000
,
00100000
10000000
01000000
10000000
,
00100000
01000000
00000000
00000000
,
00100000
10000000
00100000
10000000
,
02000000
00000000
00000000
03000000
,
00000000
00000000
00000000
00000000
,
10010000
00000000
00000000
00000000
,
00020000
00000000
00000000
00030000
,
00100000
00001000
00010000
00001000
,
00100000
00010000
00100000
00001000
,
00010000
00000010
00000000
00000000
,
00000100
00000010
00000100
00000010
,
00002000
00000000
00000000
00000000
,
00003100
00000000
00000100
00000000
,
00010000
00000000
00000000
00001000
,
01000000
00000000
00000000
00100000
,
10000000
01000000
10000000
01000000
,
00100000
00010000
00100000
00010000
,
00100000
00002000
00000000
00000000
,
00013000
00000000
00000100
00001000
,
00000010
00000000
00000100
00000001
,
00001000
00000000
00000100
00010000
,
00001000
01000000
01000000
00000000
,
00100000
10000000
01000000
00000000
,
00100000
00010000
01000000
00010000
,
00100000
00010000
01000000
00010000
,
00100000
00010000
00000000
00100000
,
00000000
00001000
00000000
00010000
,
00000100
00001000
00000000
00000010
,
00000100
00000000
00000010
00000000
,
00020000
00000000
00000000
00000000
,
00000000
00000000
00000000
00000000
,
00030000
00000000
00000000
00000000
;

//--------------- dance-double - Pandemonium X ----------------
#NOTES:
     dance-double:
     Pandemonium X:
     Medium:
     7:
     0,0,0,0,0:
00000000
00000000
00000000
00000000
,
00000000
00000000
00000000
00000000
,
00000000
00000000
00000000
00000000
,
00000000
00000000
00000000
00000000
,
00001000
00000000
00000000
00001000
00000000
00000000
00100000
00000000
00000000
00000000
00010000
00000000
00000000
00010000
00000000
00000000
,
00100000
00000000
00000000
00100000
00000000
00000000
00100000
00000000
00000000
00000000
00000000
00000000
00010000
00000000
00000000
00000000
,
00000000
10000000
00000000
01000000
,
00000000
00000000
00000000
00000000
00100000
00000000
00000000
00000000
00000000
00000000
00010000
00000000
00000000
00010000
00000000
00000000
,
00100000
00000000
00000000
00100000
00000000
00000000
00100000
00000000
00000000
00000000
00001000
00000000
00000000
00010000
00000000
00000000
,
00000100
00000000
00000000
00000100
00000000
00000000
00000100
00000000
00000000
00000000
00000000
00000000
00001000
00000000
00000000
00000000
,
00000000
00000010
00000000
00000100
,
00000000
00000000
00000000
00000000
00001000
00000000
00000000
00000000
00000000
00000000
00000100
00000000
00000000
00000100
00000000
00000000
,
00000010
00000000
00000000
00000010
00000000
00000000
00000010
00000000
00000000
00000000
00001000
00000000
00000000
00000100
00000000
00000000
,
00010000
00000000
00000000
00010000
00000000
00000000
00010000
00000000
00000000
00000000
00000000
00000000
00001000
00000000
00000000
00000000
,
00000000
01000000
00000000
00010000
,
00000000
00000000
00000000
00000000
10000000
00000000
00000000
00000000
00000000
00000000
01000000
00000000
00000000
01000000
00000000
00000000
,
00100000
00000000
00000000
00100000
00000000
00000000
00100000
00000000
00000000
00000000
00001000
00000000
00000000
00010000
00000000
00000000
,
00000100
00000000
00000000
00000100
00000000
00000000
00000100
00000000
00000000
00000000
00000000
00000000
00001000
00000000
00000000
00000000
,
00000000
00000010
00000000
00000100
,
00000000
00000001
00000000
00001000
,
00000001
00000000
00000100
00000100
00000100
00000000
00000000
00000010
,
00001000
00000200
00000000
00000000
00000000
00000000
00000000
00000000
,
00010300
00001000
01000000
00001000
,
00010000
00000100
00010000
00001000
,
01000000
00010000
00000000
10000000
,
01000000
01000000
01000000
01000000
,
20020000
00000000
00000000
30030000
,
00000000
00000000
00000000
00000000
,
01020000
00000000
10000000
10000000
10030000
00000000
00000000
01000000
,
00100000
00002000
00000000
00000000
00000000
00000000
00003000
00000000
,
00010000
00000100
00010000
00001000
,
01000000
00001000
00010000
00000100
,
00010000
00001000
00000000
00010000
,
00000010
00000100
00000001
00001000
,
00002002
00000000
00000000
00003003
,
00001000
00000000
00000001
00000000
00000000
00000001
00001000
00000000
,
00010200
00000000
00010000
00010000
00010300
00000000
00000000
00010000
,
00001000
02000000
00000000
00000000
00000000
00000000
03000000
00000000
,
00100000
00010000
00100000
10000000
,
01000000
00100000
00010000
00001000
,
00010000
00000100
00000000
00001000
,
00000010
00000100
00000001
00000010
,
00002002
00000000
00000000
00003003
,
00000001
00001000
00000100
00000010
,
00000001
00000000
00000000
00000001
00000000
00000000
00000001
00000000
00000000
00000000
00000010
00000000
00000000
00000001
00000000
00000000
,
00000100
00000000
00000000
00000100
00000000
00000000
00000100
00000000
00000000
00000000
00000010
00000000
00000000
00001000
00000000
00000000
,
00000200
00020300
00032000
02003000
,
03020000
00230000
02300000
23000000
,
30020000
00000000
00000000
00000000
20030000
00000000
00000000
00000000
30000000
00000000
00010000
00000000
00000000
00010000
00000000
00000000
,
10000000
00000000
00000000
10000000
00000000
00000000
10000000
00000000
00000000
00000000
00100000
00000000
00000000
00100000
00000000
00000000
,
01000000
00000000
00000000
01000000
00000000
00000000
01000000
00000000
00000000
00000000
00010000
00000000
00000000
00010000
00000000
00000000
,
00100000
00000000
00000000
00100000
00000000
00000000
00100000
00000000
00000000
00000000
00001000
00000000
00000000
00001000
00000000
00000000
,
00010000
00000000
00000000
00010000
00000000
00000000
00000100
00000000
00000000
00000000
00001000
00000000
00000000
00001000
00000000
00000000
,
00000010
00000000
00000000
00000010
00000000
00000000
00000100
00000000
00000000
00000000
00000001
00000000
00000000
00000001
00000000
00000000
,
00002000
00003200
00020300
00032000
,
02003000
03020000
00230000
02300000
,
23000000
00000000
00000000
00000000
30020000
00000000
00000000
00000000
00030000
00000000
10000000
00000000
00000000
10000000
00000000
00000000
,
00010000
00000000
00000000
00010000
00000000
00000000
00100000
00000000
00000000
00000000
00001000
00000000
00000000
00001000
00000000
00000000
,
00010000
00000000
00000000
00010000
00000000
00000000
00000100
00000000
00000000
00000000
00001000
00000000
00000000
00001000
00000000
00000000
,
00000010
00000000
00000000
00000010
00000000
00000000
00000100
00000000
00000000
00000000
00000010
00000000
00000000
00000100
00000000
00000000
,
00002002
00000000
00000000
00000000
,
00003003
00000000
00000000
00000000
;

//--------------- dance-double - Pandemonium X ----------------
#NOTES:
     dance-double:
     Pandemonium X:
     Hard:
     11:
     0,0,0,0,0:
00000000
00000000
00000000
00000000
,
00000000
00000000
00000000
00000000
,
00000000
00000000
00000000
00000000
,
00000000
00000000
00000000
00000000
00000000
00000000
00000000
00000000
00000000
00000000
00000000
00000000
00010000
00000100
00000000
00000100
,
00001000
00000000
00000000
00000100
00000000
00000000
00000100
00000000
00000000
00000000
00000010
00000000
00000000
00000001
00000000
00000000
,
00001000
00000000
00000000
00001000
00000000
00000000
00001000
00000000
00000100
00000000
00000000
00000000
00010000
00000000
00000000
00000000
,
00001000
01000000
00010000
00100000
,
01000000
00000000
00000000
00000000
10000000
00000000
00000000
00000000
00010000
00000000
10000000
00000000
00000000
01000000
00000000
00000000
,
00100000
00000000
00000000
00100000
00000000
00000000
00010000
00000000
00000000
00000000
01000000
00000000
00000000
00010000
00000000
00000000
,
00100000
00000000
00000000
00001000
00000000
00000000
00001000
00000000
00010000
00000000
00000000
00000000
00001000
00000000
00000000
00000000
,
00010000
00000100
00001000
00000010
,
00001000
00000000
00000000
00000000
00000001
00000000
00000000
00000000
00000010
00000000
00000100
00000000
00000000
00000010
00000000
00000000
,
00000001
00000000
00000000
00000001
00000000
00000000
00001000
00000000
00000000
00000000
00000100
00000000
00000000
00010000
00000000
00000000
,
00001000
00000000
00000000
00001000
00000000
00000000
00010000
00000000
00001000
00000000
00000000
00000000
01000000
00000000
00000000
00000000
,
00010000
00100000
01000000
00100000
,
00010000
00000000
00000000
00000000
10000000
00000000
00000000
00000000
00100000
00000000
10000000
00000000
00000000
00010000
00000000
00000000
,
00100000
00000000
00000000
00100000
00000000
00000000
00001000
00000000
00000000
00000000
00010000
00000000
00000000
00000100
00000000
00000000
,
00001000
00000000
00000000
00001000
00000000
00000000
00000010
00000000
00000100
00000000
00000000
00000000
00000001
00000000
00000000
00000000
,
00000010
00000001
00001000
00000100
,
00010000
00001000
01000000
00100000
,
10010000
00000000
00010000
00010000
00000000
00000000
00000000
10000000
,
01000000
00100000
00000000
00000000
00000000
00000000
00000000
00000000
,
02000000
03200000
00320000
00032000
,
00003200
00000320
00000032
00000203
,
00002300
00023000
00000000
00030200
,
00002300
00003020
00000032
00000023
,
00000200
00000000
00000000
00000330
,
00000000
00000000
00000000
00000000
,
00000201
00000000
00000010
00000310
00000000
00000000
00000000
00000010
,
00001000
00000020
00000000
00000000
00000000
00000000
00000030
00000000
,
00000200
00002300
00023000
00230000
,
20300000
32000000
03200000
00320000
,
00032000
00023000
00000000
00032000
,
00023000
00032000
02000000
03023000
,
20000000
00000000
00000000
30030000
,
10000000
00000000
00010000
00000000
00000000
10000000
00010000
00000000
,
20000000
00000000
00100000
00100000
00000000
00000000
00000000
30010000
,
00100000
02000000
00000000
00000000
00000000
00000000
00000000
00000000
,
03200000
00320000
00032000
00003200
,
00000320
00000032
00000203
00002300
,
00023000
00032000
00000000
00203000
,
00320000
02030000
03020000
20030000
,
01000000
00000000
30010000
00000000
,
10000000
00000000
00000000
00010000
10000000
00000000
00000000
10000000
00100000
00000000
01000000
00000000
00010000
00000000
10000000
00000000
,
10010000
00000000
00000000
00010000
00000000
00000000
00100000
00000000
00000000
00000000
00011000
00000000
00000000
00010000
00000000
00000000
,
00010100
00000000
00000000
00000100
00000000
00000000
00001000
00000000
00000000
00000000
00001010
00000000
00000000
00000010
00000000
00000000
,
00000200
00002300
00023000
00230000
,
02300000
23000000
32000000
03020000
,
00032000
00000000
00000000
00000000
00003200
00000000
00000000
00000000
00000000
00000000
00001000
00000000
00000000
00001300
00000000
00000000
,
00001100
00000000
00000000
00001000
00000000
00000000
00000001
00000000
00000000
00000000
00000101
00000000
00000000
00000001
00000000
00000000
,
00000011
00000000
00000000
00000010
00000000
00000000
00000001
00000000
00000000
00000000
00000101
00000000
00000000
00000100
00000000
00000000
,
00001010
00000000
00000000
00000010
00000000
00000000
00001000
00000000
00000000
00000000
00001100
00000000
00000000
00000100
00000000
00000000
,
00021000
00000000
00000000
00001000
00000000
00000000
00000100
00000000
00000000
00000000
00001000
00000000
00000000
00031000
00000000
00000000
,
00012000
00000000
00000000
00100000
00000000
00000000
00010000
00000000
00000000
00000000
00100000
00000000
00000000
00103000
00000000
00000000
,
00021000
00000000
00000000
00000010
00000000
00000000
00001000
00000000
00000000
00000000
00000010
00000000
00000000
00000010
00030000
00000000
,
00012000
00000000
00000000
00010000
00000000
00000000
00010000
00000000
00000000
00000000
00100000
00000000
00000000
00013000
00000000
00000000
,
00120000
00000000
00000000
01000000
00000000
00000000
10030000
00000000
00000000
00000000
11000000
00000000
00000000
00110000
00000000
00000000
,
10020000
00000000
00000000
01000000
00000000
00000000
00130000
00000000
00000000
00000000
10010000
00000000
00000000
00110000
00000000
00000000
,
00102000
00000000
00000000
00010000
00000000
00000000
01003000
00000000
00000000
00000000
00011000
00000000
00000000
00001100
00000000
00000000
,
00020100
00000000
00000000
00001000
00000000
00000000
00030010
00000000
00000000
00000000
00001010
00000000
00000000
00000101
00000000
00000000
,
00002001
00000000
00000001
00000001
00000002
00000000
00000000
00000000
,
00003003
00000000
00000000
00000000
;
