#TITLE:Valgus;
#SUBTITLE:;
#ARTIST:DJ Myosuke feat.Yukacco;
#TITLETRANSLIT:;
#SUBTITLETRANSLIT:;
#ARTISTTRANSLIT:;
#GENRE:;
#CREDIT:;
#MUSIC:Valgus.ogg;
#BANNER:Valgus.png;
#BACKGROUND:Valgus-bg.png;
#CDTITLE:cdtitle.png;
#SAMPLESTART:76.011;
#SAMPLELENGTH:11.000;
#SELECTABLE:YES;
#OFFSET:2.160;
#BPMS:0.000=87.500
,20.000=175.000
,88.000=87.500
,121.000=43.750
,122.500=175.000
;
#STOPS:20.000=1.029
,40.500=0.343
,88.000=2.057
,122.500=0.514
,155.000=1.029
,235.500=0.343
,282.500=0.343
;
#ORIGIN:;
#TAGS:;
#PREVIEWVID:;
#JACKET:Valgus-jacket.png;
#CDIMAGE:;
#DISCIMAGE:;
#BGCHANGES:;
#FGCHANGES:;

//--------------- dance-single - Pandemonium X ----------------
#NOTES:
     dance-single:
     Pandemonium X:
     Beginner:
     5:
     0.2417,0.335613,0.284619,0.015812,0,214,178,36,2,0,0,0,0,0,0.2417,0.335613,0.284619,0.015812,0,214,178,36,2,0,0,0,0,0:
0000
0000
0000
0000
,
0000
0000
0000
0000
,
0000
0000
0000
0000
,
0000
0000
0000
0000
,
0000
0000
0000
0000
,
0000
0001
1000
0110
,
1001
0001
0000
1000
,
0000
0100
0000
1000
,
0010
0100
0000
0010
,
0000
0100
0100
0100
,
0001
1001
1001
0001
,
1000
0000
0001
0010
,
0100
0000
0010
0000
,
0001
0000
1000
0000
,
0010
0100
0010
0000
,
0100
0001
0100
0000
,
0001
0010
0001
0000
,
1001
0000
0110
0000
,
0000
1000
1000
0000
,
0202
0000
0000
0303
,
1000
0000
0100
0000
,
0010
0100
1000
0001
,
0110
1000
0000
0100
,
0000
0010
0000
0001
,
0000
0100
0000
0010
,
0000
1000
0000
0001
,
1000
0000
1001
0000
1000
0000
0001
1000
,
0000
0000
1001
0000
1000
0000
0001
1000
,
0000
0000
1001
0000
1000
0000
0001
1000
,
0000
1001
1000
0001
,
1000
0110
0000
0100
,
0000
0010
0000
1000
,
1000
1000
0000
0001
,
0000
0010
0000
0100
,
0100
0100
0000
0010
,
0010
0010
0000
0001
,
0001
0001
0000
1000
,
0000
0001
0000
0110
,
0000
1001
0000
0000
,
0001
0000
1000
0000
,
0100
1000
0100
0000
,
0010
0000
0001
0000
,
0100
0010
0100
0010
,
1000
0000
0001
0000
,
0010
0010
0001
0000
,
1000
0000
0100
0000
,
0110
0000
1001
0000
,
0101
0000
0001
0000
,
1000
0010
0100
0000
,
1010
0000
0010
0000
,
0100
0001
0010
0000
,
1100
0000
0100
0000
,
0010
0001
1000
0000
,
1001
0000
0110
0000
,
0001
0001
1000
1000
,
0010
0000
0100
0000
,
0001
1000
0001
0000
,
1000
0000
0100
0110
,
1001
0000
0110
0000
,
0001
0001
1000
1000
,
0001
1000
0000
0001
,
0000
0100
0000
0110
,
0000
1001
0000
1100
,
0000
0011
0000
0001
,
1000
0010
0100
0101
,
0000
1010
0000
1000
,
0001
0010
0010
0011
,
0000
1100
0000
0100
,
1000
0010
0100
0001
,
0001
1000
1000
0110
,
0000
1001
0000
0110
;

//--------------- dance-single - Pandemonium X ----------------
#NOTES:
     dance-single:
     Pandemonium X:
     Easy:
     8:
     0.346738,0.450646,0.347867,0.268807,0.007906,307,263,44,34,0,0,0,0,0,0.346738,0.450646,0.347867,0.268807,0.007906,307,263,44,34,0,0,0,0,0:
0000
0000
0000
0000
,
0000
0000
0000
0000
,
0000
0000
0000
0000
,
0001
0000
1000
0000
,
1000
0000
0100
0000
0010
0000
0001
1000
,
0000
0000
0001
1000
0001
1000
0002
0000
,
0023
0130
1000
0100
,
2000
3001
0100
0001
,
0120
0130
0010
0001
,
0100
0110
1001
0110
,
1001
0000
0001
1000
0001
0000
1000
0000
,
0100
0010
0100
2010
,
3010
0100
0001
0010
,
0110
1001
0110
0000
,
0001
0001
1000
0020
,
1030
1000
0001
0021
,
0130
0100
0010
0001
,
1001
0101
1001
1100
,
0000
1001
0100
0002
,
1003
1000
1000
1000
,
0001
1000
0100
1000
,
0010
0100
0001
1000
,
1001
1000
0100
1000
,
0010
0000
2000
0000
0000
0001
3001
0000
,
0010
0000
0200
0000
0000
0010
0310
0000
,
0100
0020
0000
0032
,
1003
0000
1001
0000
0010
0000
1001
1001
,
0000
0000
1001
0000
0100
0000
1001
1001
,
0000
0000
0001
0000
1010
0000
1100
1100
,
0000
0000
1000
0000
0011
0000
0101
0101
,
0000
0000
0000
0001
,
0000
1000
0000
0010
,
1000
0010
0000
0100
,
0000
0001
0000
0010
,
0001
1000
1000
1001
,
0001
0001
0001
1000
,
1000
1000
1000
0010
,
0100
0001
1000
1100
,
0000
0011
0000
0000
,
0001
0200
0301
0020
,
0130
0000
0010
0000
0100
0000
0010
0001
,
1000
0020
0130
0020
,
1030
0001
1100
0101
,
1001
2000
3010
2000
,
3001
0010
0100
0010
,
0001
2000
3010
0200
,
0301
0010
0100
1000
,
1001
0002
0013
0002
,
0103
0001
1000
0001
,
0010
0200
0310
0200
,
1300
0100
1000
0010
,
0100
0002
0013
0002
,
1003
0001
1000
0100
,
1000
0020
0130
0002
,
0103
0000
1010
0000
,
1001
0000
0001
0000
,
1000
1000
1000
0000
,
0001
0000
1000
1001
,
0110
1010
0101
0011
,
0002
0013
0002
1003
,
0001
0100
0001
1000
,
0200
0310
0200
1300
,
1000
0001
0001
1001
,
0001
0100
0001
0000
0100
0001
0100
0000
,
0001
0100
0010
1000
,
0100
1000
0100
0000
1000
0100
1000
0000
,
0100
1000
0010
0100
,
0010
0100
0001
0000
0100
0010
1000
0000
,
0001
1000
0100
0010
,
0100
0000
0000
0000
1000
0000
0000
0000
0001
0000
0000
0000
1000
0000
0000
1000
,
0000
0000
1000
0000
0001
0000
0000
0001
0000
0000
0001
0000
0220
0000
0000
0000
,
0000
0330
0000
0000
;

//--------------- dance-single - Pandemonium X ----------------
#NOTES:
     dance-single:
     Pandemonium X:
     Medium:
     13:
     0.556814,0.760466,0.648298,0.197652,0.300431,493,411,82,25,0,0,0,0,0,0.556814,0.760466,0.648298,0.197652,0.300431,493,411,82,25,0,0,0,0,0:
0000
0000
0000
0000
,
0000
0000
0000
0000
,
0000
0000
0000
0000
,
1000
0000
0000
0000
0000
0001
0100
0010
0100
0000
0000
0000
0010
1000
0100
0010
,
0001
0000
1000
0000
0010
0000
0010
1000
,
0000
0000
0000
0000
0001
0000
0100
0000
0010
0000
1000
0000
0001
1000
0001
1000
,
0001
1000
0001
1000
0001
0000
0000
0001
0000
0000
0001
0000
1000
0000
0000
2000
,
0000
0000
0000
0000
3100
0000
0000
0100
0000
0000
0010
0000
0001
0000
0000
1000
,
0010
0000
0000
0000
0100
0000
0000
0000
0010
0000
0000
0000
1000
0000
0000
0000
0000
0000
0000
0000
0000
1000
0000
0000
0000
0000
0000
0000
0000
0000
0001
0000
0000
0000
0000
0000
0010
0000
0000
0000
0000
0000
0000
0000
0000
0020
0000
0000
,
0000
0230
2300
3020
,
0031
0000
0010
0000
0101
0000
0001
0000
1000
0000
0000
1000
0000
0000
0100
0000
,
0010
0000
0000
0000
0000
0000
0000
0000
0000
0010
0000
0000
0000
0000
0000
0000
0000
0000
0100
0000
0000
0000
0000
0000
1000
0000
0000
0000
0000
0000
0000
0000
0000
0001
0000
0000
0100
0000
0000
0000
0010
0000
0000
0000
0100
0000
0000
0000
,
0001
0000
0000
0001
0000
0000
0001
0000
1000
0000
0000
1000
0000
0000
1000
0000
,
1100
0000
0000
0011
0000
0000
1100
0000
0000
0000
0000
0000
0000
0000
0000
0000
,
0001
0000
0100
0000
0010
0000
1000
0000
0100
0000
0000
0020
0000
0000
0000
0000
,
0130
0000
0000
0000
0000
0000
0000
0000
0000
1000
0000
0000
0000
0000
0000
0000
0000
0000
0001
0000
0000
0000
0000
0000
0100
0000
0000
0000
0000
0000
0000
0000
0000
0010
0000
0000
1000
0000
0000
0000
0001
0000
0000
0000
1000
0000
0000
0000
,
0001
0000
0000
0010
0000
0000
0001
0000
1000
0000
0000
0100
0000
0000
0010
0000
,
0200
0000
2300
0000
3020
0000
0130
0001
,
1002
0000
0000
0000
0103
0000
0010
0000
1000
0000
0000
0001
0000
0000
0010
0000
,
0110
0000
0000
0110
0000
0000
1001
0000
0000
0110
0000
0000
2001
0000
0000
0000
,
3100
0000
0000
0100
0000
0000
0010
0000
0001
0000
0000
0001
0000
0000
1000
0000
,
1010
0000
0000
0101
0000
0000
0011
0000
0000
1010
0000
0000
1001
0000
0000
0000
,
0110
0000
0001
0100
1000
0100
0001
0010
,
1000
0010
0002
0000
0000
1000
2003
0000
,
3001
0100
0020
0000
0000
1000
2030
0000
,
3010
0100
0002
0000
0000
0000
0023
0000
,
0130
0000
0000
0010
0000
0000
1001
0000
0000
0001
0100
0001
0100
0000
0000
0001
0100
0001
0100
0000
0000
0101
0000
0000
,
0000
0000
0000
0000
0000
0000
1001
0000
0000
1000
0010
1000
0010
0000
0000
1000
0010
1000
0010
0000
0000
1010
0000
0000
,
0200
0000
0000
0000
0300
0000
1001
0000
0000
0001
0010
0001
0010
0000
0000
0001
0010
0001
0010
0000
0000
0011
0000
0000
,
0000
0000
0000
0000
0000
0000
1001
0000
0000
1000
0100
1000
0100
0000
0000
1000
0100
1000
0100
0000
0000
0000
0000
0000
,
0010
0100
0000
1000
,
0002
0103
0002
1003
,
0100
0000
0001
0000
0100
1000
0010
0000
,
0002
0013
0200
0301
,
1000
0000
0000
0000
0001
0000
0000
0001
0000
0000
0001
0000
1001
0000
0000
0000
,
1001
0101
0101
0011
,
0011
0000
1100
0000
1100
0000
0001
0001
,
0100
0000
0100
0000
0010
0000
0010
0000
1000
0000
0001
0000
1001
0000
0000
1010
,
0000
0000
1001
0000
0011
0000
0000
1001
0000
0000
1010
0000
0000
0000
0000
0000
,
0101
0000
0001
0100
1000
0000
1000
0100
,
0101
0000
1100
0000
1001
0000
0001
0001
,
0011
0000
0001
0010
1000
0000
1000
0010
,
0011
0000
0000
0000
1100
0000
0000
0000
1001
0000
0000
0001
0000
0000
1000
0000
,
1010
0000
1000
0010
0001
0000
0001
0100
,
1000
0000
1100
0000
0101
0000
0001
1000
,
1100
0000
1000
0100
0001
0000
0001
0100
,
1100
0000
0000
0011
0000
0000
0001
0000
0101
0000
0000
1010
0000
0000
0010
0000
,
1001
0000
1000
1000
0100
0000
0010
0010
,
0011
0000
0011
0000
1100
0000
0001
0100
,
0010
0000
0100
0100
0101
0000
1000
1000
,
1010
0000
0000
0000
0110
0000
0000
0000
2001
0000
0000
0001
0000
0000
3001
0000
,
1001
0000
0001
0010
1000
0000
0010
0010
,
0011
0000
1100
0000
0011
0000
0001
0100
,
1000
0000
1000
0100
0001
0000
0100
0010
,
1000
0000
0000
1000
0000
0000
1000
0000
0001
0000
0000
0001
0000
0000
0001
0000
,
0110
0100
1000
1000
,
0001
0001
0100
0100
,
0010
0010
1000
1000
,
1001
0000
0000
0000
0101
0000
0000
0000
1001
0000
0000
1100
0000
0000
0011
0000
,
0001
0010
0100
0000
0010
0100
1000
0000
,
0100
0000
1000
0000
0010
0100
0010
0000
,
0100
0000
0001
0000
1000
0000
0000
0000
0001
0000
0010
0000
0100
0000
0000
0100
,
0000
0000
0100
0000
0010
0000
0000
0010
0000
0000
0010
0000
0011
0000
0000
0000
,
0001
0100
1000
0100
0001
1000
1010
0000
,
1100
0000
0011
0000
0010
0100
1000
0100
,
0001
0100
1000
0001
0100
0010
1010
0000
,
0101
0000
0000
0000
1001
0000
0000
0001
0000
0000
1000
0000
1010
0000
0000
0000
,
1000
0100
0001
0000
1000
0010
0001
0000
,
0011
0000
1010
0000
0001
0100
0010
1000
,
0001
0000
0010
0000
0100
1000
0100
1000
0100
1000
0100
1000
0100
0000
0100
0010
,
0000
0010
0001
0000
1000
0000
0001
0100
0000
0100
0010
0000
2002
0000
0000
0000
,
0000
3003
0000
0000
;

//--------------- dance-single - Pandemonium X ----------------
#NOTES:
     dance-single:
     Pandemonium X:
     Hard:
     16:
     0.701382,0.7323,0.648298,0.166028,0.616674,621,539,82,21,0,0,0,0,0,0.701382,0.7323,0.648298,0.166028,0.616674,621,539,82,21,0,0,0,0,0:
0000
0000
0000
0000
,
0000
0000
0000
0000
,
0000
0000
0000
0000
,
0101
0000
0000
0000
0000
0001
0010
0100
0010
0000
0000
0000
0100
0010
0100
1000
,
0001
0000
1000
0000
0010
0000
1000
0001
,
0000
0000
0000
0000
0101
0000
1010
0000
0101
0000
1010
0000
0001
0100
0010
1000
,
0001
0010
0100
1000
0001
0000
1000
0100
0000
1000
0100
0000
1000
0000
0010
0200
,
0000
0000
0000
0000
0301
0000
0010
0100
0000
0010
0100
0000
1000
0000
0001
0100
,
0001
0000
0000
0000
1000
0000
0000
0000
0001
0000
0000
0000
0010
0000
0000
0000
0000
0000
0001
0000
0000
1000
0000
0000
0000
0000
0000
0001
0000
0000
1000
0000
0000
0000
0000
0000
0100
0000
0000
0000
0000
0000
1000
0000
0000
0020
0000
0000
,
0000
0000
0130
0000
1001
0000
0000
1000
0100
0000
0000
0100
0010
0000
0000
0010
,
0001
0000
0100
0000
1001
0000
1001
0000
1001
0000
0001
0100
0000
0001
0010
0000
,
0100
0000
0000
0000
0000
0000
0010
0000
0000
0001
0000
0000
0000
0000
0000
0010
0000
0000
0100
0000
0000
0000
0000
0000
0001
0000
0000
0000
0000
0000
1000
0000
0000
0010
0000
0000
0100
0000
0000
0000
0001
0000
0000
0000
0010
0000
0000
0000
,
0001
0000
1000
0010
0000
0100
0010
0000
1000
0000
0100
0010
0000
0100
1000
0100
,
1000
0000
0000
0011
0000
0000
0101
0000
0000
0000
0010
0000
1002
0000
0000
0000
,
0103
0000
0101
0000
1010
0000
1000
0000
0010
0100
0000
0001
2000
0000
0000
0000
,
3100
0000
0000
0000
0000
0000
0010
0000
0000
0001
0000
0000
0000
0000
0000
0010
0000
0000
0100
0000
0000
0000
0000
0000
1000
0000
0000
0000
0000
0000
0100
0000
0000
0010
0000
0000
0001
0000
0000
0000
1000
0000
0000
0000
0100
0000
0000
0000
,
1000
0000
0001
0100
0000
0010
0100
0000
0010
0000
1000
0200
0000
0000
0310
0000
,
1001
0000
0000
1000
0100
0000
0000
0010
0001
0000
0000
0000
1000
0000
0010
0000
,
0200
0000
0000
0000
0301
0000
0011
0000
1100
0000
1000
0100
0000
1000
0010
0000
,
0101
0000
0000
0011
0000
0000
0101
0000
0000
1010
0000
0000
1002
0000
1000
0000
,
1003
0000
0000
0100
0000
0000
0010
0000
0110
0000
0010
0001
0100
0010
0100
0010
,
1000
0000
0000
1010
0000
0000
0101
0000
0000
0011
0000
0000
0020
0000
0230
0000
,
1300
0000
0001
1000
0010
1000
0100
0010
,
0001
0010
0002
0000
0000
0100
0200
0303
,
0010
0100
0002
0000
0000
1000
2000
3003
,
0100
1000
0020
0000
0000
0000
0130
0000
,
0010
0000
0000
1000
0000
0000
1001
0000
0000
0001
1000
0100
0010
0000
0000
0100
1000
0010
0100
0000
0000
1001
0000
0000
,
0000
0000
0000
0000
0000
0000
1001
0000
0000
1000
0001
0100
0010
0000
0000
0100
0001
0010
0100
0000
0000
1001
0000
0000
,
0000
0000
0000
0000
0000
0000
1001
0000
0000
0001
1000
0010
0100
0000
0000
0010
1000
0100
0010
0000
0000
1001
0000
0000
,
0000
0000
0000
0000
0000
0000
1001
0000
0000
1000
0001
0010
0100
0000
0000
0010
0001
0100
0010
0000
0000
1001
0000
0000
,
2000
3010
0000
1001
,
0001
0100
0001
0100
0001
0000
0000
0000
1000
0100
1000
0100
1000
0000
0000
0000
,
0100
0000
1000
0000
0001
0100
0001
0000
,
1000
0010
1000
0010
1000
0000
0000
0000
0001
0010
0001
0010
0001
0000
0000
0000
,
1000
0000
0000
0000
0001
0000
0000
0001
0000
0000
0001
1000
0100
0000
0000
0000
,
1100
0011
0011
0101
,
0101
0000
1010
1000
1100
0100
0110
0010
,
0001
0000
0001
0000
0100
0010
0100
0010
1000
0001
0010
0001
1000
0000
0000
0011
,
0000
0000
0001
0000
0100
0000
0000
1010
0000
0000
0110
0000
0000
0000
0000
0000
,
1001
0000
0000
0000
0001
0100
0001
0010
0001
0000
0000
0000
1000
0010
0100
0010
,
1000
0000
0100
0000
0001
0000
0100
1000
,
0010
0000
0000
0000
1000
0100
1000
0010
0100
0000
0000
0000
0001
0100
0010
0100
,
0001
0000
0000
0000
0010
0000
0000
0000
0100
0000
0000
0010
0000
0000
0100
0000
,
1100
0000
0000
0000
0100
0010
0001
0010
0100
0000
0000
0000
0010
0100
1000
0100
,
0010
0000
0001
0000
0100
0000
1000
0100
,
0001
0000
0000
0000
1000
0100
0010
0100
1000
0000
0000
0000
0001
0010
0100
0010
,
0001
0000
0000
1010
0000
0000
1000
0000
1100
0000
0000
0011
0000
0000
1100
0000
,
1001
0000
0000
0000
0001
0100
0010
1000
0001
0000
0000
0000
1000
0010
0100
0001
,
1000
0000
1100
0000
0011
0000
0001
1000
,
0110
0000
0000
0000
0001
0100
0010
1000
0001
0000
0000
0000
1000
0010
0100
0001
,
0010
0000
0010
0000
0010
0000
0000
0000
0001
0000
0000
0011
0000
0000
0100
0000
,
1001
0000
0000
0000
1000
0100
0010
0001
1000
0000
0000
0000
0001
0010
0100
1000
,
0001
0000
0101
0000
1010
0000
1000
0001
,
1000
0000
0100
0000
0010
0000
1000
0000
0010
0000
0001
0000
1000
0010
0100
0001
,
1000
0000
0000
0001
0000
0000
0010
0000
0001
0000
0000
0100
0000
0000
0010
0000
,
1000
0000
0001
0100
1000
0000
1000
0100
,
0001
0000
1000
0000
0100
0000
0001
0100
,
1000
0000
1000
0010
0001
0000
1001
0110
,
1001
0000
0000
0000
1100
0000
0000
0000
1010
0000
0000
0101
0000
0000
0110
0000
,
0001
1000
0100
1000
0001
0000
0000
0000
1000
0010
0100
0010
1000
0000
0000
0000
,
1100
0000
1010
0000
1001
0010
1001
1000
,
0100
0010
0001
1000
0100
0000
0000
0000
0010
0100
1000
0001
2000
0000
0000
3100
,
0000
0000
0010
0000
0002
0000
0000
0023
0000
0000
0130
0000
1001
0000
1000
0000
,
0001
0100
0010
1000
0100
0000
0010
0000
0100
0010
0001
1000
0010
0000
0001
0000
,
0010
1000
0100
0002
0103
0010
0001
1000
,
0010
1000
0001
0010
0100
0000
0010
0000
0001
0010
0001
1000
0100
0000
1000
0000
,
0100
0000
0010
0000
0011
0000
0000
1010
0000
0000
1001
0000
1000
0000
0001
0000
,
1000
0100
0010
0001
1000
0000
0001
0000
1000
0001
0100
0010
1000
0000
0100
0000
,
0010
0000
0000
0000
0000
0000
0001
0000
0000
1000
0001
1000
0001
0000
0000
1000
0000
0000
0010
0000
0000
0010
0000
0000
,
0100
0000
0100
0000
0010
1000
0001
0010
0100
0010
0001
0000
0101
0000
0000
0110
,
0000
0000
1010
0000
1100
0000
0000
0110
0000
0000
0011
0000
0220
0000
0000
0000
,
0000
0330
0000
0000
;

//--------------- dance-double - Pandemonium X ----------------
#NOTES:
     dance-double:
     Pandemonium X:
     Easy:
     9:
     0.361421,0.506977,0.419022,0.158122,0,320,267,53,20,0,0,0,0,0,0.361421,0.506977,0.419022,0.158122,0,320,267,53,20,0,0,0,0,0:
00000000
00000000
00000000
00000000
,
00000000
00000000
00000000
00000000
,
00000000
00000000
00000000
00000000
,
10010000
00000000
00100000
00000000
,
00001000
00000000
00010000
00000000
00000100
00000000
00001000
00001000
,
00000000
00000000
00000001
00000100
00000010
00001000
00000200
00000000
,
00020300
00031000
01000000
00100000
,
20000000
30010000
01000000
00010000
,
10020000
10030000
00100000
01000000
,
00010000
00110000
00000000
00011000
,
00000000
00010100
00000100
00001000
,
00000010
00000100
00000001
00000120
,
00000130
00000010
00000001
00001000
,
00001100
00000000
00001100
00000000
00000100
00010000
00002000
00000000
,
01003000
00100000
10000000
00020000
,
00130000
00001000
00010000
00002100
,
00003010
00000100
00000001
00001000
,
00001200
00020300
00032000
02003000
,
03000000
01100000
01000000
00010000
,
00110000
00101000
00011000
00010010
,
00001010
00000010
00000100
00000001
,
00002000
00003200
00020300
00031000
,
00011000
00001000
01000000
00100000
,
10000000
00000000
01000000
00000000
00000000
00100000
00100000
00000000
,
01000000
10000000
00010000
00000000
00000000
10000000
10000000
00000000
,
00010000
00100000
01000000
00000000
00000000
00000000
10000000
00000000
,
01000000
00100000
00110000
00000000
00011000
00000000
00001100
00001100
,
00000000
00000000
00000110
00000000
00000011
00000000
00000101
00000101
,
00000000
00000000
00001001
00000000
00001010
00000000
00010100
00010100
,
00000000
00011000
01001000
00200000
,
20300000
30010000
00000000
10000000
,
00000000
01000000
00000000
00010000
,
00001000
00000100
00000000
00001000
,
00000000
00000010
00000000
00000001
,
00000010
00001000
00000000
00001010
,
00000000
00001001
00000000
00001100
,
00000000
00010100
00000000
00000100
,
00001000
00010000
00100000
01100000
,
00000000
10010000
00000000
00000000
,
10000000
00010000
00100000
00001000
,
00010000
00000000
00000100
00000000
00001000
00000000
00000010
00001000
,
00000010
00001000
00000010
00000100
,
00000001
00000010
00000110
00000100
,
00001100
00000100
00010000
00001000
,
01000000
00000000
00100000
00000000
10000000
00000000
00010000
00100000
,
01000000
00100000
00001000
00010000
,
00010100
00000000
00011000
00000000
,
01001000
01000000
00100000
10000000
,
00010000
00000000
00100000
00000000
00001000
00000000
00010000
00000100
,
00010000
00000100
00001000
00000010
,
00000100
00000001
00000010
00000000
00000200
00000000
00001000
00000000
,
00010300
00001000
01000000
00100000
,
10000000
01000000
00100000
00000000
01000000
00000000
10000000
00000000
,
00010000
00100000
00001000
00010000
,
00011000
00000000
00010100
00000000
,
00001000
00001000
00001000
00001000
,
00000001
00000001
00000001
00000001
,
00000100
00000100
00000100
00000110
,
00001001
00001010
00001100
00011000
,
00001000
01000000
00001000
00000000
01000000
00100000
01000000
00000000
,
00100000
10000000
00010000
00100000
,
01000000
10000000
01000000
00000000
01000000
00100000
01000000
00000000
,
10000000
00010000
00100000
00001000
,
00010000
00000100
00001000
00000000
00001000
00000100
00010000
00000000
,
00001000
01000000
00100000
10000000
,
00010000
00100000
00001000
00000000
00001000
00100000
00010000
00000000
,
00100000
00010000
01000000
01100000
,
01000000
00100000
10000000
00000000
00010000
00100000
01000000
00000000
,
10000000
01000000
00100000
00001000
,
00010000
00000100
00001000
00001100
,
00000000
01001000
00000000
00022000
,
00000000
00033000
00000000
00000000
;

//--------------- dance-double - Pandemonium X ----------------
#NOTES:
     dance-double:
     Pandemonium X:
     Medium:
     13:
     0.577144,0.760466,0.711547,0.213464,0.284619,511,421,90,27,0,0,0,0,0,0.577144,0.760466,0.711547,0.213464,0.284619,511,421,90,27,0,0,0,0,0:
00000000
00000000
00000000
00000000
,
00000000
00000000
00000000
00000000
,
00000000
00000000
00000000
00000000
,
11000000
00000000
00000000
00000000
00000000
01000000
10000000
01000000
10000000
00000000
00000000
00000000
10000000
01000000
00100000
00010000
,
00100000
00000000
00001000
00000000
00010000
00000000
00000100
00011000
,
00000000
00000000
00000000
00000000
00010000
00000000
00001000
00000000
00010000
00000000
00001000
00000000
00010000
00001000
00010000
00001000
,
00010000
00001000
00010000
00001000
00010000
00000000
00000000
00000100
00000000
00000000
00001000
00000000
00000010
00000000
00000000
00000200
,
00000000
00000000
00000000
00000000
00000301
00000000
00000000
00000010
00000000
00000000
00000001
00000000
00001000
00000000
00000000
00000100
,
00010000
00000000
00000000
00000000
00001000
00000000
00000000
00000000
01000000
00000000
00000000
00000000
00100000
00000000
00000000
00000000
00000000
00000000
00000000
00000000
00000000
10000000
00000000
00000000
00000000
00000000
00000000
00000000
00000000
00000000
01000000
00000000
00000000
00000000
00000000
00000000
00100000
00000000
00000000
00000000
00000000
00000000
00000000
00000000
00000000
02000000
00000000
00000000
,
00000000
23000000
32000000
03020000
,
00031000
00000000
00010000
00000000
00110000
00000000
00100000
00000000
00001000
00000000
00000000
00001000
00000000
00000000
00010000
00000000
,
00000100
00000000
00000000
00000000
00000000
00000000
00000000
00000000
00000000
00000100
00000000
00000000
00000000
00000000
00000000
00000000
00000000
00000000
00001000
00000000
00000000
00000000
00000000
00000000
00000010
00000000
00000000
00000000
00000000
00000000
00000000
00000000
00000000
00000100
00000000
00000000
00000001
00000000
00000000
00000000
00001000
00000000
00000000
00000000
00000100
00000000
00000000
00000000
,
00010000
00000000
00000000
00000100
00000000
00000000
00010000
00000000
00001000
00000000
00000000
01000000
00000000
00000000
00100000
00000000
,
10100000
00000000
00000000
10100000
00000000
00000000
01010000
00000000
00000000
01010000
00000000
00000000
00010000
00000000
00100000
00000000
,
00001000
00000000
00010000
00000000
00011000
00000000
00010000
00000000
00000100
00000000
00000000
00002000
00000000
00000000
00000000
00000000
,
00003010
00000000
00000000
00000000
00000000
00000000
00000000
00000000
00000000
00000100
00000000
00000000
00000000
00000000
00000000
00000000
00000000
00000000
00000001
00000000
00000000
00000000
00000000
00000000
00001000
00000000
00000000
00000000
00000000
00000000
00000000
00000000
00000000
00000100
00000000
00000000
00010000
00000000
00000000
00000000
00001000
00000000
00000000
00000000
01000000
00000000
00000000
00000000
,
00100000
00000000
00000000
10000000
00000000
00000000
01000000
00000000
10000000
00000000
00000000
00020000
00000000
00000000
00000000
00000000
,
02030000
03002000
00023000
00030020
,
00000030
00000000
00000000
00000000
00000110
00000000
00000110
00000000
00000110
00000000
00000000
00000100
00000000
00000000
00000001
00000000
,
00001001
00000000
00000000
00001100
00000000
00000000
00001001
00000000
00000000
00001010
00000000
00000000
00020010
00000000
00000000
00000000
,
00031000
00000000
00000000
00100000
00000000
00000000
00001000
00000000
01000000
00000000
00000000
00100000
00000000
00000000
10000000
00000000
,
00010000
00100000
00001000
00010000
00000010
00000100
00000001
00001000
,
00001100
00000000
00000100
00010000
00001000
01000000
00100000
10000000
,
01000000
00010000
02000000
00000000
00000000
00100000
03100000
00000000
,
01000000
00001000
00020000
00000000
00000000
00000100
00030100
00000000
,
00010000
00001000
00020000
00000000
00000000
00000000
00030020
00000000
,
00000130
00000000
00000000
00000010
00000000
00000000
00001001
00000000
00000000
00000001
00000100
00000010
00001000
00000000
00000000
00000100
00010000
00001000
00010000
00000000
00000000
00011000
00000000
00000000
,
00000000
00000000
00000000
00000000
00000000
00000000
00101000
00000000
00000000
00010000
00100000
00010000
01000000
00000000
00000000
00100000
10000000
01000000
00100000
00000000
00000000
10010000
00000000
00000000
,
20000000
00000000
00000000
00000000
00000000
00000000
31000000
00000000
00000000
00100000
00001000
00010000
00000100
00000000
00000000
00001000
00000010
00000100
00000001
00000000
00000000
00001100
00000000
00000000
,
00000000
00000000
00000000
00000000
00000000
00000000
00001001
00000000
00000000
00000001
00000100
00000010
00001000
00000000
00000000
00000100
00010000
00001000
00200000
00000000
00000000
00000000
00000000
00000000
,
00302000
00000000
00020000
00000000
00000000
00033000
00011000
00000000
,
00001000
01000000
00100000
00000000
01000000
00001000
00010000
00000000
,
00001000
00000000
00010000
00000000
00000100
00001000
00000010
00000000
,
00000100
00000001
00001000
00000000
00000100
00010000
00001000
00000000
,
00100000
00000000
00000000
00000000
01000000
00000000
00000000
01000000
00000000
00000000
01000000
00000000
11000000
00000000
00000000
00000000
,
11000000
00110000
00110000
00101000
,
00101000
00000000
00011000
00000000
00011000
00000000
00010000
00000100
,
00001000
00000000
00000010
00000000
00000100
00000001
00000100
00000001
00001000
00000010
00001000
00000010
00002000
00000000
00000000
00003200
,
00000000
00000000
00020300
00000000
00032000
00000000
00000000
02003000
00000000
00000000
03100000
00000000
00000000
00000000
00000000
00000000
,
10010000
00000000
10000000
01000000
00010000
00000000
00010000
01000000
,
11000000
00000000
10010000
00000000
00110000
00000000
00100000
00001000
,
00010000
00000000
00000100
00001000
00000010
00000000
00000100
00000001
,
00000011
00000000
00000000
00000000
00000110
00000000
00000000
00000000
00001100
00000000
00000000
00000100
00000000
00000000
00000100
00000000
,
00010100
00000000
00001000
01000000
00100000
00000000
01000000
00001000
,
00011000
00000000
00010100
00000000
00001100
00000000
00001000
00000100
,
00000110
00000000
00000100
00001000
00000010
00000000
00000100
00000001
,
00000011
00000000
00000000
00000011
00000000
00000000
00000011
00000000
00001100
00000000
00000000
00001100
00000000
00000000
00001100
00000000
,
00010100
00000000
00001000
01000000
00100000
00000000
01000000
00100000
,
10100000
00000000
01010000
00000000
10010000
00000000
10000000
01000000
,
01100000
00000000
00100000
00001000
00010000
00000000
00001000
00010000
,
00010100
00000000
00000000
00000000
00011000
00000000
00000000
00000000
00001100
00000000
00000000
00000011
00000000
00000000
00001100
00000000
,
00001001
00000000
00000001
00000100
00000010
00000000
00000100
00000010
,
00001010
00000000
00010100
00000000
00011000
00000000
00001000
01000000
,
01100000
00000000
01000000
00010000
00100000
00000000
01000000
10000000
,
00100000
00000000
00000000
00100000
00000000
00000000
00100000
00000000
01100000
00000000
00000000
01000000
00000000
00000000
01000000
00000000
,
10010000
00000000
10000000
00000000
10000000
00000000
10000000
00010000
,
00100000
00000000
00100000
00000000
00100000
00000000
00100000
00001000
,
00010000
00000000
00010000
00000000
00010000
00000000
00011000
00010000
,
00010100
00000000
00000000
00000000
00011000
00000000
00000000
00000000
00101000
00000000
00000000
00011000
00000000
00000000
00010100
00000000
,
00000100
00001000
00000010
00000000
00000100
00000001
00000011
00000000
,
00000110
00000000
00001100
00000000
00000100
00010000
00011000
00000000
,
00001000
00000000
01000000
00000000
01100000
00000000
00000000
00000000
01000000
00000000
00100000
00000000
10000000
00000000
00000000
10000000
,
00000000
00000000
10000000
00000000
00010000
00000000
00000000
00010000
00000000
00000000
00010000
00000000
00100000
00000000
00000000
00000000
,
00001000
00010000
00000100
00001000
00000010
00000100
00000001
00000000
,
00000011
00000000
00001100
00000000
00000100
00001000
00010100
00000000
,
00010000
00001000
01000000
00100000
10000000
01000000
01100000
00000000
,
11000000
00000000
00000000
00000000
10000000
00000000
00000000
00010000
00000000
00000000
00100000
00000000
00001000
00000000
00100000
00000000
,
00001000
00010000
00000100
00001000
00000010
00000100
00000001
00000010
,
00001000
00000010
00000001
00000100
00001000
00000100
00000010
00001000
,
00000100
00000000
00010000
00000000
00001000
00000000
01000000
00000000
00100000
00000000
10000000
00000000
11000000
00000000
00000000
01100000
,
00000000
00000000
00110000
00000000
00011000
00000000
00000000
00001100
00000000
00000000
00000110
00000000
00002002
00000000
00000000
00000000
,
00000000
00003003
00000000
00000000
;

//--------------- dance-double - Pandemonium X ----------------
#NOTES:
     dance-double:
     Pandemonium X:
     Hard:
     16:
     0.7059,0.816796,0.672016,0.355773,0.616674,625,540,85,45,0,0,0,0,0,0.7059,0.816796,0.672016,0.355773,0.616674,625,540,85,45,0,0,0,0,0:
00000000
00000000
00000000
00000000
,
00000000
00000000
00000000
00000000
,
00000000
00000000
00000000
00000000
,
10010000
00000000
00000000
00000000
00000000
10000000
00010000
01000000
00010000
00000000
00000000
00000000
00100000
00001000
00010000
00000010
,
00000100
00000000
00001000
00000000
00000100
00000000
00001001
00001010
,
00000000
00000000
00000000
00000000
00000001
00000000
00000100
00000000
00001000
00000000
00010000
00000000
00100000
10000000
01000000
00100000
,
10000000
00010000
10000000
01000000
10000000
00000000
01000000
00100000
00000000
01000000
10000000
00000000
00010000
00000000
00100000
00002000
,
00000000
00000000
00000000
00000000
00013000
00000000
00000100
00001000
00000000
00000100
00000010
00000000
00000100
00000000
00001000
00000010
,
00000100
00000000
00000000
00000000
00000010
00000000
00000000
00000000
00000100
00000000
00000000
00000000
00000001
00000000
00000000
00000000
00000000
00000000
00001000
00000000
00000000
00000100
00000000
00000000
00000000
00000000
00000000
00001000
00000000
00000000
00000010
00000000
00000000
00000000
00000000
00000000
00000100
00000000
00000000
00000000
00000000
00000000
00000010
00000000
00000000
00020000
00000000
00000000
,
00000000
00032000
02003000
23000000
,
31000000
00000000
10010000
00000000
11000000
00000000
00110000
00000000
10010000
00000000
00010000
00100000
00000000
01000000
10000000
00000000
,
00010000
00000000
00000000
00000000
00000000
00000000
00100000
00000000
00000000
00001000
00000000
00000000
00000000
00000000
00000000
00010000
00000000
00000000
00000100
00000000
00000000
00000000
00000000
00000000
00001000
00000000
00000000
00000000
00000000
00000000
00000010
00000000
00000000
00000100
00000000
00000000
00000001
00000000
00000000
00000000
00000010
00000000
00000000
00000000
00000001
00000000
00000000
00000000
,
00001000
00000000
00000001
00000010
00000000
00000100
00001000
00000000
00000100
00000000
00010000
00001000
01000000
00001000
01000000
00001000
,
00011000
00000000
00000000
00110000
00000000
00000000
11000000
00000000
02000000
00000000
00000000
00000000
03200000
00000000
00000000
00000000
,
00301000
00000000
00010000
00001000
00000000
00010000
00000010
00000000
00000100
00000000
00000001
00000020
00000000
00000000
00000000
00000000
,
00000130
00000000
00000000
00000000
00000000
00000000
00001000
00000000
00000000
00000100
00000000
00000000
00000000
00000000
00000000
00010000
00000000
00000000
00001000
00000000
00000000
00000000
00000000
00000000
00010000
00000000
00000000
00000000
00000000
00000000
00001000
00000000
00000000
01000000
00000000
00000000
00100000
00000000
00000000
00000000
01000000
00000000
00000000
00000000
00100000
00000000
00000000
00000000
,
10000000
00000000
00010000
10000000
00000000
01000000
00100000
00000000
01000000
00000000
10000000
00020000
00000000
00000000
00000000
00000000
,
00230000
00000000
00320000
00000000
00032000
00000000
00003010
00000001
,
00000000
00000000
00000000
00000000
00001100
00000000
00000100
00000000
00010000
00000000
00001000
02000000
00000000
00000000
00000000
00000000
,
03100000
00000000
00000000
10010000
00000000
00000000
00101000
00000000
00000000
00011000
00000000
00000000
00010020
00000000
00000000
00000000
,
00000130
00000000
00000001
00000010
00000000
00000001
00001000
00000000
00000100
00000000
00010000
00002000
00000000
00000000
00003000
00000000
,
01001000
00000000
00000000
01100000
00000000
00000000
10100000
00000000
00000000
01010000
00000000
00000000
00200000
00000000
00300000
00000000
,
00011000
00000000
00000010
00000100
00001000
00000100
00000001
00001000
,
00000100
00010000
00002000
00000000
00000000
00010000
00020000
00033000
,
00001000
01000000
00200000
00000000
00000000
10000000
20000000
30300000
,
01000000
00100000
00020000
00000000
00000000
00000000
00230000
00000000
,
00001000
00000000
00000000
00301000
00000000
00000000
00011000
00000000
00000000
00100000
00001000
00010000
00000010
00000000
00000000
00000010
00010000
00001000
00100000
00000000
00000000
00101000
00000000
00000000
,
00000000
00000000
00000000
00000000
00000000
00000000
00011000
00000000
00000000
01000000
00001000
00010000
00000100
00000000
00000000
00000100
00010000
00001000
01000000
00000000
00000000
01001000
00000000
00000000
,
00020000
00000000
00000000
00000000
00000000
00000000
00031000
00000000
00000000
01000000
00001000
00010000
00000010
00000000
00000000
00000010
00010000
00001000
01000000
00000000
00000000
01001000
00000000
00000000
,
00010000
00000000
00000000
00001000
00000000
00000000
00101000
00000000
00000000
00100000
00001000
00010000
00000100
00000000
00000000
00000100
00010000
00001000
00200000
00000000
00000000
00000000
00000000
00000000
,
00302000
00013000
00000000
00011000
,
00001000
01000000
00001000
01000000
00001000
00000000
00000000
00000000
01000000
00100000
01000000
00100000
01000000
00000000
00000000
00000000
,
00010000
00000000
10000000
00000000
01000000
00100000
00010000
00000000
,
00100000
00001000
00100000
00001000
00100000
00000000
00000000
00000000
00010000
00001000
00010000
00001000
00010000
00000000
00000000
00000000
,
00000100
00000000
00000000
00000000
00001000
00000000
00000000
00001000
00000000
00000000
00001000
00000000
00001100
00000000
00000000
00000000
,
00001100
00000011
00000011
00001001
,
00001001
00000000
00001010
00000000
00001010
00010000
00000100
00000100
,
00010000
00000000
00010000
00000000
00001000
00000000
00001000
00000000
00010000
00001000
01000000
00100000
20000000
00000000
00000000
31000000
,
00000000
00000000
00100000
00000000
00002000
00000000
00000000
00023000
00000000
00000000
00030020
00000000
00000030
00000000
00000000
00000000
,
00000110
00000000
00000000
00000000
00000100
00000010
00001000
00000100
00010000
00000000
00000000
00000000
00001000
00100000
00001000
00010000
,
00001000
00000000
00110000
00000000
11000000
00000000
10000000
00100000
,
01100000
00000000
00000000
00000000
00100000
01000000
00001000
00010000
00001000
00000000
00000000
00000000
00010000
00000010
00000100
00000010
,
00001000
00000000
00000000
00000000
00001001
00000000
00000000
00000000
00001100
00000000
00000000
00001100
00000000
00000000
00001100
00000000
,
00001001
00000000
00000000
00000000
00000001
00001000
00000100
00010000
00001000
00000000
00000000
00000000
00010000
00001000
01000000
00001000
,
00010000
00000000
00011000
00000000
00010100
00000000
00010000
00000010
,
00000110
00000000
00000000
00000000
00000100
00000010
00010000
00001000
00010000
00000000
00000000
00000000
00001000
01000000
00100000
10000000
,
01000000
00000000
00000000
11000000
00000000
00000000
00100000
00000000
00210000
00000000
00000000
00302000
00000000
00000000
00203000
00000000
,
00310000
00000000
00000000
00000000
00100000
00001000
00010000
00000010
00000100
00000000
00000000
00000000
00000010
00010000
00001000
00100000
,
00010000
00000000
11000000
00000000
10010000
00000000
10000000
00100000
,
01100000
00000000
00000000
00000000
01000000
00001000
00010000
00000100
00001000
00000000
00000000
00000000
00000100
00010000
00001000
01000000
,
00100000
00000000
00100000
00000000
00100000
00000000
00000000
00000000
02100000
00000000
00000000
03002000
00000000
00000000
00013000
00000000
,
00011000
00000000
00000000
00000000
00010000
00000100
00001000
00000010
00000100
00000000
00000000
00000000
00000010
00000100
00000001
00000010
,
00000100
00000100
00001100
00000000
00011000
00000000
00101000
00101000
,
00020000
00000000
01030000
00000000
00200000
00000000
10300000
00000000
00020000
00000000
10030000
00000000
10000000
01000000
00100000
00010000
,
00100000
00000000
00001000
00020000
00000000
00030100
00002000
00000000
00003010
00000000
00000100
00000002
00000000
00000013
00000200
00000000
,
00001300
00000000
00000000
00000000
00000010
00001000
00000010
00001000
00000010
00000000
00000000
00000000
00000100
00000001
00000100
00000001
,
00000100
00000000
00000001
00000000
00001000
00000000
00000100
00010000
,
00001000
00000000
00000000
00000000
01000000
00010000
01000000
00010000
01000000
00000000
00000000
00000000
10100000
00000000
01010000
00000000
,
10010000
00000000
10000000
00000000
01000000
00000000
00000000
00000000
01100000
00000000
00000000
01001000
00000000
00000000
00011000
00000000
,
00000100
00010000
00001000
01000000
00100000
00000000
00000000
00000000
01000000
00010000
00100000
00001000
00010000
00000000
00000000
00000000
,
00011000
00000000
00001100
00000000
00001000
00000100
00000010
00000010
,
00000001
00000010
00000100
00001000
00000001
00000000
00000100
00000000
00000010
00001000
00000010
00010000
00001000
00000000
00000000
00011000
,
00000000
00000000
00001000
00000000
01001000
00000000
00000000
01100000
00000000
00000000
10100000
00000000
11000000
00000000
01000000
00000000
,
00100000
00001000
00010000
00000100
00001000
00000000
00000100
00000000
00001000
00000100
00000010
00000001
00001000
00000000
00000100
00000000
,
00000001
00000100
00001000
00000010
00000001
00000010
00001000
00000100
,
00010000
00001000
01000000
00100000
10000000
00000000
00010000
00000000
00100000
00010000
10000000
00100000
01000000
00000000
10000000
00000000
,
01000000
00000000
00010000
00000000
10010000
00000000
00000000
01100000
00000000
00000000
10010000
00000000
00110000
00000000
00100000
00000000
,
00001000
00010000
00000010
00000100
00000001
00000000
00001000
00000000
00000100
00010000
00001000
01000000
00100000
00000000
10100000
00000000
,
01010000
00000000
10020000
00130000
20010000
30100000
10100000
01010000
,
01001000
00000000
00011000
00000000
00010000
00000100
00001000
00000010
00000100
00000001
00000010
00000100
00001000
00000000
00000100
00010000
,
00000000
00001000
01000000
00000000
01100000
00000000
01000000
00010000
00000000
10000000
01000000
00000000
00022000
00000000
00000000
00000000
,
00000000
00033000
00000000
00000000
;
