#TITLE:VOLCANIC BIGBEAT;
#SUBTITLE:;
#ARTIST:DJ Mass MAD Izm*;
#TITLETRANSLIT:;
#SUBTITLETRANSLIT:;
#ARTISTTRANSLIT:;
#GENRE:;
#CREDIT:;
#MUSIC:VOLCANIC BIGBEAT.ogg;
#BANNER:;
#BACKGROUND:VOLCANIC BIGBEAT-bg.png;
#CDTITLE:;
#SAMPLESTART:21.089;
#SAMPLELENGTH:13.040;
#SELECTABLE:YES;
#OFFSET:-0.013;
#BPMS:0.000=148.011;
#STOPS:32.000=1.216
,190.500=0.811
,220.500=0.811
;
#BGCHANGES:;
#FGCHANGES:;

//--------------- dance-single - Pandemonium X ----------------
#NOTES:
     dance-single:
     Pandemonium X:
     Beginner:
     6:
     0,0,0,0,0:
0000
0000
0000
0000
,
0000
0000
0000
0000
,
0000
0000
0000
0000
,
0000
0000
0000
0000
,
0010
0010
0010
0010
,
0010
0010
0010
0010
,
0010
0010
0010
0010
,
0010
0010
0010
0010
,
1001
0000
0001
0000
0000
0000
0000
0001
,
0000
0000
0001
0000
0000
0000
0000
0001
,
0000
0000
1000
0000
0000
0000
0000
1000
,
0000
0000
1000
0000
0000
0000
0000
1000
,
0000
0010
0000
0100
,
0000
0001
0001
0001
,
0000
1000
0000
0100
,
0000
0020
0000
0000
,
0030
0100
0100
1000
,
0000
0010
0010
0100
,
0000
0001
0000
1000
,
0000
0020
0000
0000
,
0030
0100
0100
0000
,
0000
0000
0010
0000
0000
0000
0000
1000
,
0000
0000
0001
0000
0001
0000
0000
1000
,
0000
0100
0000
0000
,
0000
0010
0002
0000
,
0000
1003
0020
0000
,
0000
0130
0002
0000
,
0000
0013
0200
0000
,
0300
1001
0000
0001
,
0000
1000
1000
0010
,
0000
0110
0000
0010
,
0000
1000
1000
1000
,
0000
1001
0000
0001
,
0001
0100
0010
0100
,
0100
1001
1000
0000
,
0001
1000
0100
0100
,
0010
0100
0000
1000
,
0000
0010
0000
0100
,
0001
1000
0000
0001
,
0000
1000
0000
0100
,
0010
0002
0003
1000
,
0000
0001
0000
0100
,
0000
1001
1001
0001
,
0000
2000
3000
0010
,
0000
0100
0000
0100
,
0000
0100
0000
0100
,
0000
0010
0010
0000
,
0010
0010
0010
0001
,
0000
1000
0000
0010
,
0000
0100
0001
1000
,
0000
0100
0000
0001
,
0000
0100
1000
0020
,
0030
0001
0000
0010
,
0000
1000
0001
0100
,
0100
0001
0000
1000
,
0001
0110
0000
1000
,
0000
0001
0000
1000
,
0010
0100
0000
0010
,
0000
0100
0000
0001
,
0100
0020
0030
0100
,
0000
0001
0000
0010
,
0100
1000
1000
0001
,
0000
1000
0000
0010
,
0000
1001
0000
0000
,
0000
0001
0000
0000
,
0000
1000
0000
0000
,
0000
0010
0000
0100
,
0000
0010
0000
0000
,
0000
0100
0000
0000
,
0000
0001
0000
0000
,
0000
1000
0000
0001
,
0000
0110
0000
0000
;

//--------------- dance-single - Pandemonium X ----------------
#NOTES:
     dance-single:
     Pandemonium X:
     Easy:
     10:
     0,0,0,0,0:
0000
0000
0000
0000
,
0000
0000
0000
0000
,
0000
0000
0000
0000
,
0000
0000
0000
0000
,
1001
1001
1001
1001
,
1001
1001
1001
1001
,
1001
1001
1001
1001
,
1001
1001
1001
1001
,
1001
0000
0101
0000
0000
0000
0000
0011
,
0000
0000
1100
0000
0000
0000
0000
1000
,
0001
0000
1010
0000
0000
0000
0000
0101
,
0000
0000
0011
0000
0000
0000
0000
0100
,
1000
0101
0001
0010
,
0001
1000
1000
0001
,
0001
1000
0010
0001
,
0010
0200
0301
0200
,
0310
1001
1001
0001
,
0010
0100
0010
0001
,
0010
1000
0010
0001
,
0100
0020
1030
0020
,
0130
0000
0001
1000
0001
0000
1000
0000
,
1100
1000
0001
0100
,
0001
0000
1000
0001
1000
0000
0001
0000
,
0011
0000
1001
0000
0000
0000
0000
0110
,
0000
0000
1001
0000
0001
0100
0001
0100
,
0001
0100
0001
0000
1000
0010
1000
0010
,
1000
0010
1000
0000
0001
0100
0001
0100
,
0001
0100
0001
0000
1000
0010
1000
0010
,
1000
1001
1001
0001
,
1000
0100
1000
0001
,
0100
0001
0010
1000
,
0010
0001
0010
0100
,
1000
1001
0001
1000
,
0100
1000
0010
0100
,
0100
0010
0010
1000
,
0001
0010
0010
0010
,
0100
1000
1000
0001
,
0001
0000
0100
0000
0100
0000
0010
0200
,
0000
0301
0001
1000
,
1000
0000
0100
0000
0100
0000
0010
0200
,
0000
0000
2300
0000
0000
3001
0100
0000
,
0100
0000
0010
0000
0010
0000
1000
0002
,
0000
0003
1001
0000
0110
0000
1000
0000
,
0001
0000
0100
0100
0100
0000
0010
0000
,
1000
0001
0001
0001
,
0001
1000
1000
1000
,
1000
0000
0020
0000
0030
0000
0000
0200
,
0000
0000
0300
1001
,
0001
1001
1000
1001
,
0001
0000
1000
0001
1000
0000
0110
0000
,
0010
0110
0100
0110
,
0010
0000
0100
0001
1000
0000
0102
0000
,
0013
1100
1100
0011
,
0011
0101
0110
1001
,
1001
0101
1001
1100
,
1001
0001
0010
1000
,
0010
0000
0100
0000
1000
0000
0010
0200
,
0000
0301
0100
1000
,
0100
0000
0001
0000
0010
0000
0100
0020
,
0000
0000
0032
0000
0000
1003
0100
0000
,
0100
0010
0010
0001
,
0001
1001
0001
0101
,
0100
0110
1001
1010
,
0101
1001
1000
0001
,
0010
0001
1000
0010
,
1000
1001
0001
0100
,
0010
1001
1000
0100
,
0010
1100
0100
0010
,
0001
1010
0010
0100
,
0001
1010
1000
0001
,
0010
1100
0010
0011
,
0101
1001
0000
0000
;

//--------------- dance-single - Pandemonium X ----------------
#NOTES:
     dance-single:
     Pandemonium X:
     Medium:
     13:
     0,0,0,0,0:
0000
0000
0000
0000
,
0000
0000
0000
0000
,
0000
0000
0000
0000
,
0000
0000
0000
0000
,
1001
1001
1001
1001
,
0110
0110
0110
0110
,
1001
1001
1001
1001
,
0101
1010
0101
1010
,
1001
0000
1100
0000
0100
0000
1000
1010
,
0000
0010
1001
0000
0001
0000
1000
1100
,
0100
0000
1001
0000
0001
0000
0010
0110
,
0000
0100
1001
0000
1000
0000
0001
0011
,
0010
0000
0000
0000
0001
0000
0001
0000
1000
0000
0000
0010
0000
0010
0000
0010
,
0100
0001
1000
0001
0010
0001
1000
0010
,
0100
0000
0000
0000
0001
0000
1000
0000
0001
0100
0000
0100
0000
0100
0010
0000
,
0100
0000
0001
0000
1000
0000
0000
0100
0000
0000
0010
0000
0002
0000
0000
0000
,
0100
0000
0103
0000
0001
0000
0000
0000
0010
0000
0000
0100
0000
0000
0010
0000
,
0001
0000
0100
0000
0001
0000
0000
0000
1000
0000
0000
0100
0000
0000
1000
0000
,
0010
0000
0010
0000
1000
0000
0000
0000
1000
0000
0000
0000
0001
0000
0000
1000
,
0000
0000
0100
0000
0010
0000
0000
0010
0000
0000
0100
0000
1000
0000
0010
0000
,
0100
0001
1000
0100
0001
0000
0101
0000
,
1100
1000
0001
0100
,
0001
0000
0001
0010
1000
0000
0010
0000
,
0011
0000
0000
0000
1100
0000
0000
1000
0100
0000
0000
0000
0010
0000
0001
0000
,
0101
0000
1001
0000
0010
0010
0010
0010
,
0010
0010
1001
0000
0010
0010
0010
0010
,
0010
0010
1001
0000
0010
0010
0010
0010
,
0010
0000
0010
0000
1001
0000
0000
0000
0010
0000
0010
0100
0020
0000
0000
0000
,
0130
0000
1001
0000
1000
0100
0001
0100
,
0010
0001
0100
0000
0001
1000
0100
0001
,
0100
0010
0011
0000
0001
0001
1000
0100
,
0001
0100
0010
0001
1000
1000
0010
0001
,
0010
1000
0001
0001
1000
0001
0010
0100
,
1000
0010
0100
0001
0010
0001
1000
0100
,
0001
0100
0101
0000
1100
0000
0001
0001
,
0100
1000
0100
0010
0010
0010
0010
0000
,
1001
0001
0100
1000
,
0100
0000
0001
0000
0100
0000
1000
0100
,
0001
0001
0010
1000
,
0010
0000
0001
0000
0010
0000
1000
0010
,
0001
0000
1002
0000
0013
0000
0001
0001
,
0100
0000
0010
0010
1000
0000
0100
0100
,
0010
0000
0110
0000
0110
0000
0100
1000
,
0010
0000
0000
0000
0100
0001
0100
0001
0100
0000
0000
0000
0001
0000
1000
0000
,
0010
0100
0100
0010
,
0010
1000
1000
0001
,
0001
0000
1000
0100
0010
0000
0000
0010
,
0010
0010
0001
1000
0001
0000
0201
0000
,
0310
2100
3001
0102
,
0013
0000
0001
0010
0100
0000
2100
0000
,
3001
0021
0130
0012
,
0103
0000
0001
0010
0200
0000
0320
0000
,
0100
0000
0031
0100
0120
0000
1030
0001
,
0021
0000
0130
2000
0002
3003
0022
0033
,
2020
3030
1001
0001
0100
0000
1001
1000
,
0100
0000
1000
0010
0010
0001
0010
0010
,
1000
0010
0010
0001
0010
0010
1000
0002
,
0000
0000
1003
0100
0100
0001
0100
0100
,
1000
0100
0100
0001
0100
0100
1000
0002
,
2000
3003
0220
0000
0330
0000
0001
0100
,
1000
0100
0001
0010
1000
0010
0001
0200
,
0000
0000
0310
0000
0110
0000
1000
0001
,
1000
0000
0001
0001
1000
0100
0100
0010
,
0100
0000
1000
0000
1001
0000
0000
0000
0001
0000
0000
0000
0100
0000
0001
0010
,
0000
0010
0000
0010
0001
0000
1000
0000
0010
0000
0000
0000
0100
0000
0001
0000
,
1000
0000
0000
0000
0001
0000
1000
0000
0100
0000
0000
0000
0010
0000
0100
1000
,
0000
1000
0000
0000
0001
0000
0100
0000
0010
0000
1000
0000
0001
0000
1000
0100
,
0000
0100
0000
0100
0010
0000
0100
0000
1000
0000
0010
0000
0100
0000
0001
0000
,
1000
0000
0000
0000
0000
0000
0000
0000
0000
0000
0000
0000
0001
0000
0000
0000
0000
0000
0000
0000
0001
0000
0000
0000
0010
0000
0000
0000
0000
0000
0000
0000
0010
0000
0000
0000
0100
0000
0000
0000
0000
0000
0000
0000
0000
0100
0000
0000
,
0000
0010
0000
0100
1000
0000
0001
0000
0010
0000
0001
0000
1000
0000
0010
0100
,
0000
0100
0000
0100
0001
0000
0100
0000
1000
0000
0100
0000
0001
0000
0010
0100
,
0000
0100
0000
1000
0001
0000
0000
0000
0000
0000
0000
0000
0000
0000
0000
0000
;

//--------------- dance-single - Pandemonium X ----------------
#NOTES:
     dance-single:
     Pandemonium X:
     Hard:
     16:
     0,0,0,0,0:
0000
0000
0000
0000
,
0000
0000
0000
0000
,
0000
0000
0000
0000
,
0000
0000
0000
0000
,
1001
0110
1001
0110
,
1001
0110
1001
0110
,
1001
0110
1001
0110
,
0201
1000
0010
0001
,
0310
0000
0000
0000
1001
0000
1000
0000
0010
0000
0100
0001
0010
0000
0110
0000
,
0100
1000
0001
0000
1001
0000
1000
0000
0010
0000
0100
0001
0010
0000
1100
0000
,
1000
0010
1000
0000
1001
0000
0001
0000
1000
0000
0100
1000
0010
0000
0110
0000
,
0100
0001
0010
0000
0110
0000
0010
0000
0001
0000
1000
0100
0010
0000
0110
0000
,
0010
0001
0010
0001
0100
0000
0100
0000
0100
0000
0001
0010
0000
0010
0000
1000
,
0001
0000
0001
0000
2000
0000
3010
0000
2000
0000
3100
0010
0000
0010
0000
0010
,
0100
0000
1000
0000
0010
0000
0010
0000
0100
0001
0000
0001
0010
0100
0010
0000
,
0100
0000
0100
0000
2000
0000
3001
0200
0000
0310
2000
0000
3001
0200
0000
0310
,
1000
0000
0001
0000
1001
0000
1000
0000
0100
0000
1000
0010
0000
0010
0001
1000
,
0200
0000
1300
0000
0010
0000
0010
0000
0100
0000
0001
0100
0000
0100
1000
0000
,
0002
0000
2003
0000
3010
0000
0010
0000
0100
0010
0000
0010
1000
0000
1000
0002
,
0000
0000
1003
0000
0001
0000
0001
0020
0000
0130
2000
3000
2000
0000
3200
0000
,
0320
0000
0032
0000
1003
0010
0001
0000
0010
0000
0100
0000
0001
0000
1000
0001
,
0000
0000
1001
0001
0010
0100
1000
1010
,
0010
0000
0100
0000
0001
0010
1000
0000
0010
0000
0001
0000
1000
0000
1001
0000
,
0001
0010
0110
0100
1001
0100
0010
1001
,
0100
0000
1001
0000
0001
0100
0010
0001
,
0100
0010
1001
0000
1000
0010
0100
1000
,
0010
0100
1001
0000
0001
0100
0010
0001
,
0100
0000
0010
0000
1001
0000
0000
0000
1000
0000
0001
1000
0020
0000
0000
0000
,
0130
0000
0100
0001
0010
0000
0000
0000
0001
0000
0001
0000
1000
0100
0010
0000
,
0001
0000
0010
0000
0100
1000
0001
0000
0100
0001
1000
0000
0001
0010
0001
0100
,
0001
0000
1000
0001
1000
0000
0000
0000
0100
1000
0010
0000
0100
0000
0010
0000
,
0100
0010
1000
0001
0010
0000
1000
0000
0010
0000
0001
0000
0100
0010
0100
0001
,
1000
0000
0001
0000
1001
0000
1000
0000
0000
0000
0010
0100
0001
0000
0001
0010
,
0100
0000
1000
0000
0002
0000
0103
0000
2000
0000
3100
1000
0001
0000
0001
0000
,
1000
0010
1000
0010
0100
0000
0000
0000
1001
0000
0000
0000
0001
0010
0001
0010
,
0001
1000
0010
0100
0100
0100
0100
0010
,
0200
0000
0300
0000
0001
0000
1000
0000
0001
0010
0000
0010
1000
0000
0001
0000
,
1000
0010
0000
0010
0001
0000
1000
0000
0001
0010
0000
0010
1000
0000
0002
0000
,
0000
0000
0000
0000
1003
0000
0001
0000
1000
0100
0000
0100
0001
0000
1000
0000
,
0001
0100
0000
0100
1000
0000
0001
0000
1000
0100
0000
0100
0001
0000
2000
0000
,
0000
0000
0000
0000
3002
0000
0000
0000
1003
0010
0000
0010
0001
0000
1000
0000
,
0001
0010
0000
0010
1000
0000
0001
0000
1000
0010
0000
0010
0001
0000
0200
0000
,
0000
0000
0000
0000
0302
0000
0103
0000
2000
0000
3100
0000
0001
0010
0100
0000
,
1000
0000
1000
0000
0010
0100
0010
0100
0010
0000
0100
0000
0001
0000
0020
0000
,
0230
1300
1000
0001
,
0001
0100
0100
0010
,
0010
0000
0100
0010
0100
0000
0000
0100
,
0010
0010
0100
0010
0100
0000
1001
1000
,
0001
0100
0000
0100
1000
0000
0001
0000
1000
0100
0000
0100
0001
0000
1000
0000
,
0001
0100
0000
0100
1000
0000
0002
0000
0100
0000
0000
0000
1003
0000
0001
0000
,
1000
0010
0000
0010
0001
0000
1000
0000
0001
0010
0000
0010
1000
0000
0001
0000
,
1000
0010
0000
0010
0001
0000
2000
0000
0100
0000
0000
0000
3002
0000
0000
0000
,
1003
0100
0000
0100
0001
0000
1000
0000
0001
0100
0000
0100
1000
0000
0001
0000
,
1000
0100
0000
0100
0001
0000
0020
0000
0000
0000
0000
0030
0022
0000
0000
0033
,
2020
0000
3030
0000
1001
0000
0001
0000
1000
0010
0000
0010
0001
0000
1000
0000
,
0100
0000
0000
0000
1001
0000
0001
0000
1000
1000
0000
1000
0001
0000
0001
0000
,
0001
0001
0000
0001
1000
0000
0001
0000
1000
1000
0000
1000
0001
0000
0220
0000
,
0000
0000
0330
0000
0001
0000
0010
0000
0001
0001
0000
0001
1000
0000
0001
0000
,
1000
1000
0000
1000
0001
0000
1000
0000
0001
0001
0000
0001
1000
0000
0220
0000
,
0000
0000
0330
0000
1001
0000
1000
0000
0001
0001
0000
0001
1000
0000
0001
0000
,
1000
0010
0000
0010
0001
0000
1000
0000
1000
1000
0000
1000
0001
0000
0220
0000
,
0000
0000
0330
0000
1001
0000
0001
0000
1000
1000
0000
1000
0001
0000
1000
0000
,
0001
0100
0000
0100
1000
0000
0001
0000
0001
0001
0000
0001
1000
0000
0220
0000
,
0000
0000
0330
0000
0001
0000
0001
0000
0100
0000
0100
0000
0010
0000
0100
0001
,
0000
0010
0000
0010
0001
0000
0010
0000
0001
0000
1000
0000
0100
0000
0010
0100
,
0000
1000
0000
1000
0001
0100
0001
0000
1000
0010
1000
0000
0001
0000
1000
0100
,
0000
0010
0000
0100
1000
0000
0001
0100
0000
0001
1000
0000
1000
0001
0000
1000
,
0100
0000
0010
0000
1001
0000
0100
0000
1000
0000
0010
0000
1000
0000
0001
0010
,
0000
0000
0000
0100
0000
0000
0000
0000
0000
0010
0000
0000
0001
0000
0000
0000
0100
0000
0000
0000
0010
0000
0000
0000
0001
0000
0000
0000
0010
0000
0000
0000
0100
0000
0000
0000
0001
0000
0000
0000
0000
0000
0010
0000
0000
0100
0000
0000
,
0000
0100
0000
0100
0001
0000
0010
0000
0001
0000
0100
0000
0001
0000
1000
0100
,
0000
0010
0000
0010
0001
0000
0001
0000
0010
0000
1000
0000
0010
0000
0001
1000
,
0000
1000
0000
0001
1001
0000
0000
0000
0000
0000
0000
0000
0000
0000
0000
0000
;

//--------------- dance-double - Pandemonium X ----------------
#NOTES:
     dance-double:
     Pandemonium X:
     Easy:
     9:
     0,0,0,0,0:
00000000
00000000
00000000
00000000
,
00000000
00000000
00000000
00000000
,
00000000
00000000
00000000
00000000
,
00000000
00000000
00000000
00000000
,
00011000
00011000
00011000
00011000
,
00011000
00011000
00011000
00011000
,
00011000
00011000
00011000
00011000
,
00011000
00011000
00011000
00011000
,
00011000
00000000
00010100
00000000
00000000
00000000
00000000
00001010
,
00000000
00000000
00000101
00000000
00000000
00000000
00000000
00001001
,
00000000
00000000
00000011
00000000
00000000
00000000
00000000
00000110
,
00000000
00000000
00001100
00000000
00000000
00000000
00000000
00010100
,
00000000
00000000
00011000
00001000
00010000
00000000
00001000
00000000
,
01000000
01010000
00010000
00100000
,
01000000
11000000
01000000
00100000
,
00001000
00000000
00010000
00000000
00000100
00000000
00001000
00000010
,
00000100
00000001
00001000
00000000
00000001
00000000
00000010
00000000
,
00000100
00000010
00000001
00000000
00000010
00000000
00000100
00001000
,
00000100
00001000
00000100
00010000
,
00001000
00000000
01000000
00000000
00010000
00000000
00100000
00010000
,
10000000
01000000
00100000
01000000
10000000
00000000
00010000
00000000
,
01000000
00100000
10000000
00010000
,
00100000
00000000
00001000
00010000
00000010
00000000
00000100
00000000
,
00000001
00000000
00001001
00000000
00000000
00000000
00000000
00000110
,
00000000
00000101
00000100
00000010
,
00010000
00011000
00001000
01000000
,
00010000
11000000
01000000
00100000
,
00010000
00011000
00010000
00001000
,
01000000
10010000
10010000
00010000
,
10000000
01000000
00010000
01000000
,
00100000
00001000
00010000
00000100
,
00001000
00000010
00000100
00001000
,
00000100
00000101
00000001
00000010
,
00000100
00000010
00000001
00001000
,
00000100
00010100
00010000
00001000
,
01000000
00000000
00010000
10000000
00010000
10000000
00010000
00000000
,
01100000
10000000
10000000
00010000
,
00010000
00000000
00100000
00000000
00100000
00000000
00001000
00020000
,
00000000
00030100
00000100
00000010
,
00000010
00000000
00000001
00000000
00000001
00000000
00000100
00000020
,
00000000
00000000
00000230
00000000
00000000
00000301
00001000
00000000
,
00001000
00000000
00000100
00000000
00000100
00000000
00010000
00002000
,
00000000
01003000
01001000
01000000
,
01000000
00100000
00100000
10000000
,
10000000
00010000
00100000
00010000
,
00100000
00001000
00010000
00001000
,
00010000
00000200
00001300
00000000
,
00000200
00002300
00003001
00000001
,
00000100
00000010
00001000
00000100
,
00010000
00000000
00001000
02000000
00000000
00000000
03100000
00000000
,
01000000
00010000
10000000
01000000
,
00100000
00000000
00001000
00020000
00000000
00000000
00030200
00000000
,
00000000
00001300
00000010
00000000
00000100
00000000
00000001
00000000
,
00000010
00000000
00000001
00001000
00000001
00000000
00001001
00000000
,
00001001
00000001
00000100
00000010
,
00001000
00010000
00011000
00001000
,
01001000
00000000
01000000
00000000
01100000
00000000
01000000
00020000
,
00000000
00130000
01100000
01000000
,
11000000
00000000
10000000
00000000
10010000
00000000
00010000
02000000
,
00000000
00000000
03002000
00000000
00000000
00013000
00000100
00000000
,
00001100
00000000
00001000
00000000
00001010
00000000
00000010
00000200
,
00000000
00000310
00001001
00000001
,
00000011
00000100
00000110
00001000
,
00001001
00000100
00000001
00001000
,
00000100
00001000
00000100
00000000
00010000
00000000
00001000
00000000
,
01000000
00001000
01000000
00000000
00100000
00000000
10000000
00000000
,
00010000
10000000
00010000
00000000
00100000
00000000
01000000
00000000
,
10000000
10010000
00010000
00100000
,
00001000
00100000
00001000
00000000
00010000
00000000
00000100
00000000
,
00001000
00000010
00001000
00000000
00000010
00000000
00000100
00000000
,
00000001
00001001
00000010
00001001
,
00000100
00001001
00000000
00000000
;

//--------------- dance-double - Pandemonium X ----------------
#NOTES:
     dance-double:
     Pandemonium X:
     Medium:
     13:
     0,0,0,0,0:
00000000
00000000
00000000
00000000
,
00000000
00000000
00000000
00000000
,
00000000
00000000
00000000
00000000
,
00000000
00000000
00000000
00000000
,
00001000
00001000
00001000
00001000
,
00010000
00010000
00010000
00010000
,
00001000
00001000
00001000
00001000
,
00012000
00010000
00010000
00013000
,
00011000
00000000
00010100
00000000
00000100
00000000
00001000
00001010
,
00000000
00000001
00000101
00000000
00000001
00000000
00000010
00000110
,
00000000
00000000
00001100
00000000
00000100
00000000
00010000
00011000
,
00000000
00001000
01001000
00000000
01000000
00000000
00100000
10010000
,
00000000
00000000
00000000
00000000
10000000
00000000
10000000
00000000
00000000
00000000
00010000
01000000
00000000
01000000
00000000
01000000
,
00010000
00000000
00100000
00000000
00001000
00000000
00010000
00000000
00001000
00000000
00010000
00000100
00000000
00000100
00000000
00000100
,
00001000
00000000
00000000
00000000
00000010
00000000
00000010
00000000
00000000
00000010
00000000
00000010
00000000
00000010
00000100
00000000
,
00000001
00000000
00001000
00000000
00000100
00000000
00000000
00010000
00000000
00000000
00001000
00000000
02000000
00000000
00000000
00000000
,
03010000
00000000
00100000
00000000
01000000
10000000
00000000
00000000
00010000
00000000
00000000
00010000
00000000
00000000
10000000
00000000
,
00100000
00000000
10000000
00000000
01000000
00000000
01000000
00000000
01000000
00000000
00000000
01000000
00000000
00000000
00100000
00000000
,
00001000
00000000
00010000
00000000
00000010
00000000
00000010
00000000
00001000
00000000
00000000
00000010
00000000
00000000
00000100
00000000
,
00000000
00000001
00000000
00000000
00000010
00000000
00000100
00000010
00000000
00000010
00000001
00000000
00001000
00000000
00000100
00000000
,
00000010
00000000
00000001
00000000
00001000
00000000
00000010
00000000
00000100
00000000
00000000
00000000
00000001
00000000
00000000
00001000
,
00000000
00000000
00001001
00000000
00000000
00000000
00000000
00001010
,
00000000
00000000
00000010
00010000
00001000
00000000
00000000
00101000
,
00000000
00000000
10010000
00000000
01100000
00000000
10000000
00010000
,
00100000
00000000
02000000
00000000
13000000
01000000
00010000
01000000
,
00100000
00001000
00020000
00000000
00030010
00000100
00001000
00000100
,
00000001
00001000
00000020
00000000
00000130
00001000
00000100
00000010
,
00010000
00001000
00020000
00000000
00031000
01000000
00200000
00000000
,
10000000
00000000
01300000
00000000
00010000
00010000
00010000
00000000
,
00100000
00000000
00001000
00000000
00010000
00000000
00000100
00001000
,
00000010
00000000
00000100
00000000
00000001
00000010
00000100
00000010
,
00000001
00000000
00001000
00000000
00000010
00000000
00000100
00000001
,
00001000
00000000
00001100
00000100
00000000
00010000
00001000
01000000
,
00001000
00000000
00001000
00100000
00001000
00100000
00001000
00001000
,
00011000
00000000
00010000
00000000
00010000
00000000
00001000
01000000
,
00100000
00000000
10000000
01000000
01000000
01000000
01000000
00000000
,
10010000
10000000
00010000
00100000
,
00001000
00000000
00010000
00000000
00000010
00000000
00000100
00000002
,
00000000
00000013
00001000
00000010
,
00000001
00000000
00000100
00000000
00001000
00000000
00010000
00000200
,
00000000
00000000
00000000
00000000
00020300
00000000
00000000
00000000
00000000
00000000
00000000
00031000
01000000
00000000
00100000
00000000
,
10000000
00000000
01000000
00100000
00001000
00000000
00100000
00020000
,
00000000
00030000
01010000
00000000
01010000
00000000
00010000
01000000
,
00100000
00000000
00000000
00000000
10000000
00010000
10000000
00010000
10000000
00000000
00000000
00000000
01000000
00000000
00100000
00000000
,
00002000
00013000
00010000
00000100
,
00000100
00001000
00001000
00000010
,
00000010
00000000
00000100
00000001
00000010
00000000
00000000
00000010
,
00000001
00000010
00000100
00001000
00000100
00000000
00010100
00000000
,
00010100
00011000
00011000
01001000
,
01001000
00000000
01100000
02000000
00000000
00000000
03100000
00000000
,
10010000
11000000
01100000
00110000
,
00101000
00000000
00000000
00000000
00010000
00000000
00020200
00000000
00000000
00000000
00000000
00030300
00002100
00000000
00000000
00000000
,
00000000
00000000
00000000
00003001
00000100
00000000
00000010
00000000
00001000
00000000
00000000
00000000
00000100
00000000
00000010
00000000
,
00000001
00000000
00000010
00002002
00000000
00003003
00000110
00000000
,
00000110
00000000
00001000
00000001
00000010
00000000
00000100
00000010
,
00000001
00000000
00000001
00000100
00000010
00001000
00000100
00010000
,
00001000
01000000
00010000
00100000
01000000
10000000
00010000
20000000
,
00000000
00000000
31000000
10000000
00100000
01000000
00010000
00100000
,
00001000
00010000
00000010
00000100
00000001
00000010
00000100
00002000
,
00003020
00000000
00000000
00000000
00000230
00000000
00000000
00000000
00000000
00000000
00000000
00000301
00001000
00000000
00000100
00000000
,
00010000
00001000
01000000
00010000
00100000
01000000
00100000
00020000
,
00000000
00000000
10030000
00100000
01000000
00010000
00100000
00001000
,
00010000
00000010
00010000
00001000
01000000
00010000
00100000
00001000
,
00010000
00000000
00000010
00000000
00000100
00000000
00000010
00000000
00001000
00000000
00000001
00000000
00000010
00000000
00000100
00001000
,
00000000
00000100
00000000
00001000
00000010
00000000
00001000
00000000
00000100
00000000
00010000
00000000
00001000
00000000
01000000
00001000
,
00000000
00001000
00000000
00001000
00010000
00000000
00000100
00000000
00010000
00000000
00001000
00000000
01000000
00000000
00010000
00100000
,
00000000
01000000
00000000
10000000
00010000
00000000
10000000
00100000
00000000
10000000
00010000
00000000
10000000
01000000
00000000
10000000
,
00010000
00000000
10000000
00000000
00010000
00000000
00100000
00000000
00001000
00000000
00010000
00000000
00000010
00000000
00000100
00000001
,
00000000
00000000
00000000
00000010
00000000
00000000
00000000
00000000
00000000
00000100
00000000
00000000
00000010
00000000
00000000
00000000
00000000
00000000
00000000
00000000
00000001
00000000
00000000
00000000
00000010
00000000
00000000
00000000
00000000
00000000
00000000
00000000
00000010
00000000
00000000
00000000
00000100
00000000
00000000
00000000
00000000
00000000
00000010
00000000
00000000
00000100
00000000
00000000
,
00000000
00000010
00000000
00000100
00000010
00000000
00000001
00000000
00000100
00000000
00000010
00000000
00001000
00000000
00000100
00010000
,
00000000
00010000
00000000
00010000
00001000
00000000
00010000
00000000
00000100
00000000
00010000
00000000
00001000
00000000
01000000
00010000
,
00000000
00100000
00000000
01000000
10000000
00000000
00000000
00000000
00000000
00000000
00000000
00000000
00000000
00000000
00000000
00000000
;

//--------------- dance-double - Pandemonium X ----------------
#NOTES:
     dance-double:
     Pandemonium X:
     Hard:
     16:
     0,0,0,0,0:
00000000
00000000
00000000
00000000
,
00000000
00000000
00000000
00000000
,
00000000
00000000
00000000
00000000
,
00000000
00000000
00000000
00000000
,
00110000
00001010
00110000
00001010
,
00110000
00001010
00110000
00001010
,
00110000
00001010
00110000
00001010
,
00010000
00001000
00010000
00001000
00010000
00001000
00010000
00001000
00010000
00001000
00010000
00001000
00010000
00001000
00010000
00001000
,
00100000
00000000
00000000
00000000
01100000
00000000
01000000
00000000
11000000
00000000
10000000
00100000
01000000
00000000
01010000
00000000
,
00010000
00100000
01000000
00000000
11000000
00000000
10000000
00000000
00010000
00000000
00100000
00001000
00010000
00000000
00010100
00000000
,
00000100
00001000
00000010
00000000
00001001
00000000
00000001
00000000
00000011
00000000
00000010
00000100
00001000
00000000
00001100
00000000
,
00000100
00010000
00001000
00000000
00011000
00000000
00010000
00000000
00000010
00000000
00000100
00000001
00001000
00000000
00001100
00000000
,
00000100
00010000
00001000
00000000
00010000
00000000
00010000
00000000
00010000
00000000
00000100
00010000
00000000
00010000
00000000
00010000
,
00000100
00000000
00000100
00000000
00001000
00000000
00000010
00000000
00000001
00000000
00000010
00000100
00000000
00000001
00000000
00001000
,
00000100
00000000
00000010
00000000
00000001
00000000
00000001
00000000
00000001
00000010
00000000
00000010
00000100
00001000
00000100
00000000
,
00001000
00000000
00000100
00000000
00020000
00000000
00031000
02000000
00000000
03010000
00200000
00000000
02300000
00000000
03020000
00000000
,
02030000
00000000
23000000
00000000
30100000
01000000
00000000
00000000
00100000
10000000
00000000
00010000
00100000
00000000
01000000
00100000
,
00010000
00000000
10000000
00000000
00100000
00000000
00010000
00000000
00100000
00000000
01000000
00001000
00000000
00001000
00010000
00000000
,
00000100
00000000
00001000
00000000
00000001
00000000
00001000
00000000
00000010
00000100
00000000
00000100
00000001
00000000
00000010
00000100
,
00000000
00000100
00000010
00000000
00000002
00000000
00001003
00000020
00000000
00000130
00002000
00000000
00003200
00000000
00000320
00000000
,
00020030
00000000
00032000
00000000
01003000
00010000
00100000
00000000
21000000
00000000
00000000
00000000
00010000
00000000
00000000
30010000
,
00000000
00000000
00000000
00000000
01010000
00000000
00010000
00000000
00100000
00000000
00001000
00010000
00000100
00000000
00001100
00000000
,
00001000
00000010
00000100
00000000
00000001
00001000
00000100
00000000
00000021
00000000
00000000
00000000
00000100
00000000
00000000
00000130
,
00000000
00000100
00000010
00000100
00001000
00000000
00000001
00000000
00000110
00000000
00001000
00000000
00000001
00000000
00000110
00000000
,
00001000
00000000
00001001
00000000
00000001
00000100
00001000
00010000
,
00100000
10000000
10010000
00000000
10000000
01000000
00010000
00001000
,
00000010
00000001
00001001
00000000
00000001
00000100
00001000
00010000
,
00100000
10000000
10010000
00000000
10000000
01000000
00010000
00001000
,
00000010
00000000
00000001
00000000
00001001
00000000
00000000
00000000
00000001
00000000
00000001
00000000
00001000
00000001
00001000
00000000
,
00001000
00000000
00000000
00000100
00000000
00000000
00001000
00000000
00000000
00000100
00000000
00000000
00010000
00000000
00000000
00000000
00000000
00000000
00000000
00000000
00000000
00000000
00000000
00000000
00010000
00000000
00000000
00000100
00000000
00000000
00010000
00000000
00000000
00000000
00000000
00000000
00001000
00000000
00100000
00000000
00001000
00000000
00100000
00000000
00000000
00000000
00000000
00000000
,
00001000
00000000
00100000
00010000
10000000
00000000
00000000
00000000
00010000
01000000
00010000
10000000
01000000
00000000
01000000
00000000
,
00100000
00000000
00000000
00000000
00000000
00000000
00010000
00000000
00000000
01000000
00000000
00000000
00010000
00000000
00000000
00000000
00000000
00000000
10000000
00000000
00000000
00010000
00000000
00000000
00100000
00000000
00010000
00000000
00100000
00000000
00010000
00000000
00000000
00000000
00000000
00000000
00100000
00000000
00000000
00000000
00000000
00000000
00001000
00000000
00000000
00000000
00000000
00000000
,
00010000
00000000
00000000
00000000
00000000
00000000
00001000
00000000
00000000
00000000
00000000
00000000
00011000
00000000
00000000
00000000
00000000
00000000
00011000
00000000
00000000
00000000
00000000
00000000
00010000
00000000
00000100
00000000
00010000
00000000
00000100
00000000
00000000
00001000
00000000
00000000
00000010
00000000
00000000
00000000
00000000
00000000
00000100
00000000
00000010
00000000
00000100
00000000
,
00000010
00000000
00000000
00001000
00000000
00000000
00000001
00000000
00000000
00001000
00000000
00000000
00000100
00000000
00000000
00000010
00000001
00000010
00000001
00000000
00000000
00000001
00000000
00000000
,
00001000
00000000
00000000
00000010
00000000
00000000
00001000
00000000
00000000
00000010
00000000
00000000
00000100
00000000
00000000
00000000
00000000
00000000
00000000
00000000
00000000
00000000
00000000
00000000
00001001
00000000
00000000
00000000
00000000
00000000
00000000
00000000
00000000
00000000
00000000
00000000
00000001
00000000
00000100
00000000
00000001
00000000
00000100
00000000
00000001
00000000
00000100
00000000
,
00000001
00000000
00001000
00000000
00000002
00000000
00000200
00000003
00002000
00000300
00000020
00003000
00000002
00000030
00000003
00000000
,
00001001
00000000
00000000
00000000
00000001
00000000
00000100
00000000
00000010
00001000
00000000
00001000
00000100
00000000
00010000
00000000
,
00001000
01000000
00000000
01000000
00100000
00000000
10000000
00000000
00010000
00100000
00000000
01000000
10000000
00000000
20020000
00000000
,
00000000
00000000
30030000
00000000
00010000
00000000
00100000
00000000
01000000
10000000
00000000
10000000
00100000
00000000
01000000
00000000
,
00010000
00100000
00000000
00100000
00001000
00000000
00010000
00000000
00000100
00001000
00000000
00001000
00000010
00000000
00002002
00000000
,
00000000
00000000
00003003
00000000
00002001
00000000
00000000
00000000
00000010
00000000
00000000
00003100
00000010
00000000
00000001
00000000
,
00000010
00000100
00000000
00000100
00001000
00000000
00000100
00000000
00000010
00000001
00000000
00000001
00001000
00000000
00002020
00000000
,
00000000
00000000
00003030
00000000
00001010
00000000
00000000
00000000
00110000
00000000
00000000
00000000
00001000
00010000
00001000
00000000
,
01000000
00100000
00000000
00100000
10000000
01000000
00010000
01000000
10000000
00000000
00000000
00010000
10000000
00000000
02200000
00000000
,
00000000
03300000
10000000
00000000
00010000
00000000
10000000
00000000
,
00010000
10000000
00010000
10000000
,
00010000
00000000
00100000
00100000
00100000
00000000
00000000
00001000
,
00010000
00000100
00000010
00000010
00000010
00000000
00001001
00000001
,
00000100
00000010
00000000
00001000
00000100
00000000
00001000
00000000
00000100
00010000
00000000
00001000
01000000
00000000
00100000
00000000
,
10000000
00010000
00000000
00100000
01000000
00000000
22000000
00000000
00000000
00000000
33000000
00000000
00110000
00000000
00100000
00000000
,
00001000
00010000
00000000
00000100
00001000
00000000
00000010
00000000
00000100
00000001
00000000
00000010
00000001
00000000
00001000
00000000
,
00000100
00010000
00000000
00001000
01000000
00000000
01020000
00000000
02000000
00000000
03030000
00000000
20020000
00000000
00000000
00000000
,
00000000
00000000
30030000
10000000
01000000
00000000
00100000
00000000
01000000
10000000
00000000
00010000
01000000
00000000
00100000
00000000
,
10000000
01000000
00000000
00100000
00010000
00000000
20020000
00000000
00000000
00000000
30030000
00000000
10010000
00000000
00000000
00000000
,
00011000
00000000
00000000
00010000
00000100
00000000
00001000
00000000
00000010
00000100
00000000
00000001
00000010
00000000
00000100
00000000
,
00001000
00000100
00000000
00000000
00210000
00000000
01000000
00000000
00310000
01000000
00000000
00100000
20000000
00000000
01000000
00000000
,
30010000
01000000
00000000
00010000
00200000
00000000
00001000
00000000
00310000
00100000
00000000
00010000
00100000
00000000
00202000
00000000
,
00000000
00000000
00303000
00000000
00020000
00000000
00000100
00000000
00031000
00010000
00000000
00010000
00000020
00000000
00000100
00000000
,
00001030
00000010
00000000
00000100
00000002
00000000
00000010
00000000
00001003
00000100
00000000
00000010
00000200
00000000
00002300
00000000
,
00000002
00000000
00000000
00003003
00000220
00000000
00000000
00000000
00000000
00000000
00000330
00000001
00000200
00000000
00000010
00000000
,
00000301
00001000
00000000
00000100
00020000
00000000
00001000
00000000
00030100
00001000
00000000
00000100
00010000
00000000
00022000
00000000
,
00000000
00000000
00000000
00033000
00002000
00000000
00010000
00000000
00103000
00010000
00000000
10000000
02000000
00000000
00100000
00000000
,
13000000
00100000
00000000
01000000
00020000
00000000
00100000
00000000
10030000
01000000
00000000
00100000
01000000
00000000
20000000
00000000
,
00200000
00000000
00000000
30300000
00000000
00000000
01010000
00000000
00000000
01000000
00000000
00000000
00100000
00000000
00000000
10000000
00000000
00000000
00010000
00000000
00000000
00100000
01000000
00100000
,
01000000
00000000
10000000
00010000
01000000
00000000
00010000
00000000
00100000
00000000
00001000
00010000
00000010
00000000
00000100
00000010
,
00000000
00000010
00000000
00000010
00000100
00000001
00001000
00000100
00000010
00000000
00000001
00000000
00001000
00000000
00000100
00010000
,
00000000
00010000
00000000
00010000
00001000
00000000
00010000
00001000
00000000
00010000
00001000
00000000
00010000
00001000
00000000
00010000
,
00001000
00000000
01000000
00000000
00100000
00000000
10000000
00000000
00010000
00000000
01000000
00000000
00010000
00100000
00000000
01000000
,
00000000
00000000
00000000
00100000
00000000
00000000
00000000
00000000
00000000
00001000
00000000
00000000
00010000
00000000
00000000
00000000
00001000
00000000
00000000
00000000
00100000
00000000
00000000
00000000
00001000
00000000
00000000
00000000
00010000
00000000
00000000
00000000
00000010
00000000
00000000
00000000
00000100
00000000
00000000
00000000
00000000
00000000
00000010
00000000
00000000
00001000
00000000
00000000
,
00000000
00000001
00000000
00000010
00000100
00000000
00001000
00000000
00000100
00000000
00000001
00000000
00000100
00000000
00001000
00000100
,
00000000
00010000
00000000
00001000
01000000
00000000
10000000
00000000
01000000
00000000
00010000
00000000
10000000
00000000
01000000
00100000
,
00000000
00001000
00000000
00010000
00011000
00000000
00000000
00000000
00000000
00000000
00000000
00000000
00000000
00000000
00000000
00000000
;
