#TITLE:VALKYRIE ASSAULT;
#SUBTITLE:;
#ARTIST:BEMANI Sound Team "SYUNN";
#TITLETRANSLIT:;
#SUBTITLETRANSLIT:;
#ARTISTTRANSLIT:;
#GENRE:;
#CREDIT:;
#MUSIC:VALKYRIE ASSAULT.ogg;
#BANNER:;
#BACKGROUND:;
#CDTITLE:;
#SAMPLESTART:12.083;
#SAMPLELENGTH:10.667;
#SELECTABLE:YES;
#OFFSET:-0.083;
#BPMS:0.000=180.000
,36.000=360.000
,228.000=180.000
,276.000=360.000
,308.000=180.000
,316.000=360.000
,556.000=180.000
;
#STOPS:;
#BGCHANGES:;
#FGCHANGES:;

//--------------- dance-single - Pandemonium X ----------------
#NOTES:
     dance-single:
     Pandemonium X:
     Beginner:
     8:
     0,0,0,0,0:
0000
0000
0000
0000
,
0000
0000
0000
0000
,
0000
0000
0000
0000
,
0000
0000
0000
0000
,
0000
0000
0000
0000
,
0001
0000
0000
0000
,
0001
0000
0000
0000
,
1000
0000
0000
0000
,
1000
0000
0000
0000
,
0010
0000
0000
0000
,
0100
0000
0000
0000
,
0001
0000
0000
0000
,
1000
0000
0000
0000
,
0100
0000
0000
0000
,
0010
0000
0000
0000
,
0200
0000
0000
0000
,
0300
0000
0000
0000
,
1000
0000
0000
0000
,
0001
0000
0000
0000
,
0100
0000
0000
0000
,
0010
0000
0000
0000
,
0100
0000
0000
0000
,
0001
0000
0000
0000
,
0020
0000
0000
0000
,
0030
0000
0000
0000
,
0100
0000
0100
0000
,
0100
0000
0000
0000
,
1000
0000
0000
0000
,
0001
0000
0000
0000
,
0100
0000
0000
0000
,
0001
0000
0000
0000
,
0010
0000
0000
0000
,
0100
0000
0000
0000
,
0010
0000
0010
0000
,
0010
0000
0000
0000
,
0001
0000
0000
0000
,
1000
0000
0000
0000
,
0010
0000
0000
0000
,
1000
0000
0000
0000
,
0100
0000
0010
0000
,
0100
0000
0000
0000
,
0010
0000
0010
0000
,
0010
0000
0010
0000
,
0001
0000
0001
0000
,
0001
0000
0001
0000
,
1000
0000
1000
0000
,
1000
0000
1000
0000
,
0100
0000
0100
0000
,
0100
0000
0100
0000
,
1000
0000
0000
0000
,
0010
0000
0000
0000
,
0100
0000
0000
0000
,
0001
0000
0000
0000
,
1000
0000
0000
0000
,
0001
0000
0000
0000
,
0100
0000
0100
0000
,
0010
0000
0010
0000
,
1001
0000
0001
0001
,
0000
0000
1000
1000
,
0000
0000
0001
0001
,
0000
0100
0010
1000
,
1001
0000
0001
0000
,
0001
0000
1000
0000
,
1000
0000
0010
0000
,
0010
0000
0100
1001
,
0010
0000
0000
0000
,
1001
0000
0000
0000
,
0110
0000
0000
0000
,
1001
0000
0000
0000
,
0001
0000
0000
0000
,
1000
0000
0000
0000
,
0010
0000
0000
0000
,
0100
0000
0000
0000
,
0001
0000
0000
0000
,
1000
0000
0000
0000
,
0100
0000
1000
0000
,
0010
0000
0100
0000
,
0001
1000
1000
1000
,
0020
0000
0130
1001
,
0001
0000
1000
0000
,
0100
0000
1000
0000
,
0010
0000
0100
0000
,
0101
0000
0000
0000
,
2020
0000
3030
0000
,
0100
0000
0002
0000
,
0000
0000
0003
0000
,
0002
0000
0000
0003
,
0010
0000
0100
1000
,
0100
0000
0020
0000
,
0000
0000
0000
0000
,
0230
0000
0000
0000
,
1300
0000
0001
0100
,
0010
0000
0100
0000
,
0001
0000
0001
0000
,
1000
0000
1000
0000
,
0001
0000
1000
0000
,
0010
0000
1000
0000
,
0001
0000
0010
0000
,
0200
0000
0000
0300
,
0010
0000
0000
0000
,
0001
0000
0100
0000
,
0000
0000
0000
0000
,
0010
0000
0000
0000
,
0100
0000
0001
0000
,
1000
0000
1010
0000
,
0000
0001
1000
0000
,
0200
0000
0000
0000
,
0310
0000
0000
0000
,
0000
0000
0000
0000
,
1000
0001
1000
0001
,
1000
0001
0000
0000
,
0100
0000
0001
0000
,
0010
0000
0001
0000
,
0100
0000
0010
0000
,
1000
0000
0010
0200
,
0000
0000
0300
0000
,
0010
0000
0010
0000
,
0100
0000
0100
0000
,
0001
0000
0001
0000
,
0000
0000
1000
0000
,
0100
0000
1000
0000
,
0010
0000
1000
0000
,
0001
0000
0010
0000
,
0000
0000
0100
0000
,
0010
0000
0001
0000
,
0100
0000
0010
0000
,
1000
0000
0001
0000
,
0000
0000
0010
0000
,
0001
0000
0100
0000
,
0010
0000
1000
0000
,
0100
0000
0010
0000
,
0000
0000
0000
0000
,
0100
0000
0010
0000
,
0001
0000
0100
0000
,
0010
0000
1000
0000
,
0001
0000
0001
0000
,
1000
0000
1000
0000
,
0010
0000
0100
0000
,
0001
0100
0010
0000
,
1010
0000
0010
0010
,
0000
0000
1000
1000
,
0000
0000
0100
0100
,
0000
0000
0010
0010
,
0000
0000
0001
0001
,
0000
0000
1000
1000
,
0000
0000
0010
0010
,
0000
0000
0100
0100
;

//--------------- dance-single - Pandemonium X ----------------
#NOTES:
     dance-single:
     Pandemonium X:
     Easy:
     12:
     0,0,0,0,0:
0000
0000
0000
0000
,
0000
0000
0000
0000
,
0000
0000
0000
0000
,
0000
0000
0000
0000
,
0000
0000
0000
0000
,
0001
0001
0001
0000
1000
0000
0001
0000
,
1000
1000
1000
0000
0001
0000
1000
0000
,
0010
0010
0010
0000
0100
0000
0010
0000
,
0100
0000
0000
0010
0000
0000
1000
0000
,
0001
0100
0000
0000
,
0010
1000
0000
0000
,
0100
0010
0000
0100
,
1000
0001
0000
0000
,
0100
0001
0000
0010
,
0100
1000
0000
0100
,
0020
0000
0001
0000
,
0100
0000
0031
0000
,
1001
0001
0000
0000
,
1000
0010
0000
0000
,
0100
0001
0000
0010
,
0100
1000
0000
0000
,
0100
1000
0000
0100
,
0010
0001
0000
0010
,
0002
0000
0100
0000
,
0013
0000
0001
1000
,
0001
0000
0011
0000
,
1100
0000
0001
0000
,
0100
0001
0000
0100
,
0010
0000
1000
0000
,
0001
0000
1000
0000
,
0100
0010
0001
0000
,
1000
0000
0001
0000
,
0100
0010
1000
0000
,
1001
0000
1100
0000
,
0100
1000
0001
0000
,
0100
0001
0000
0010
,
0100
0000
0010
0000
,
0001
0000
0100
0000
,
0010
1000
0001
0000
,
0010
0000
0100
0000
,
0010
0001
0100
0000
,
0001
0000
0001
0000
,
1000
0000
1000
0000
,
0010
0000
0010
0000
,
0100
0000
0100
0000
,
1000
0000
1000
0000
,
0100
0000
0100
0000
,
0001
0000
0001
0000
,
0010
0000
0010
0000
,
1000
0000
0010
0000
,
0001
0000
0100
0000
,
1000
0000
0100
0000
,
0010
0000
1000
0000
,
0100
0000
0001
0000
,
0100
0000
0010
0000
,
0001
0000
0100
0000
,
0010
0000
1000
0000
,
1001
0000
0001
1000
,
0000
0000
0100
0010
,
0000
0000
0100
1000
,
0000
0100
1000
0010
,
0101
0001
0100
0010
,
1000
0001
0010
0100
,
0010
0000
0001
1000
0010
0000
1000
0010
,
0000
0000
1000
0010
0100
0001
0020
0000
,
0130
0100
0100
0100
,
0011
0001
0001
0001
,
1100
0100
0100
0100
,
1010
0010
0010
0010
,
0100
0000
0001
0000
,
1000
0000
0100
0000
,
0010
0000
0001
0000
,
0010
0000
0001
0000
,
0100
0001
0100
0010
,
1000
0000
0000
1000
0000
0000
1000
0000
,
0001
0000
0010
0001
,
1000
0010
0100
0001
,
1001
1000
0100
0010
,
0001
0010
1100
0011
,
1001
0000
0001
0100
,
0010
0000
1000
0000
,
0001
1000
0100
0000
,
0010
0000
0000
0010
0000
0000
0010
0000
,
0200
0000
0000
0000
,
0310
0000
0000
0000
0001
0000
0000
0000
0100
0000
0000
0000
,
0010
0000
0000
0000
1000
0000
0000
0000
0001
0000
0000
0000
,
1000
0000
0000
0000
0100
0000
0000
0000
0010
0000
0000
0000
,
0001
1000
0010
0001
,
0010
0000
0110
0000
,
0001
0000
0100
0000
,
0010
1000
0001
0000
,
0010
0000
0100
0010
,
0002
0000
0103
0000
,
1010
0000
0011
0000
,
1000
0001
0020
0000
,
0130
0000
0010
0001
,
1000
0000
0010
1000
,
0001
0010
0100
0000
,
2000
0000
0000
0000
,
3001
0000
0000
0000
0001
0000
0000
0000
0001
0000
0000
0000
,
0100
0000
0000
0000
0010
0000
0000
0000
1000
0000
0000
0000
,
0100
0000
0000
0000
0010
0000
0000
0000
0001
0000
0000
0000
,
1000
0000
0000
0000
0010
0000
0000
0000
0100
0000
0000
0000
,
0001
0000
0000
0000
0000
0000
1000
0000
0100
0000
0010
0000
,
0001
0000
2001
0000
,
0000
0001
0001
0000
,
3002
0000
0000
0000
,
0203
0000
0000
0000
,
0000
0000
0000
0000
,
0301
1000
0001
1000
,
0001
1000
0100
0010
,
0001
0000
1001
0000
,
0001
0100
0010
0000
,
0100
0001
1000
0000
,
0100
0010
0001
2000
,
0000
0000
3010
0000
,
0110
0000
0011
0000
,
0110
0000
1100
0000
,
0011
0000
0101
0000
,
2000
0000
3100
0000
,
0010
0000
0110
0000
,
1000
0010
0100
0001
,
1000
0100
0010
0001
,
1000
0000
0002
0000
,
0203
0000
2300
0000
,
3200
0000
0320
0000
,
2030
0000
3002
0000
,
0003
0000
0020
0000
,
0032
0000
0203
0000
,
0320
0000
0032
0000
,
0023
0000
1030
0000
,
0002
0000
0000
0000
,
0103
0000
0101
0000
,
0100
0000
1010
0000
,
0010
0000
1100
0000
,
0000
0000
0001
0010
,
0001
1000
0100
1000
,
0100
1000
0010
0100
,
0001
0010
0100
1000
,
0001
0000
1000
0010
,
0000
0000
0100
0001
,
0000
0000
0010
0100
,
0010
0000
0000
0001
0000
0000
1000
0000
,
0010
0000
0100
0001
,
0000
0000
0010
0100
,
0000
0000
0010
0001
,
1000
0000
0000
0001
0000
0000
0200
0000
,
0300
0000
0000
0000
;

//--------------- dance-single - Pandemonium X ----------------
#NOTES:
     dance-single:
     Pandemonium X:
     Medium:
     15:
     0,0,0,0,0:
0000
0000
0000
0000
,
0000
0000
0000
0000
,
0000
0000
0000
0000
,
0000
0000
0000
0000
,
0000
0000
0000
0000
,
0001
0100
0001
0000
0100
0000
0010
0000
,
1000
0100
1000
0000
0100
0000
1000
0000
,
0010
0100
0001
1000
,
0001
1000
0010
1000
0001
0010
0100
0000
,
0010
0001
0100
0000
0000
0000
0010
0000
,
1000
0001
0000
1000
,
0100
0000
0010
0000
0000
0000
0100
1000
,
0001
1000
0020
0000
,
0130
0001
1000
0000
0000
0000
0100
0000
,
0010
0000
0001
0000
0010
0000
0100
1000
,
0001
0000
0100
0000
1000
0000
0100
0010
,
1000
0000
0001
0000
0011
0000
0000
0010
,
0100
1000
0001
0000
0000
0000
1000
0000
,
0001
0010
0000
0100
,
1000
0010
0000
0100
,
0001
1000
0100
0000
0012
0000
0000
0000
,
0013
0001
0000
0100
,
0001
0010
0000
0100
,
0010
0001
1000
0000
0010
0000
1000
0010
,
0100
0000
0001
0000
1000
0100
0010
0001
,
1000
0010
0000
0010
0100
0000
0001
1000
,
0001
0010
0100
1000
,
0001
1001
0000
0001
,
0100
0100
0001
1000
,
0200
0000
0310
1000
,
0010
0001
1000
0010
,
0001
0000
0010
0000
0100
0000
0001
1000
,
0100
0000
0010
0000
0001
0000
0000
1000
,
0001
0010
0000
0010
0100
0000
1000
0001
,
1000
0010
0100
0001
,
0010
1001
0000
1000
,
0001
0001
0010
0001
,
2000
0000
3010
0001
,
0010
0000
0100
0010
0100
0000
0010
0000
,
1000
0100
0000
0100
0010
0000
0100
1000
,
0001
0000
0100
0000
0010
0000
0000
1000
,
0001
0000
0000
0001
0010
0000
0000
0010
,
0100
0000
0000
0100
1000
0000
0001
0000
,
0100
0000
0000
0010
0100
0000
0000
0100
,
0001
0000
0000
0001
1000
0000
0100
0000
,
0010
0000
0000
0100
0010
0000
0000
0010
,
0001
0000
0000
0001
0100
0000
0010
0000
,
1000
0000
0000
0001
1000
0000
0000
1000
,
0100
0000
0000
0100
0010
0000
0100
0000
,
1000
0000
0000
0001
0100
0000
0000
0100
,
0010
0000
0000
0010
0100
0000
0001
1000
,
0001
0000
0000
1000
0100
0000
0000
0010
,
0001
0000
0000
0010
0100
0000
0010
0001
,
0010
0100
0010
0001
,
0100
0010
0001
0010
,
0100
1000
0100
0001
,
1000
0100
0010
0001
,
1001
0000
0000
0000
0001
0100
0010
1000
,
0000
0000
0000
1000
1000
0010
0100
0001
,
0000
0000
0000
0010
0010
0001
1000
0010
,
0000
0000
0000
0000
0100
0000
0001
0000
1000
0100
0010
0000
0100
0000
1000
0000
,
1001
0001
0020
0000
0130
0001
0100
1000
,
0020
0000
0100
0000
1030
1000
0001
0010
,
0100
0000
0000
0000
0010
0000
0001
0000
1000
0000
0000
0001
0100
0000
1010
0000
,
0000
0000
1000
0000
0100
0000
0010
0000
0100
1000
0010
0000
2002
0000
3003
0000
,
0201
0000
0010
0000
0001
0000
0310
1000
,
1200
0000
0001
0000
1000
0000
0310
0001
,
0021
0000
0100
0000
0001
0000
0130
1000
,
1020
0100
1000
0130
,
1001
0001
0010
0001
,
0100
0010
1000
0100
,
0010
0001
0010
0100
,
0010
0001
0100
0010
,
1000
0001
0010
0100
,
1100
0000
0000
1100
0000
0000
0010
0001
,
0010
0000
0001
0100
,
1000
0100
0010
0000
0100
0010
1000
0001
,
1000
0000
0000
0000
0001
0100
0001
0000
1000
0100
1000
0000
1001
0000
0000
0001
,
0010
0100
0010
0000
0001
0000
0100
0000
1020
0000
0000
0000
0230
0000
0000
0000
,
0301
0000
1000
1000
,
1002
0000
0013
1000
,
0010
0001
2000
0000
,
3010
0000
0000
0010
0000
0000
0010
0000
,
0202
0000
0000
0303
,
1000
0000
0000
0000
1000
0000
0000
0000
1100
0000
0000
0000
,
0100
0000
0000
0000
0010
0000
0000
0000
0001
0000
0000
0000
,
1001
0000
0000
0000
0001
0000
0000
0000
0100
0000
0000
0000
,
0010
0000
0000
0100
0000
0000
0010
0000
0100
0000
0001
0000
,
1000
0000
0011
0100
,
0100
0000
0000
0000
0100
0000
0000
0000
0100
0000
0000
0000
,
0100
0000
0010
0000
0001
0000
1000
0000
0010
0000
0100
0000
,
0001
0000
1000
0000
0100
0010
0100
0000
,
1000
0010
0100
0001
0010
0000
0000
0100
,
1000
0000
0000
1000
0001
0000
0000
0100
,
0010
0000
0000
1000
0002
0000
0023
0000
,
0130
0000
0010
0001
,
2001
0000
3010
0001
,
0010
1000
0200
0000
,
0310
0001
0100
0001
0010
0001
1000
0000
,
0001
0000
0000
0000
0001
0000
0000
0000
0001
0000
0000
0000
,
1010
0000
0000
0000
1000
0000
0000
0000
1100
0000
0000
0000
,
0100
0000
0000
0000
0010
0000
0000
0000
0001
0000
0000
0000
,
1001
0000
0000
0000
0001
0000
0000
0000
0100
0000
0000
0000
,
1010
0000
0000
0000
0000
0000
0010
0000
1000
0000
0001
0000
,
0100
0000
2002
0000
,
3003
0100
0110
0000
,
2002
0000
0000
3003
,
0001
0100
0001
0100
0001
0100
0001
0100
,
0010
1000
0010
1000
0010
1000
0010
1000
,
0001
0001
0001
0001
,
0001
0000
0001
0000
0001
0010
0100
1000
,
0001
0000
0000
0000
1010
0000
1000
0001
,
1000
0000
0001
0000
0010
0000
0100
1000
,
0010
0000
0100
0000
0001
0000
0010
0100
,
1000
0000
0000
0001
0000
0000
1000
0000
0100
0000
0010
0000
,
0001
1000
0010
0000
,
0110
0000
0101
0001
,
0011
1000
1100
0001
,
1001
1000
0101
0100
,
0020
0000
0000
0000
0130
0000
0001
1000
,
0100
0000
0010
0000
0011
0000
0001
1000
,
0100
0100
0010
0010
,
0001
0000
0001
0000
1000
0001
1000
0001
,
1000
0000
0001
0100
,
0010
1000
0001
0010
,
0100
0010
0001
1000
,
0010
0100
0001
0010
,
0200
0000
0301
0100
,
1000
0010
0100
0001
,
0100
1000
0100
0001
,
1000
0010
0100
0001
,
2000
3200
0320
0000
,
0230
0000
0310
0001
,
0100
0010
1000
0001
,
0010
0100
0010
0001
,
0000
0000
1000
0010
,
0001
0010
0100
1000
,
0100
0001
1000
0100
,
0010
0001
1000
0000
0010
0000
0100
0001
,
1000
0000
0000
0000
0001
1000
0100
0010
,
0000
0000
0000
0010
0010
0100
1000
0001
,
0000
0000
0000
0100
0100
0001
0010
0100
,
0000
0000
0000
0010
0010
0001
1000
0010
,
0000
0000
0000
0100
0001
0000
1000
0000
,
0000
0000
0000
0100
0010
0001
1000
0000
,
0000
0000
0000
0010
0001
1000
0100
0000
,
0000
0000
0000
1000
0100
0010
0001
1000
;

//--------------- dance-single - Pandemonium X ----------------
#NOTES:
     dance-single:
     Pandemonium X:
     Hard:
     18:
     0,0,0,0,0:
0000
0000
0000
0000
,
0000
0000
0000
0000
,
0000
0000
0000
0000
,
0000
0000
0000
0000
,
0000
0000
0000
0000
,
0101
0000
0100
0000
0010
1000
0010
0000
1000
0000
0001
0000
1000
0000
0001
0000
,
0010
0000
0100
0000
1000
0100
1000
0000
0100
0000
0010
0000
0100
0000
1000
0000
,
0001
0100
0001
0000
0100
0000
0010
0000
0001
0000
0010
0000
0100
0000
0001
0000
,
1000
1000
0001
0010
0010
0001
0100
0000
,
0010
1000
0001
0000
0101
0000
0010
0001
,
0100
0010
1001
0000
,
0001
0100
0010
0000
1010
0000
1000
0001
,
0010
0100
2001
0000
,
3010
0100
0001
0000
0011
0000
0010
0001
,
1000
0000
0100
0000
0110
0000
0100
1000
,
0010
0100
0010
0100
0010
0100
0010
0100
,
0010
0000
1000
0000
1100
0000
0000
0100
,
1000
0001
0100
0000
0110
0000
0010
1000
,
0001
0010
1001
0000
,
0001
1000
0100
0000
0011
0000
0001
1000
,
0010
0100
1020
0000
,
0130
0001
0010
0000
0011
0000
0010
0001
,
1000
0000
0010
0000
1001
0000
1000
0001
,
0010
0100
0010
0100
0010
0100
0010
0100
,
0010
0000
1001
0000
1000
0100
0010
0001
,
1000
0010
0000
0010
0100
0000
0100
0001
,
0010
0000
0010
0001
1000
0000
0100
0000
,
0010
0000
1001
0000
0000
0000
0001
0100
,
0010
0100
0001
1000
,
0100
0010
0000
0010
0001
0000
1000
0001
,
0100
0001
1000
0000
1001
0000
1000
0001
,
0100
0010
1000
0100
0010
0000
0100
0010
,
0001
1000
0001
0100
0001
0000
0000
0010
,
0001
1000
0000
1000
0010
0000
0010
1000
,
0100
0000
0100
1000
0001
0000
0100
0000
,
0001
0000
1001
0000
0000
0000
1000
0010
,
0100
0010
1000
0001
,
0010
0100
0000
0100
0010
0000
0001
1000
,
0010
1000
0001
0000
1001
0000
0001
1000
,
0010
0100
0001
0010
0100
0010
0100
0010
,
0001
0100
0001
1000
0100
0010
0001
0000
,
1000
0000
0001
0100
0001
0000
0100
0010
,
0100
0000
0010
1000
0010
0000
1000
0100
,
1000
0000
0100
0010
0100
0000
0010
0001
,
0010
0000
0001
1000
0001
0000
0100
0001
,
0100
0000
0010
1000
0010
0000
1000
0100
,
1000
0000
0100
0010
0100
0000
0010
0001
,
0010
0100
0100
0010
,
0001
0000
1000
0000
1001
0000
0000
1000
,
0001
0100
0010
0000
0100
0001
1000
0000
,
0100
0010
0001
0000
0010
0001
1000
0000
,
0001
1000
0100
0000
1000
0010
0100
0000
,
0010
0100
0001
0000
0100
0001
1000
0000
,
0001
0010
0200
0000
0310
0001
2000
0000
,
3100
1000
0002
0000
0103
0010
2000
0000
,
3001
0010
0200
0000
0310
0001
2000
0000
,
3001
1000
0200
0000
0310
0001
2000
0000
,
3100
0100
0100
0100
0020
0032
2003
3020
,
0130
0100
0100
0020
0230
0302
2003
3200
,
0310
0010
0010
0200
2300
3002
0203
0320
,
0031
0000
0010
0000
1000
0000
0010
0000
0100
0001
0010
0000
0100
0000
1000
0000
,
1001
1000
0020
0000
0031
0010
0100
0001
,
2000
0000
0000
0000
3100
0010
0001
0000
0010
0000
0001
1000
0010
0000
0100
0000
,
0001
0000
1000
0000
0100
0000
0010
0000
1001
0000
0001
0100
0010
0000
1001
0000
,
1000
0010
0100
0000
0010
0000
1000
0000
0001
0010
0100
0000
1001
0000
0000
0000
,
0101
0000
0000
0001
0010
0000
0000
0010
0100
0000
0000
0100
1000
0000
0001
0000
,
1001
0000
0000
1000
0010
0000
0000
0010
0100
0000
0000
0100
0001
0000
1000
0000
,
1001
0000
0000
1000
0010
0000
0000
0100
0001
0000
0000
0001
0010
0000
0100
0000
,
1100
0000
0000
1000
0100
0000
0000
0010
0001
0000
0000
0100
0002
0000
0203
0000
,
0310
1000
0010
0100
,
0001
0100
0001
0010
,
0001
0010
0001
1000
,
0100
1000
0100
0010
,
0001
0010
0100
1000
,
1001
0000
0000
1001
0000
0000
0001
1000
,
0020
0000
0230
2300
,
3200
0302
0023
0000
2030
0000
3020
0000
,
0031
0000
0000
0000
1000
0001
1000
0000
1000
0001
1000
0000
1000
0000
0000
0001
,
0100
0000
0000
0010
0000
0000
1000
0000
0000
0100
0000
0000
0010
0000
0000
0000
0000
0000
0100
0000
0000
0000
0000
0000
1000
0000
0000
0000
0010
0000
0000
0000
0100
0000
0000
0000
0001
0000
0000
0010
0000
0000
0100
0000
0000
1000
0000
0000
,
0001
0000
0101
0011
,
2001
0000
0000
0000
3100
0000
0010
0001
,
1000
1010
0201
0000
,
1000
0000
0000
0001
0000
0000
1300
0000
,
0220
0000
0000
0330
,
1001
0000
0000
0000
1001
0000
0000
0000
1010
0000
0000
0000
,
0101
0000
0000
0000
0011
0000
0000
0000
0110
0000
0000
0000
,
1100
0000
0000
0000
1001
0000
0000
0000
0101
0000
0000
0000
,
1001
0000
0000
0110
0000
0000
1000
0000
0100
0000
0010
0000
,
0001
0000
1000
0001
0010
0000
1100
0000
,
1100
0000
0000
0000
1100
0000
0000
0000
1100
0000
0000
0000
,
1000
0001
0100
0010
0100
0010
0100
0010
,
1000
0100
0010
0001
1000
0010
0100
0001
,
0010
0000
0100
0000
0010
0000
0100
0000
0010
0000
0100
0000
0010
0000
0000
0000
0000
0000
0100
0000
0000
1000
0000
0000
,
0001
0000
0001
0100
0010
0000
0010
1000
,
0001
0000
1000
0000
0100
0010
0001
1000
,
0020
0000
0000
0000
0130
0001
0010
0000
,
2100
0000
3001
0010
,
0001
1000
0200
0000
,
0310
0001
0100
0010
1000
0001
0100
0000
,
1001
0000
0000
0000
1010
0000
0000
0000
1100
0000
0000
0000
,
1001
0000
0000
0000
0101
0000
0000
0000
0011
0000
0000
0000
,
0110
0000
0000
0000
1100
0000
0000
0000
1001
0000
0000
0000
,
0101
0000
0000
0000
1010
0000
0000
0000
0101
0000
0000
0000
,
1001
0000
0000
0000
0000
0000
0001
0000
0100
0000
1000
0000
,
0100
0000
0000
0000
0010
0000
1000
0000
0000
0100
0000
0000
0020
0000
0000
0000
0000
0000
0000
0000
0000
0000
0000
0000
,
0000
0230
2300
0000
,
3002
0000
2003
0000
,
3001
0100
0010
1000
0001
0100
0010
1000
,
0001
0100
0010
1000
0001
0100
0010
1000
,
1001
1001
1001
1001
,
1001
0000
1001
0000
1000
0010
0100
0001
,
0010
0000
0000
0000
1001
0000
0001
1000
,
0010
0000
1000
0000
1001
0000
0001
1000
,
0100
0000
0010
0000
1001
0000
0001
0100
,
0010
0000
0000
1000
0000
0000
0002
0000
0023
0000
0230
0000
,
2300
0000
3000
0001
0000
0000
1001
0000
0000
0000
0000
0000
,
0202
0000
0303
0000
1010
0000
1000
0010
,
1010
0000
0001
0010
0011
0000
1000
0100
,
1100
0000
0010
0001
0011
0000
1000
0001
,
0200
0000
0310
0000
,
1001
0000
0001
0100
0010
0000
1000
0100
,
0110
0011
0110
0011
,
0010
0001
0100
0010
1000
0100
0010
0001
,
2000
0000
0000
0000
0000
3001
0100
0010
,
0000
0100
0001
1000
0000
0100
0010
0001
,
0000
0010
0001
1000
0000
0100
0010
0001
,
0000
0010
0100
1000
0000
0100
0010
0001
,
0200
0000
0000
0000
0310
1000
0100
0010
,
0000
0100
0010
0001
0000
0010
0100
1000
,
0000
0100
0010
0001
0000
0010
0001
0100
,
0000
0010
0100
0001
1000
0000
0001
0000
,
2000
0000
3020
0000
0230
0000
0302
0000
0000
0000
0000
0000
,
1003
0100
0010
0001
1000
0010
0100
0001
,
0010
0001
0100
0010
1000
0001
0010
0100
,
1000
0100
1000
0010
0100
0001
0010
0100
,
0000
0000
0000
0000
1000
0100
0010
0001
,
0100
0010
1000
0001
0100
0001
0010
0100
,
1000
0001
1000
0001
0200
0000
2300
0000
,
3200
0302
0023
0000
2030
0000
3020
0000
,
0031
0001
0001
0001
0002
2003
3020
2030
,
3001
0001
0001
2000
3200
0320
0230
2300
,
3001
0001
0001
2000
3200
0320
0230
2300
,
3002
1000
1003
2001
0001
3001
1000
1001
,
1000
0000
1000
0000
1000
0001
1000
0000
0200
0000
0320
0000
0032
0000
0203
0000
,
0310
0000
0010
0000
0010
0100
0020
0000
0230
0000
0302
0000
0023
0000
0230
0000
,
1300
1000
1000
0200
0320
0032
0023
0230
,
0310
0100
0100
2000
3020
0230
0302
2000
,
3003
0000
0000
0000
;

//--------------- dance-double - Pandemonium X ----------------
#NOTES:
     dance-double:
     Pandemonium X:
     Easy:
     12:
     0,0,0,0,0:
00000000
00000000
00000000
00000000
,
00000000
00000000
00000000
00000000
,
00000000
00000000
00000000
00000000
,
00000000
00000000
00000000
00000000
,
00000000
00000000
00000000
00000000
,
00010000
00010000
00010000
00010000
,
00001000
00001000
00001000
00001000
,
01000000
01000000
01000000
01000000
,
01000000
00000000
00000000
00100000
00000000
00000000
01000000
00000000
,
10010000
00000000
10000000
00000000
,
00000000
01000000
10000000
00000000
,
00100000
00000000
01000000
00000000
,
00000000
00001000
00020000
00000000
,
00030100
00000000
00001000
00000000
,
00000000
00000010
00000100
00000000
,
00000001
00000000
00000010
00000001
,
00000000
00000001
00000100
00000000
,
00000010
00000000
00000100
00000000
,
00000000
00000001
00001000
00000000
,
00000100
00000000
00010000
00000000
,
00000000
00001000
02000000
00000000
,
03010000
00000000
00100000
00000000
,
00000000
01000000
10000000
00000000
,
00010000
00000000
10000000
00100000
,
00000000
01000000
00010000
00000000
,
00100000
00000000
01000000
00000000
,
10000000
00010000
10000000
00000000
,
00010000
01000000
00000000
00001000
,
00010000
00000000
00000100
00000000
,
00001000
00000000
00000010
00000000
,
00000100
00000001
00000100
00000000
,
00000001
00000000
00000010
00000000
,
00000100
00001000
00000100
00000000
,
00010000
00000000
00001000
00000000
,
01000000
00001000
00010000
00001000
,
00100000
00010000
00000000
00100000
,
01000000
00000000
01000000
00000000
,
10000000
00000000
00100000
00000000
,
01000000
00010000
00100000
00000000
,
00001000
00000000
00010000
00000000
,
00000100
00001000
00000100
00000000
,
00001000
00000000
00001000
00000000
,
00000010
00000000
00000010
00000000
,
00000100
00000000
00000100
00000000
,
00000010
00000000
00000010
00000000
,
00001000
00000000
00001000
00000000
,
00000001
00000000
00000001
00000000
,
00000010
00000000
00000010
00000000
,
00000100
00000000
00000100
00000000
,
00001000
00000000
00000100
00000000
,
00010000
00000000
00001000
00000000
,
01000000
00000000
00010000
00000000
,
00100000
00000000
01000000
00000000
,
10000000
00000000
00100000
00000000
,
01000000
00000000
00001000
00000000
,
00010000
00000000
00000100
00000000
,
00001000
00000000
00000010
00000000
,
00001001
00000000
00000001
00001000
,
00000000
00000000
00000100
00010000
,
00000000
00000000
00001000
01000000
,
00000000
00100000
01000000
00010000
,
10010000
00010000
10000000
01000000
,
00100000
00001000
00010000
00000100
,
00001000
00000000
00000010
00000100
00000001
00000000
00000100
00000001
,
00000000
00000000
00000001
00000010
00000100
00001000
00001002
00000000
,
00000103
00000100
00000100
00000100
,
00001010
00001000
00001000
00001000
,
00010100
00010000
00010000
00010000
,
01001000
00001000
00001000
00001000
,
01000000
00000000
00010000
00000000
,
00100000
00000000
01000000
00000000
,
10000000
00000000
00010000
00000000
,
00100000
00000000
00001000
00000000
,
00010000
00000000
00000100
00000000
,
00001000
00000000
00000000
00001000
00000000
00000000
00001000
00000000
,
00000010
00000000
00000100
00000010
,
00001000
00000001
00000010
00000100
,
00001200
00010000
00010000
00010300
,
00002000
01003000
01020000
00230000
,
01300000
00000000
00100000
00001000
,
00010000
00000000
00010000
00000100
,
00001000
00000010
00001000
00000000
,
00000001
00000000
00000000
00000001
00000000
00000000
00000001
00000000
,
00002000
00000000
00000000
00000000
,
00003100
00000000
00202000
00000000
,
00000000
00303000
00000000
00000000
,
00020200
00000000
00000000
00030300
,
00010000
00000000
00001000
01000000
,
00010000
00000000
00010000
00000000
,
00010000
00000000
00010000
00000000
,
20000000
00000000
00000000
00000000
,
31000000
00000000
00100000
01000000
,
20000000
00000000
30100000
00000000
,
00100000
00000000
00100000
00000000
,
00100000
00000000
01000000
00010000
,
10000000
00000000
01000000
00100000
,
00010000
00000000
00100000
00001000
,
00010000
00000010
00000100
00000000
,
00000002
00000000
00000000
00000003
,
00000010
00000000
00000000
00000010
00000000
00000000
00000010
00000000
,
00000100
00000000
00020200
00000000
,
00000000
00000000
00030300
00000000
,
00022000
00000000
00000000
00033000
,
00001000
00000000
00000000
00000000
00000000
00000000
01000000
00000000
00010000
00000000
00100000
00000000
,
01000000
00000000
12000000
00000000
,
00000000
00100000
03100000
00000000
,
02000000
00000000
00000000
00000000
,
23000000
00000000
32000000
00000000
,
03200000
00000000
00302000
00000000
,
00013000
00001000
00010000
00001000
,
00010000
00001000
00010000
00000000
,
00001100
00000000
00001010
00000000
,
00000001
00000000
00001000
00000000
,
00000100
00000000
00010000
00000000
,
00001000
00000000
01000000
00020000
,
00000000
00000000
00130000
00000000
,
01000000
00000000
01000000
00000000
,
10000000
00000000
10000000
00000000
,
00100000
00000000
00100000
00000000
,
02000000
00000000
03010000
00000000
,
00010000
00000000
00100000
00000000
,
00001000
00010000
00000100
00001000
,
00000010
00000100
00000001
00001000
,
00000100
00000000
00002000
00000000
,
00003200
00000000
00020300
00000000
,
00032000
00000000
02003000
00000000
,
03020000
00000000
00130000
01000000
,
10000000
00000000
02000000
00000000
,
23000000
00000000
30200000
00000000
,
02300000
00000000
03002000
00000000
,
00023000
00000000
00030200
00000000
,
00001300
00000000
00001001
00000000
,
00000001
00000000
00000100
00000000
,
00000010
00000000
00001000
00000000
,
00000100
00000000
00010000
00000000
,
00001000
00000000
01000000
00000000
,
00010000
00000000
00100000
00000000
,
01000000
00000000
00100000
00001000
,
00010000
00010000
00000100
00001000
,
00001010
00000000
00000000
00000000
00000100
00000001
00000010
00000001
,
00000000
00000000
00000000
00001000
00000100
00001000
00000010
00001000
,
00000000
00000000
00000000
00000100
00010000
00000100
00001000
00000100
,
00000000
00000000
00000000
00010000
00000100
00010000
00001000
00010000
,
00000000
00000000
00000000
00000000
00001000
01000000
00001000
00000000
,
00000000
00000000
00000000
01000000
00010000
01000000
00100000
00000000
,
00000000
00000000
00000000
10000000
01000000
10000000
00100000
00000000
,
00000000
00000000
00000000
10000000
01000000
00100000
00010000
00001000
;

//--------------- dance-double - Pandemonium X ----------------
#NOTES:
     dance-double:
     Pandemonium X:
     Medium:
     16:
     0,0,0,0,0:
00000000
00000000
00000000
00000000
,
00000000
00000000
00000000
00000000
,
00000000
00000000
00000000
00000000
,
00000000
00000000
00000000
00000000
,
00000000
00000000
00000000
00000000
,
00010000
00010000
00000100
00001000
00000100
00001000
00000100
00001000
,
00000010
00000010
00000100
00000001
00000100
00000001
00000100
00000001
,
00000100
00000010
00000100
00000010
00000100
00000010
00000100
00000010
,
00001000
00000100
00010000
00001000
01000000
00010000
00100000
00000000
,
11000000
01000000
10000000
00100000
,
01000000
00010000
00100000
00001000
,
00010000
00000100
00001000
00000010
,
00000100
00000001
00002100
00000000
,
00003010
00000100
00000001
00000010
,
00000100
00000000
00001000
00000000
00000100
00000000
00010000
00001000
,
00010000
00000000
00001000
01000000
00001000
00000000
01000000
00100000
,
01000000
00000000
00100000
00000000
10010000
00000000
00000000
00010000
,
00100000
00010000
01000000
00100000
,
10000000
00010000
00100000
00001000
,
00010000
00000100
00010000
00001000
,
00010000
00000010
00000210
00000000
,
00000301
00000010
00000100
00001000
,
00000100
00000000
00000010
00000000
00000001
00000000
00001000
00000010
,
00001000
00000000
00000100
00001000
00000100
00000000
00010000
00000100
,
00010000
00000000
00001000
00000000
01000000
00010000
00100000
01000000
,
10000000
01000000
00000000
01000000
00100000
00000000
01000000
10000000
,
01000000
00000000
10000000
00100000
10000000
00000000
00100000
00000000
,
01000000
01010000
00000000
00010000
,
00100000
10000000
00100000
00010000
,
00100000
00001000
00010000
00000100
,
00001000
00000000
00000010
00000000
00000100
00000000
00001000
00000100
,
00000010
00000000
00000100
00000001
00000010
00000000
00000100
00001000
,
00000001
00000000
00000100
00000000
00001001
00000000
00000000
00000001
,
00000010
00000100
00000000
00000010
00000001
00000000
00000100
00000010
,
00001000
00000100
00010000
00001000
,
01000000
01010000
00000000
01000000
,
10000000
01000000
00010000
10000000
,
01000000
00100000
00001000
00010000
,
00000010
00001000
00000100
00010000
,
00001000
00000000
01000000
00000000
00010000
00000000
00100000
01000000
,
00100000
00000000
00010000
00000000
10010000
00000000
00000000
10000000
,
01000000
00000000
00000000
01000000
00100000
00000000
00000000
00100000
,
00001000
00000000
00000000
00001000
00010000
00000000
00000100
00000000
,
00001000
00000000
00000000
00000010
00001000
00000000
00000000
00001000
,
00000001
00000000
00000000
00000001
00000010
00000000
00000100
00000000
,
00001000
00000000
00000000
00000100
00010000
00000000
00000000
00010000
,
00001000
00000000
00000000
00001000
01000000
00000000
00010000
00000000
,
00100000
00000000
00000000
01000000
00100000
00000000
00000000
00100000
,
00010000
00000000
00000000
00010000
10000000
00000000
00100000
00000000
,
10000000
00000000
00000000
10000000
01000000
00000000
00000000
01000000
,
00100000
00000000
00000000
00100000
00010000
00000000
00000000
00010000
,
01000000
00000000
00000000
01000000
00001000
00000000
00000000
00001000
,
00010000
00000000
00000000
00010000
00000100
00000000
00000000
00000100
,
00001000
00000000
00000000
00001000
00000010
00000000
00000000
00000010
,
00000100
00000000
00000000
00000100
00000001
00000000
00000000
00000001
,
00000010
00000000
00000000
00000010
00000100
00000000
00000000
00000100
,
00001000
00000000
00000000
00001000
00000001
00000000
00000000
00000100
,
00000010
00000000
00000000
00000000
00000100
00000010
00001000
00000100
,
00000000
00000000
00000000
00010000
00010000
00001000
01000000
00010000
,
00000000
00000000
00000000
00100000
01000000
10000000
00010000
01000000
,
00000000
00000000
00000000
00000000
00100000
00000000
10000000
00000000
01000000
00100000
01000000
00000000
00100000
00000000
00001000
00000000
,
00010000
00000010
00002000
00000000
00003010
00000000
00000100
00001000
,
00000200
00000000
00000301
00000010
00001000
00000010
00000001
00000010
,
00000100
00000000
00000000
00000000
00000100
00000000
00000100
00000000
00001000
00000000
00000100
00010000
00000100
00000000
00010000
00000000
,
00001000
01000000
00001000
00000000
00100000
00000000
00010000
00000000
00100000
01000000
10000000
00000000
10020000
00000000
00000000
00000000
,
01030000
00000000
00000000
01000000
00100000
00000000
00000000
00100000
10000000
00000000
00000000
10000000
01000000
00000000
00100000
00000000
,
00110000
00000000
00000000
00100000
00001000
00000000
00000000
00001000
00010000
00000000
00000000
00010000
00000100
00000000
00001000
00000000
,
00001010
00000000
00000000
00000010
00000100
00000000
00000000
00000100
00000001
00000000
00000000
00000001
00000010
00000000
00000100
00000000
,
00001100
00000000
00000000
00000100
00010000
00000000
00001000
00000000
01000000
00001000
00010000
00000000
00100000
00000000
00010000
00000000
,
10000000
10000000
00100000
00100000
,
01000000
01000000
00001000
00001000
,
00010000
00010000
00000100
00000100
,
00001000
00001000
00000010
00000010
,
00000100
00001000
00000100
00000001
,
00001000
00000000
00000000
00001000
00000000
00000000
00001000
00000100
,
00010000
00000000
00001000
01000000
,
00100000
10000000
01000000
00000000
00100000
00000000
00001000
00000000
,
00011000
00000000
00000000
00000000
00010000
00000100
00010000
00000000
00001000
01000000
00001000
00000000
00011000
00000000
00000000
00010000
,
00000100
00001000
00000100
00000000
00001000
00000010
00001000
00000000
00000201
00000000
00000000
00000000
00000310
00001000
00000100
00000010
,
00000001
00000000
00001000
00000100
,
00010000
00001000
00010000
00001000
01000000
00000000
00100000
00000000
,
10000000
01000000
00200000
00000000
,
01300000
00000000
00000000
01000000
00000000
00000000
01000000
00000000
,
02100000
00000000
00000000
00000000
,
03100000
00000000
00000000
00000000
00001000
00000000
00000000
00000000
00010000
00000000
00000000
00000000
,
00000100
00000000
00000000
00000000
00001000
00000000
00000000
00000000
00000010
00000000
00000000
00000000
,
00000100
00000000
00000000
00000000
00000001
00000000
00000000
00000000
00000010
00000000
00000000
00000000
,
00000100
00000000
00000000
00000010
00000000
00000000
00000001
00000000
00000010
00000000
00000100
00000000
,
00001000
00000000
00001100
00000100
,
00010000
00000000
00000000
00000100
00000000
00000000
00010000
00000000
,
00001000
00000000
01000000
00000000
00100000
00000000
10000000
00000000
00010000
00000000
00100000
00000000
,
01000000
00000000
00100000
00000000
00010000
10000000
00100000
00000000
,
01000000
10000000
01000000
00010000
10000000
00000000
00000000
10000000
,
00010000
00000000
00000000
00010000
00100000
00000000
00000000
00100000
,
01000000
00000000
00000000
01000000
20000000
00000000
30200000
00000000
,
01300000
00000000
00010000
00010000
,
00210000
00000000
00301000
00010000
,
00000100
00001000
00000010
00000000
,
00000202
00000300
00000023
00000000
,
00000130
00000000
00000000
00000000
00000000
00000100
00000000
00000000
00000000
00000100
00000000
00000000
,
00000010
00000000
00000000
00000000
00000001
00000000
00000000
00000000
00001000
00000000
00000000
00000000
,
00000010
00000000
00000000
00000000
00010000
00000000
00000000
00000000
00001000
00000000
00000000
00000000
,
01000000
00000000
00000000
00000000
00010000
00000000
00000000
00000000
00100000
00000000
00000000
00000000
,
01100000
00000000
00000000
00000000
00000000
00000000
01000000
00000000
00001000
00000000
00010000
00000000
,
00000200
00000000
00000000
00000000
00000000
00000000
00010000
00000300
00000000
00000000
00000000
00000000
,
00000000
00001000
00001000
00000000
,
00022000
00000000
00000000
00033000
,
00001000
00010000
00001000
00010000
00001000
00010000
00001000
00010000
,
00001000
00010000
00001000
00010000
00001000
00010000
00001000
00010000
,
00001000
00001000
00010000
00010000
,
00001000
00000000
00001000
00000000
00010000
00000100
00001000
00000010
,
00000100
00000000
00000000
00000000
00000101
00000000
00000001
00000100
,
00000010
00000000
00001000
00000000
00000100
00000000
00010000
00001000
,
00100000
00000000
00010000
00000000
10000000
00000000
00010000
10000000
,
01000000
00100000
02000000
00000000
,
00000000
00000000
03100000
00000000
,
10010000
00000000
00110000
00000000
,
00101000
00000000
00011000
00000000
,
00010100
00000000
00001100
00001000
,
00000020
00000000
00000000
00000000
00000130
00000000
00000001
00000100
,
00000010
00000000
00001000
00000000
00001100
00000000
00000100
00010000
,
00001000
00001000
00010000
00010000
,
00000100
00010000
00001000
00000000
01000000
00000000
00010000
00000000
,
00200000
00000000
00000000
00000000
01300000
10000000
00000000
00000000
,
10000000
00100000
00000000
00000000
01000000
00010000
00000000
00000000
,
00010000
00100000
00000000
00000000
00100000
00001000
00000000
00000000
,
00001000
00010000
00000000
00000000
00010000
00000000
00000100
00000000
,
00002000
00000000
00000000
00000000
00003010
00000000
00000100
00000001
,
00000000
00000000
00000001
00000010
00000000
00000000
00000010
00000100
,
00000000
00000000
00000100
00010000
00000000
00000000
00010000
00001000
,
00000000
00000000
00001000
01000000
00000000
00000000
01000000
00100000
,
10000000
01000000
00200000
00000000
,
01300000
00000000
00000000
00000000
00100000
00000000
00001000
00010000
,
00001000
00000000
00010000
00000100
00010000
00000000
00000100
00001000
,
00000100
00000000
00001000
00000010
00001000
00000000
00000001
00000000
,
00002000
00000000
00000000
00000000
00003100
00000000
00000010
00000001
,
00000100
00000000
00000010
00010000
00001000
00000000
00010000
00001000
,
01000000
00010000
00100000
01000000
,
10000000
00010000
01000000
00000000
00001000
00000000
00010000
00000000
,
00011000
00000000
00000000
00000000
00010000
00000100
00001000
00000010
,
00000000
00000000
00000000
00000100
00000001
00000010
00000100
00001000
,
00000000
00000000
00000000
00000100
00010000
00001000
01000000
00001000
,
00000000
00000000
00000000
00010000
00001000
01000000
00010000
10000000
,
00000000
00000000
00000000
00000000
01000000
10000000
00010000
00000000
,
00000000
00000000
00000000
01000000
00010000
00100000
00001000
00000000
,
00000000
00000000
00000000
00010000
00000100
00001000
00000010
00000000
,
00000000
00000000
00000000
00000100
00000001
00000010
00000100
00001000
;

//--------------- dance-double - Pandemonium X ----------------
#NOTES:
     dance-double:
     Pandemonium X:
     Hard:
     18:
     0,0,0,0,0:
00000000
00000000
00000000
00000000
,
00000000
00000000
00000000
00000000
,
00000000
00000000
00000000
00000000
,
00000000
00000000
00000000
00000000
,
00000000
00000000
00000000
00000000
,
00010000
00000000
00001000
00000000
00100000
00001000
00100000
00000000
00010000
00000000
01000000
00000000
00100000
00000000
10000000
00000000
,
01000000
00000000
00100000
00010000
00100000
00000000
00010000
00000000
01000000
00000000
00001000
00000000
00010000
00000000
00000100
00000000
,
00001000
00000000
00000010
00001000
00000010
00000000
00000100
00000000
00000001
00000000
00000010
00000000
00000100
00000000
00001000
00000000
,
00000100
00010000
00001000
01000000
00010000
00100000
01000000
00000000
,
10000000
01000000
00200000
00000000
00000000
00000000
00310000
01000000
,
00100000
00000000
20000000
00000000
00000000
00000000
00100000
30000000
,
01000000
00000000
00002000
00000000
00000000
00000000
00013000
00000100
,
00001000
00000020
00000000
00000130
,
00000001
00000000
00002000
00000000
00000000
00000000
00003100
00001000
,
00000010
00000000
00020000
00000000
00000000
00000000
00031000
01000000
,
00010000
00100000
00010000
00100000
00010000
00100000
00010000
00100000
,
01000000
10000000
00100000
01000000
00010000
00000000
00000000
10000000
,
00100000
01000000
00020000
00000000
00000000
00000000
00130000
00000000
,
00001000
00000000
00020000
00000000
00000000
00000000
00030100
00001000
,
00000010
00000000
00000200
00000000
00000000
00000000
00000310
00001000
,
00000001
00000010
00001200
00000000
,
00010300
00001000
02000000
00000000
00000000
00000000
03010000
00100000
,
01000000
00000000
20000000
00000000
00000000
00000000
31000000
10000000
,
00010000
01000000
00010000
01000000
00010000
00100000
00001000
00010000
,
00000010
00000100
00000001
00001000
00000001
00000010
00000100
00001000
,
00000100
00000010
00000000
00000100
00001000
00000000
00000100
00010000
,
00001000
00000000
01000000
00010000
00100000
00000000
01000000
00000000
,
00100000
00000000
11000000
00000000
00000000
00000000
01000000
10000000
,
00100000
00010000
00100000
01000000
,
00001000
00010000
00000000
00000100
00001000
00000000
00000010
00000100
,
00000010
00000100
00000001
00000010
,
00000100
00000010
00000000
00000001
00000100
00000000
00000010
00001000
,
00000100
00000000
00010000
00000000
00011000
00000000
00000000
00001000
,
01000000
00010000
00000000
00100000
01000000
00000000
00100000
00010000
,
10000000
00000000
01000000
00100000
00010000
00000000
01000000
00000000
,
00001000
00011000
00000000
00010000
,
00000100
00001000
00000010
00000100
,
00000002
00000000
00000013
00000100
,
00001000
00000000
00000100
00010000
00001000
00000000
00010000
00000000
,
00001000
01000000
00000000
00100000
10000000
00000000
01000000
00100000
,
00010000
00000000
00100000
00000000
11000000
00000000
00000000
01000000
,
00100000
00010000
01000000
00100000
,
10000000
00010000
00100000
00001000
,
00010000
00000010
00000100
00000001
,
00000010
00000100
00001000
00000100
,
00010000
00001000
01000000
00010000
,
00100000
01000000
10000000
00100000
,
01000000
00001000
00010000
00000100
,
00001000
00000000
00000010
00000000
00001001
00000000
00000000
00000001
,
00000010
00000100
00000010
00000000
00000100
00001000
00000100
00000000
,
00010000
00001000
00010000
00000000
00001000
01000000
00001000
00000000
,
01000000
00100000
01000000
00000000
00100000
10000000
00100000
00000000
,
10000000
01000000
10000000
00000000
01000000
00100000
01000000
00000000
,
00100000
00010000
00100000
00000000
00001000
00100000
00001000
00000000
,
00010000
00000100
00010000
00000000
00001000
00000010
00001000
00000000
,
00000001
00000100
00000001
00000000
00000010
00000100
00000010
00000000
,
00000100
00001000
00000100
00000000
00010000
00001000
00010000
00000000
,
00011000
00000000
00000000
00000000
00001000
00010000
00000010
00010000
,
00000000
00000000
00000000
00001000
00100000
00100000
00001000
00010000
,
00000000
00000000
00000000
00001000
01000000
01000000
00001000
00010000
,
00000000
00000000
00000000
00000000
00010000
00000000
00000100
00000000
00001000
00000010
00000100
00000000
00000001
00000000
00000010
00000000
,
00001100
00000100
00020000
00000000
00032000
00000000
01003000
00010000
,
00200000
00000000
00000000
00000000
00310000
00000000
00100000
00000000
10000000
00100000
00010000
00000000
01000000
00000000
00100000
00000000
,
10000000
01000000
00100000
00010000
00011000
00000000
00001000
00011000
,
00000000
00000000
00000000
00000000
00010000
00000000
00001000
00000000
00000010
00000001
00001000
00000000
00001020
00000000
00000000
00000000
,
00000130
00000000
00000000
00000010
00001000
00000000
00000000
00001000
00000100
00000000
00000000
00000100
00010000
00000000
00001000
00000000
,
01001000
00000000
00000000
01000000
00010000
00000000
00000000
00010000
00100000
00000000
00000000
00100000
01000000
00000000
10000000
00000000
,
10100000
00000000
00000000
00100000
01000000
00000000
00000000
01000000
00001000
00000000
00000000
00001000
00010000
00000000
00000100
00000000
,
00010100
00000000
00000000
00000100
00001000
00000000
00000000
00001000
00000010
00000000
00000000
00000010
00000100
00000000
00000001
00000000
,
00001001
00001000
00000010
00001000
,
00000001
00000100
00000001
00000100
,
00000010
00001000
00000100
00010000
,
00001000
01000000
00010000
00100000
,
01000000
10000000
01000000
00100000
,
00010000
00000000
00000000
00010000
00000000
00000000
00010000
10000000
,
01000000
00000000
00010000
01000000
,
10000000
00100000
00010000
00000000
00100000
01000000
00010000
00100000
,
00001000
00000000
00000000
00000000
00000000
00000000
00000000
00000000
00000000
00000000
00000000
00000000
00010000
00000000
00000000
00000100
00000000
00000000
00001000
00000000
00000000
00000000
00000000
00000000
00000100
00000000
00000000
00001000
00000000
00000000
00000010
00000000
00000000
00000000
00000000
00000000
00000101
00000000
00000000
00000000
00000000
00000000
00000000
00000000
00000001
00000000
00000100
00000000
,
00000001
00000000
00000000
00000100
00000000
00000000
00000010
00000000
00000000
00001000
00000000
00000000
00000100
00000000
00000000
00000000
00000000
00000000
00010000
00000000
00000000
00000000
00000000
00000000
00002000
00000000
00000000
00000000
00000000
00000000
00000000
00000000
00000000
00000000
00000000
00000000
00013000
00000000
00000010
00000000
00010000
00000000
00000010
00000000
00010000
00000000
00000010
00000000
,
00002000
00000000
00003010
00000100
,
00002001
00000000
00003100
00010000
,
00010000
00001000
02000000
00000000
,
03100000
00000000
00000000
00000000
10100000
00000000
00000000
00000000
11000000
00000000
00000000
00000000
,
20020000
00000000
00000000
30030000
,
01010000
00000000
00000000
00000000
00110000
00000000
00000000
00000000
10020000
00000000
00000000
00000000
,
00100000
00000000
00000000
00000000
01030000
00000000
00000000
00000000
00010000
00000000
00000000
00000000
,
00201000
00000000
00000000
00000000
00010000
00000000
00000000
00000000
00301000
00000000
00000000
00000000
,
00010000
00000000
00000000
00000100
00000000
00000000
00001000
00000000
00000010
00000000
00000100
00000000
,
00000001
00000000
00000000
00000001
00001000
00000000
00001100
00000000
,
00000000
00000011
00000000
00000000
00000000
00000101
00000000
00000000
00000000
00001010
00000000
00000000
,
00000010
00000000
00000100
00000000
00000010
00000000
00001000
00000000
00000100
00000000
00010000
00000000
,
00001000
00100000
00010000
10000000
01000000
00100000
00010000
10000000
,
00100000
00010000
00100000
10000000
00010000
00000000
10000000
00100000
,
10000000
00000000
10000000
00100000
10000000
00000000
10000000
00100000
,
01000000
00010000
00200000
00000000
,
01300000
00000000
00100000
00010000
,
00012000
00000000
00013000
00000100
,
00001000
00000000
00000010
00000000
00000100
00000001
00000100
00000001
,
00000010
00001000
00000010
00000001
00000100
00001000
00000100
00000000
,
00001100
00000000
00000000
00000000
00011000
00000000
00000000
00000000
00001100
00000000
00000000
00000000
,
00010100
00000000
00000000
00000000
00011000
00000000
00000000
00000000
02001000
00000000
00000000
00000000
,
00010000
00000000
00000000
00000000
03100000
00000000
00000000
00000000
10100000
00000000
00000000
00000000
,
10020000
00000000
00000000
00000000
00100000
00000000
00000000
00000000
01030000
00000000
00000000
00000000
,
10010000
00000000
00000000
00000000
00000000
00000000
10000000
00000000
01000000
00000000
00100000
00000000
,
00010000
00000000
00000000
00000000
00001000
00000000
00000000
00000000
00000000
00000100
00000000
00000000
00000010
00000000
00000000
00000001
00000000
00000000
00002000
00000000
00000000
00000000
00000000
00000000
,
00000000
00000001
00003001
00000000
,
00001000
00000010
00000100
00000001
00000010
00000100
00001000
00000000
,
00000100
00001000
00000100
00010000
00000100
00010000
00001000
00010000
,
00001000
01000000
00001000
01000000
00010000
01000000
00010000
00000000
,
00011000
00011000
00011000
00011000
,
00011000
00000000
00011000
00000000
00010000
00000100
00010000
00001000
,
01000000
00000000
00000000
00000000
00011000
00000000
00010000
00000100
,
00001000
00000000
00000010
00000000
00000101
00000000
00000001
00000010
,
00000100
00000000
00000100
00000000
00010100
00000000
00010000
00001000
,
01000000
00000000
00000000
00010000
00000000
00000000
00110000
00000000
00100000
00000000
01000000
00000000
,
00000000
10000000
00000000
00000000
00010000
00000000
02000000
00000000
00000000
00000000
00000000
00000000
,
03100000
00000000
10000000
00100000
01000000
00000000
00010000
00100000
,
00001000
00000000
00010000
00000010
00000100
00000000
00000001
00000010
,
00000100
00000000
00000010
00000001
00001000
00000000
00000100
00000000
,
00020000
00000000
00000000
00000000
00031000
00000000
00010000
00000100
,
00001000
00000000
00000010
00000000
00001001
00000000
00000001
00000100
,
00000010
00000010
00000010
00000010
,
00001000
00000100
00010000
00000000
00001000
00010000
00001000
00000000
,
01000000
00000000
00000000
00000000
01000000
00010000
00100000
01000000
,
00000000
00100000
00010000
01000000
00000000
00010000
00100000
00001000
,
00000000
00010000
00000010
00000100
00000000
00000001
00000010
00000100
,
00000000
00000010
00000001
00001000
00000010
00000000
00001010
00000000
,
00000101
00000000
00000000
00000000
00000001
00001000
00000100
00000010
,
00000000
00000100
00001000
00000010
00000000
00000100
00000010
00010000
,
00000000
00001000
00100000
00010000
00000000
00100000
00010000
10000000
,
00000000
00100000
01000000
00010000
10000000
00000000
01000000
00000000
,
00200000
02300000
23000000
00000000
,
30010000
01000000
00100000
10000000
01000000
00000000
00100000
00010000
,
00100000
00000000
00001000
00010000
00001000
00000000
00010000
00000100
,
00010000
00000000
00000100
00001000
00000100
00000000
00001000
00000000
,
00000020
00000000
00000000
00000000
00000130
00000010
00001000
00000010
,
00000100
00000001
00000010
00000100
00001000
00000100
00010000
00001000
,
01000000
00010000
00100000
01000000
10000000
00100000
01000000
00010000
,
00100000
01000000
10000000
00100000
01000000
00010000
00100000
00001000
,
00010000
00010000
00010000
00010000
00001000
00010000
00000100
00001000
,
00000010
00000010
00000010
00000010
00000100
00000001
00000010
00001000
,
00000100
00000100
00000100
00001000
00000100
00001000
00000100
00010000
,
00001000
00001000
00010000
00001000
00001000
01000000
00100000
10000000
,
00010000
00010000
00010000
00010000
00100000
01000000
10000000
00010000
,
01000000
01000000
01000000
01000000
00010000
00100000
00001000
00010000
,
00000010
00000010
00000010
00000010
00000001
00000010
00001000
00000100
,
00010000
00010000
00010000
00001000
00100000
00010000
01000000
00001000
;
