#TITLE:Unicorn tail;
#SUBTITLE:;
#ARTIST:DJ YOSHITAKA;
#TITLETRANSLIT:;
#SUBTITLETRANSLIT:;
#ARTISTTRANSLIT:;
#GENRE:;
#CREDIT:;
#MUSIC:Unicorn tail.ogg;
#BANNER:Unicorn tail.png;
#BACKGROUND:Unicorn tail-bg.png;
#CDTITLE:;
#SAMPLESTART:59.859;
#SAMPLELENGTH:22.603;
#SELECTABLE:YES;
#OFFSET:-0.587;
#BPMS:0.000=170.000;
#STOPS:64.000=2.471
,143.000=0.353
;
#ORIGIN:;
#TAGS:;
#PREVIEWVID:;
#JACKET:Unicorn tail-jacket.png;
#CDIMAGE:;
#DISCIMAGE:;
#BGCHANGES:;
#FGCHANGES:;

//--------------- dance-single - Pandemonium X ----------------
#NOTES:
     dance-single:
     Pandemonium X:
     Beginner:
     4:
     0.153976,0.28186,0.078518,0.028552,0,151,140,11,4,0,0,0,0,0,0.153976,0.28186,0.078518,0.028552,0,151,140,11,4,0,0,0,0,0:
0000
0000
0000
0000
,
0000
0000
0000
0000
,
0000
0000
0000
0000
,
0000
0000
0000
0000
,
0000
0000
0000
0000
,
0000
0000
0000
0000
,
0000
0000
0000
0000
,
0000
0000
0000
0000
,
0001
0000
1000
0000
,
0100
0000
0000
0000
,
1000
0000
0001
0000
,
0100
0000
0000
0000
,
1001
0000
1000
0000
,
1010
0000
0000
0000
,
0101
0000
0001
2000
,
3000
0100
0000
0100
0000
0010
0000
0010
,
0000
0001
0000
0000
,
0000
1000
0000
0000
,
0000
0100
0000
0000
,
0000
0010
0000
0000
,
0000
0100
0000
0000
,
0000
1000
0000
0000
,
0000
0001
0000
0000
,
0000
1000
0000
0010
,
1001
1000
0000
0001
,
0000
0010
0000
0001
,
0001
1000
0000
0100
,
0000
1000
0000
1000
,
0000
0001
0000
1000
,
0000
0010
0000
0100
,
0010
1000
0000
0001
,
0000
1000
1000
1000
,
0000
0001
0000
0010
,
0000
0001
0000
1000
,
1000
0100
0000
1000
,
0000
0010
0000
0100
,
0010
0000
0000
0000
,
0100
0000
0000
0000
,
0001
0000
1000
0000
,
0010
0100
0002
0003
,
1000
0000
0000
0000
,
0001
0000
0000
0000
,
0010
0000
0001
0000
,
1000
1000
1000
0000
,
0100
0000
0000
0000
,
1000
0000
0000
0000
,
0010
0000
0100
0000
,
0010
1000
0010
0000
,
1001
0000
1000
0000
,
0001
0000
0010
0000
,
0100
0000
1000
0000
,
0100
1000
0100
0000
,
1000
0000
0001
0000
,
0100
0000
0010
0000
,
1000
0000
0001
0020
,
0030
0100
0000
0100
0000
0000
0000
0000
,
0000
0000
0010
0000
,
0001
0000
1000
0000
,
0001
0000
0000
0000
,
0000
0000
0100
0000
,
0010
0000
0000
0000
,
0000
0000
0010
0000
,
1000
0000
0000
0000
,
0000
0000
0000
0000
,
1001
0000
0001
0000
,
1000
0000
0001
0000
,
0010
0000
0000
0000
,
0100
0000
0010
0000
,
0001
0000
0000
0001
0000
0000
0001
0000
,
0000
0000
0000
0000
,
1000
0000
0000
0000
,
0010
0000
0200
0000
,
0301
0000
0000
0000
,
1000
0000
0000
0000
,
0100
0000
0000
0000
,
0010
0000
0000
0000
,
1001
0000
0000
0000
,
0110
0000
0000
0000
,
1001
0000
0110
0000
,
0001
1000
0010
0100
,
0001
0000
0000
0000
,
1000
0000
0000
0000
,
0100
0000
1000
0000
,
0010
0010
0010
0000
,
0100
0000
0000
0000
,
0001
0000
0000
0000
,
1000
0000
0001
0000
,
0100
0000
0010
1001
;

//--------------- dance-single - Pandemonium X ----------------
#NOTES:
     dance-single:
     Pandemonium X:
     Easy:
     9:
     0.332425,0.502513,0.306932,0.064242,0,326,283,43,9,0,0,0,0,0,0.332425,0.502513,0.306932,0.064242,0,326,283,43,9,0,0,0,0,0:
0000
0000
0000
0000
,
0000
0000
0000
0000
,
0000
0000
0000
0000
,
0000
0000
0000
0000
,
0000
0000
0000
0000
,
0000
0000
0000
0000
,
0000
0000
0000
0000
,
1001
0000
0000
0000
,
0001
0100
0001
1000
,
0100
0010
0001
0000
0000
0000
0000
0000
,
0010
0001
0100
0010
,
1000
0100
0010
0000
0000
0000
0000
0000
,
1001
0001
1000
0010
,
1001
1000
0001
0100
,
1001
0000
0001
0100
1000
0000
2100
0000
,
3000
0110
0000
1010
0000
1001
0000
1100
,
0000
0001
0000
1000
,
0000
0010
0000
1000
,
0000
0100
0000
0010
,
0000
0100
0000
0010
,
0001
0100
0000
0010
,
0000
0100
0000
0001
,
0000
1000
0000
0100
,
0000
0000
0010
0000
0000
0000
0001
1000
,
0001
1000
0010
1000
,
0001
0010
0100
0010
,
0001
1000
0100
0001
,
0100
0000
0010
0000
0001
0100
0010
0000
,
0010
1000
0001
0000
1000
0000
0100
0000
,
1000
0010
0100
0001
,
1200
0310
0001
0010
,
0001
0100
0000
0001
0000
1000
0000
0100
,
0000
0010
0100
0000
1000
0000
0010
0000
,
0001
0010
0100
0001
,
1000
0100
1000
0001
,
0100
0010
1000
0000
,
1001
0001
0010
0100
,
1001
1000
0100
0010
,
0001
0100
0010
1000
,
0001
0100
0010
1000
0001
0001
2001
0000
,
3100
0000
0010
0000
0001
0000
0010
0001
,
0000
0010
0000
0001
0000
0000
0000
0000
,
0100
0000
0010
0000
1000
0000
0001
1000
,
0000
0100
0000
0010
0000
0100
1000
0000
,
0001
0000
1000
0000
0010
0000
1000
0001
,
0000
0010
0000
0001
0000
0100
0000
0001
,
1000
0000
0001
0000
0010
0000
0100
1000
,
0000
1000
0000
0001
0000
0001
0000
0100
,
0101
0000
0100
0000
1000
0000
0100
0001
,
0000
1000
0000
0001
0000
0000
0010
0000
,
0100
0000
0010
0000
0001
0000
1000
0100
,
0000
0001
0000
0100
0000
0010
0001
0000
,
0100
0000
1000
0000
0100
0000
0010
0100
,
0000
0001
0000
0010
0000
1000
0000
0010
,
0100
0000
0010
0001
0100
0000
0010
1001
,
0000
0110
0000
1001
0000
0000
0000
0000
,
0000
0000
1100
0000
,
0101
0000
0011
0000
,
1010
0000
0000
0000
,
0000
0000
1001
0000
,
0110
0000
0000
0000
,
0000
0000
1010
0000
,
0101
0000
0000
0000
,
0001
1000
0100
0010
,
0001
0000
0011
0000
,
1100
0000
1010
0000
,
0101
0000
0000
0000
,
1002
0000
1003
0000
0001
0100
0010
1000
,
0100
0000
0000
0110
0000
0000
0011
0000
,
0001
0100
0010
1000
,
1002
2003
3001
0010
,
0100
0010
0200
0000
,
1300
0100
0000
1000
,
0000
0010
0000
0100
,
0000
0001
0000
0010
,
0000
0100
0000
1000
,
1001
0001
0000
0100
,
0110
0010
0000
0100
,
1001
0010
1001
0100
,
1001
0110
1001
0110
,
1001
0000
1000
0000
0001
0000
0010
1000
,
0000
0010
0000
0001
0000
0000
0000
0000
,
0010
0000
0100
0000
1000
0000
0001
0100
,
0000
1000
0000
0100
0000
0100
0010
1000
,
0001
0000
1000
0000
0100
0000
0000
0001
,
0000
0100
0000
0010
0000
0001
0000
0100
,
0010
0000
0100
0010
1000
0000
0001
1000
,
0000
0001
0000
0100
0010
0010
2002
0000
,
3003
0000
0000
0000
;

//--------------- dance-single - Pandemonium X ----------------
#NOTES:
     dance-single:
     Pandemonium X:
     Medium:
     12:
     0.45377,0.565327,0.256967,0.135621,0.024983,445,409,36,19,0,0,0,0,0,0.45377,0.565327,0.256967,0.135621,0.024983,445,409,36,19,0,0,0,0,0:
0000
0000
0000
0000
,
0000
0000
0000
0000
,
0000
0000
0000
0000
,
0000
0000
0000
0000
,
0000
0000
0000
0000
,
0000
0000
0000
0000
,
0000
0000
0000
0000
,
0000
0000
0000
0000
,
0001
0100
0001
0010
0001
0100
0001
0010
,
0001
0100
0001
0000
0000
0000
0000
0000
,
1000
0010
0100
0010
1000
0010
0100
0010
,
1000
0010
0100
0000
0000
0000
0000
0000
,
0001
1000
0010
1000
0001
1000
0010
1000
,
0001
1000
0010
0000
0000
0000
0000
0000
,
1000
0100
0001
0100
1000
0000
0021
0000
,
0030
0100
0000
0010
0000
0001
0000
1000
,
1001
0001
1000
0020
,
0030
1000
0001
0200
,
0300
0001
0010
0100
,
0010
0001
0000
0100
0000
0010
0000
0100
,
0010
1000
0001
0000
1000
0000
0200
0000
,
0300
1000
0001
0200
,
0300
0001
1000
0010
,
0100
0001
0000
0010
0000
0100
0010
0001
,
1100
0000
0001
0010
0001
0000
1000
0001
,
0100
0000
0010
1000
0010
0010
0100
0001
,
0010
0010
0100
0010
0001
0000
1000
0100
,
0010
0000
0100
0000
1100
1000
0001
0000
,
0101
0001
1000
0000
0001
0000
1000
0000
,
0100
0000
0100
0000
0010
0100
0000
0000
1000
0000
0000
0000
0001
0000
0100
0000
,
0010
0000
0100
0001
0010
0001
0100
0001
,
0010
0100
0000
1000
0000
0100
1000
0010
,
0100
0100
0001
0000
1000
0000
0010
0000
,
0100
0100
0001
0000
0010
0100
0010
0010
,
0100
1000
0001
0000
1001
0000
0001
0100
,
0010
0000
0100
0001
0010
1000
0000
0000
,
0011
0000
1100
0000
0100
1000
0010
0000
,
1010
0000
0101
0000
0001
1000
0010
0000
,
1000
0100
0010
0001
1000
0100
0010
0100
,
1000
0000
1000
0000
0001
0000
0001
0000
0010
0100
0010
0100
2000
0000
0000
0000
,
3010
0000
0100
0000
0001
0000
1000
0001
,
0000
0010
0000
0100
0000
0100
0010
0001
,
1000
0000
0001
0000
0010
0000
0001
1000
,
0000
0010
0000
1000
0000
0010
0100
0001
,
1000
0000
0001
0000
0100
0000
0001
1000
,
0000
0100
0000
1000
0000
0100
0000
1000
,
0100
0000
0001
0100
1000
0000
0100
0010
,
0000
0011
0000
0001
0000
1010
0000
0001
,
1001
0000
1000
0000
0001
0000
0010
0001
,
0000
1000
0000
0010
0000
0100
0001
0010
,
0100
0000
1000
0000
0010
0000
0100
0001
,
0000
1000
0000
0100
0000
0010
0100
1000
,
0001
0000
0100
0000
1000
0000
0100
0010
,
0000
1000
0000
0001
0000
0100
0000
0001
,
0011
0000
0010
0100
1000
0001
0200
0010
,
0300
0000
0110
0000
0000
0000
1001
0000
1000
0100
1000
0100
0020
0000
0000
0000
,
0032
0103
0110
1000
,
0110
0001
1100
1000
,
0011
0010
0001
0100
,
0010
1000
1100
0001
,
0011
0010
0001
1000
,
0010
0100
0101
1000
,
1010
0010
1000
0001
,
0010
0000
0100
0100
0001
1000
0010
0010
,
0100
0010
1010
1000
,
1001
0001
0011
0010
,
0110
0010
0001
1000
,
2100
0000
3020
0000
0130
1000
0100
0010
,
2000
0000
0000
0000
3001
0000
0020
0030
0000
0000
0020
0030
1000
0000
0000
0000
,
0001
0000
1000
0000
0100
0100
0100
0000
,
0010
0001
0100
0010
1000
1000
0001
0001
,
1000
0001
0100
0010
2002
0000
0000
3003
,
0110
0100
0010
1000
,
0001
0010
0001
0100
,
0010
0000
1000
0000
0001
0000
0010
0001
,
0000
1000
0000
0100
0000
0010
0100
1000
,
1100
1000
0010
0100
,
0101
0001
0010
0100
,
1100
0000
0101
0000
,
1000
1000
0001
0001
1000
1000
0001
0001
,
1000
0000
0001
0000
0100
0000
0001
1000
,
0000
0001
0000
0100
0000
0001
0100
0010
,
1000
0000
0001
0000
0010
0000
0001
1000
,
0000
0010
0000
1000
0000
0001
0010
0100
,
1000
0000
0010
0000
0100
0000
0010
0100
,
0000
0010
0000
1000
0000
0001
0000
0010
,
0100
0000
0010
0001
0100
0000
0020
1000
,
0000
0130
0000
0010
1000
0001
0220
0000
,
0330
0000
0000
0000
;

//--------------- dance-single - Pandemonium X ----------------
#NOTES:
     dance-single:
     Pandemonium X:
     Hard:
     15:
     0.651594,0.785176,0.663831,0.157035,0.260536,639,546,93,22,0,0,0,0,0,0.651594,0.785176,0.663831,0.157035,0.260536,639,546,93,22,0,0,0,0,0:
0000
0000
0000
0000
,
0000
0000
0000
0000
,
0000
0000
0000
0000
,
0000
0000
0000
0000
,
0001
0100
0010
0100
0001
1000
0001
1000
,
0100
0010
0000
0000
0000
0000
0000
0000
,
1000
0100
1000
0100
0010
0001
0010
0100
,
1001
0000
0000
0000
,
0001
0000
0100
0000
0010
0000
1000
0100
1000
0000
0100
0000
1000
0000
0001
0010
,
0100
1000
0001
0000
0000
0000
0000
0000
,
1000
0000
0010
0000
0100
0000
0010
1000
0010
0000
1000
0000
0001
0000
0010
0100
,
1000
0001
1000
0000
0000
0000
0000
0000
,
1001
0000
0001
0000
0010
0000
0100
0010
0100
0000
0010
0000
0001
0000
1000
0100
,
0010
0100
1000
0000
0000
0000
0000
0000
,
1001
0000
0000
0000
0001
0000
0100
0000
0010
0000
0000
0000
1000
0010
0100
0001
,
0000
0101
0000
1100
0000
0011
0000
1001
,
0110
1000
0100
1000
,
0010
0100
0000
0010
0000
0100
0000
0010
,
0100
0001
0010
0000
0100
0000
0010
0000
,
0100
1000
0000
1000
0000
0001
0000
0001
,
0010
0100
1000
0000
0010
0000
1000
0000
,
0001
0010
0000
0100
0000
0010
0000
0010
,
0000
0010
0100
0000
0100
0010
0001
0000
,
0001
0000
1000
0000
0000
0000
0001
0000
0000
0000
1000
0000
0100
0010
0001
0000
,
1100
0000
0000
0000
1000
0000
0010
0000
0110
0000
0100
0010
0000
0100
0001
0000
,
1001
0000
1000
0000
1000
0000
0100
0000
0001
0000
0100
0000
0010
0001
0010
0000
,
0001
0000
0001
0000
0100
0000
0001
0000
1000
0000
0001
1000
0000
0100
0010
0000
,
0100
0000
0100
0000
1000
0100
0000
0010
0001
0100
0001
0000
0010
0001
0000
0010
,
0100
1000
0100
0000
1000
0000
0001
0000
0110
0000
1000
0001
0000
0010
0100
0000
,
0010
0000
0010
0000
0001
0010
0000
0100
1000
0000
1000
0000
0010
0100
0010
0100
,
0002
0000
1003
1000
0001
0010
0100
0100
,
1000
0000
1001
0000
0000
0000
1100
0000
1000
0100
0010
0000
1000
0010
0001
0000
,
0110
0000
0110
0000
1001
0000
1000
0000
0010
0000
0100
0001
0000
0010
0100
0000
,
1000
0000
1000
0000
0100
1000
0000
0100
0010
0000
0001
0000
1000
0010
1000
0000
,
0010
0000
0010
0000
0100
0000
0001
0000
0010
0000
0100
1000
0000
0100
0010
0000
,
0100
0000
1000
0000
0001
0100
0000
0010
1000
0000
0001
0000
2000
0000
0000
0000
,
3001
0000
0010
0000
1100
0000
1000
0010
0000
0100
0001
0000
1001
0000
1001
0000
,
0001
0100
0000
0010
1000
0000
0100
0000
0010
0000
0001
0000
0100
0000
1000
0000
,
0100
0001
0010
1000
0010
0100
0010
0001
,
1000
0000
0000
1000
0000
0000
0001
0000
0000
0001
0000
0000
1000
0000
0001
1000
0000
1000
0010
0000
0000
0000
0000
0000
,
0101
0000
0011
0000
0101
0000
0001
0101
,
0000
0011
0000
0101
0000
0001
0100
1000
,
1100
0000
0101
0000
1100
0000
0100
0110
,
0000
1001
0000
0110
0000
0001
0010
0100
,
1100
0000
1010
0000
1100
0000
1000
1100
,
0000
1010
0000
1100
0000
1100
0000
1001
,
0001
0000
0001
0010
0100
0000
1000
1010
,
0000
0011
0000
1100
0000
0101
0000
1001
,
0101
0000
0011
0000
1100
0000
0100
1100
,
0000
0011
0000
1001
0000
1000
0100
0010
,
0110
0000
0011
0000
0110
0000
0100
1100
,
0000
1010
0000
1001
0000
1000
0100
0010
,
0011
0000
1100
0000
1010
0000
0010
0110
,
0000
1001
0000
0110
0000
0110
0000
0001
,
1001
0000
0000
1000
0010
0100
0010
0000
1000
0000
0000
0000
0001
0010
0100
1000
,
0001
0000
0100
0000
0000
0000
1100
0000
1000
0100
0001
1000
0100
0000
0000
0000
,
0011
0000
0001
0100
0020
0000
0130
0001
,
2000
0000
3100
0010
0002
0000
0013
0100
,
2000
0000
3010
0000
0100
0100
0001
0000
,
1000
0100
0000
1000
0010
0000
0100
0000
0001
0100
0000
0001
0010
0000
0100
0000
,
1001
0000
1000
0100
0001
0001
0100
1000
,
0001
0100
0000
0000
1010
0000
0000
0000
2000
0000
0000
0000
3010
0000
0000
0000
,
0200
0000
0301
0000
0010
0100
1000
1000
,
0001
1000
0000
0010
0100
0001
1000
0000
0100
0010
0100
0000
0010
0000
0010
0000
,
0001
0000
1000
0010
0200
0000
1300
0100
,
0020
0000
0130
0001
0020
0000
0130
0010
,
0002
0000
1000
0000
0103
0000
0010
0010
,
2001
0000
0000
0000
3100
0000
0000
0000
1000
0100
0010
0001
1000
0000
1000
0000
,
0001
0010
1000
1000
0010
0001
1000
1000
,
0010
0100
0001
0000
0010
0000
0010
0000
0100
0000
0010
0000
0001
0000
1000
0000
,
0010
0100
0010
0100
0010
0100
0010
0100
0010
0000
0010
0000
0010
0000
0010
0000
,
1000
0000
0100
0000
0010
0000
0001
0000
1000
0010
0100
0001
1000
0010
0100
0001
,
2000
3100
0020
0031
,
0200
0310
2000
3001
,
0200
0310
2000
3100
,
0020
0031
2000
3010
,
0101
0100
0010
1000
,
1010
1000
0010
0100
,
0101
0000
1010
0000
,
0001
0010
0010
1000
0010
0010
0001
1000
,
0110
0000
1010
0000
1100
0000
1000
1100
,
0000
1010
0000
0110
0000
0100
1000
0100
,
0101
0000
0011
0000
1100
0000
0100
0101
,
0000
1100
0000
1001
0000
0001
0010
0100
,
1100
0000
0011
0000
1001
0000
0001
0101
,
0000
1100
0000
0101
0000
1001
0000
0001
,
0001
0000
0010
0000
0001
0000
1000
0000
0100
0000
1000
0000
0010
1000
0010
1000
,
0100
0000
0100
0000
0010
0000
0010
0000
0001
0010
0100
1000
0020
0000
0000
0000
,
0030
0000
0000
0000
;

//--------------- dance-single - Pandemonium X ----------------
#NOTES:
     dance-single:
     Pandemonium X:
     Challenge:
     17:
     0.786196,0.910804,0.506795,0.128483,0.613865,771,700,71,18,0,0,7,0,0,0.786196,0.910804,0.506795,0.128483,0.613865,771,700,71,18,0,0,7,0,0:
0000
0000
0000
0000
,
0000
0000
0000
0000
,
0000
0000
0000
0000
,
0000
0000
0000
0000
,
0001
0100
1000
0100
0001
0010
1000
0010
,
0001
1000
0000
0000
0000
0000
0000
0000
,
1000
0100
0001
0100
1000
0010
0100
0001
,
1001
0000
0000
0000
,
0001
0000
1000
0000
0010
0000
0010
1000
0100
0000
0010
0000
0001
0000
0001
0010
,
0100
0010
0001
0000
0000
0000
0000
0000
,
1000
0000
0010
0000
0100
0000
0100
0010
1000
0000
0001
0000
0010
0000
0010
0100
,
1000
0100
0010
0000
0000
0000
0000
0000
,
1001
0000
1000
0000
0001
0000
0001
0100
0010
0000
0100
0000
0001
0000
0001
1000
,
0100
0010
0001
0000
0000
0000
0000
0000
,
0011
0000
0000
0000
0000
0000
0000
0000
0000
0010
0000
0000
0100
0000
0000
1000
0000
0000
0001
0000
0000
0100
0000
0000
0001
0000
0000
0000
0000
0000
0000
0000
0000
0000
0000
0000
4000
0000
0040
0000
0000
0000
0000
0000
0000
0000
0000
0000
,
3030
0101
0000
1100
0000
0101
0000
1001
,
0110
0001
1000
0010
,
1000
0001
0000
0010
0000
0100
0000
0010
,
0001
0100
0010
0000
0100
0000
0001
0000
,
1000
0100
0000
0010
0000
0100
0000
0010
,
0001
0100
0010
0000
0100
0000
0010
0000
,
1000
0010
0000
0100
0000
0001
0000
0010
,
0000
0100
0010
0000
0100
0010
0001
0000
,
0100
0000
0010
0000
0000
0000
1000
0000
0000
0000
0001
0000
1000
0100
0010
0000
,
1100
0000
0000
0000
0001
0000
1000
0000
1010
0000
1000
0001
0000
0010
0100
0000
,
0110
0000
0010
0000
0001
0010
0100
0000
0010
0000
0001
0100
0000
0010
1000
0000
,
0001
1000
0010
1000
0100
0000
0010
0000
0011
0000
0010
0001
0000
0100
0010
0000
,
1010
0000
1000
0000
0100
0010
0000
0010
0001
0100
0010
0000
0100
0010
0000
0010
,
1000
0100
1000
0100
0010
0000
0001
0000
0101
0000
0100
0010
0000
0100
0001
0000
,
1001
0000
1001
0000
1000
0100
0010
0000
0110
0000
0110
0000
0100
1000
0010
0000
,
0202
0303
0001
0100
1000
0100
0001
1000
,
0100
0000
0010
0001
1000
0000
0010
0000
0100
0010
0100
0000
0010
0000
1000
0000
,
0001
0010
0100
1000
0001
0000
1000
0000
1010
0000
1000
0010
0000
0100
0001
0000
,
0011
0000
0011
0000
0010
0100
1000
0000
1100
0000
1001
0000
0001
0100
0010
0000
,
0110
0000
1001
0000
0001
0000
1000
0000
0010
0000
1000
0010
0000
0100
0001
0000
,
0010
0000
0100
0000
0010
0000
0001
0000
0100
0010
0000
1000
0400
0000
0300
0000
,
0011
0000
0001
0000
0101
0000
0100
0010
1000
0000
0001
0000
1001
0000
1000
0100
,
0010
0000
0100
0000
1100
0000
1000
0001
0100
0000
0001
0000
0101
0000
0000
0000
,
0001
1000
0010
1000
0001
0010
0001
1000
0010
1000
0100
1000
0001
0010
0100
1000
,
0001
0000
0100
0000
1000
0000
0010
0000
0002
2003
3002
2003
3020
0000
0000
0000
,
0130
0000
0000
0001
0100
0000
0000
0100
0010
0000
0000
0010
1000
0000
0100
0000
,
1000
0001
0100
0001
0010
0100
1000
0010
,
0100
0000
0000
0010
1000
0000
0000
1000
0001
0000
0000
0001
0010
0000
1000
0000
,
0010
0001
0100
0010
0000
0100
0010
1000
,
0001
0000
0000
1000
0010
0000
0000
0100
0010
0000
0000
0010
1000
0000
0001
0000
,
0010
0100
0010
0001
0100
0001
1000
0100
,
0110
0000
1000
0100
1100
0000
0010
0011
,
0000
1100
0000
1001
0000
1010
0000
0101
,
1001
0000
0000
0001
0100
0000
0000
0100
0010
0000
0000
0010
1000
0000
0100
0000
,
1000
0001
0100
0001
0000
0001
0010
0100
,
0110
0000
0000
0100
0010
0000
0000
0010
0001
0000
0000
0001
0100
0000
0001
0000
,
1000
0100
0001
0100
1000
0010
0100
0001
,
0011
0000
0000
1000
0100
0000
0000
0100
0010
0000
0000
0010
0001
0000
0100
0000
,
0010
0100
0001
1000
0100
0010
0001
0100
,
1001
0000
0000
0000
0000
0000
0000
0000
0000
1000
0000
0000
0010
0000
0000
0100
0000
0000
0001
0000
0000
0010
0000
0000
0100
0000
0000
0000
0000
0000
0000
0000
0000
0000
0000
0000
4000
0000
0004
0000
0000
0000
0000
0000
0000
0000
3003
0000
,
0200
0000
0020
0000
0330
0000
1001
0000
0001
1000
0001
1000
0020
0000
0000
0000
,
1030
0000
0001
0000
0010
0000
0100
0000
1000
0010
0100
0001
0010
0000
0001
0000
,
0010
0100
1000
0000
0100
0000
1000
0100
0010
0000
0001
0000
0100
0001
0010
0000
,
0001
0000
0100
0000
0010
0000
1000
0010
0100
0001
0010
0000
0001
0000
0100
0001
,
0010
0100
1000
0100
1000
0000
0100
1000
0010
0100
0001
0000
0100
0001
0010
0100
,
1000
0000
0001
0000
0100
0000
0010
1000
0100
0010
0001
0000
0010
0000
0001
0100
,
0010
1000
0010
0000
1000
0100
0010
0100
1000
0000
1001
0000
0220
0000
0000
0330
,
1000
0010
0100
0000
0001
0000
1000
0100
0010
0000
0001
0000
0010
0100
1000
0000
,
0001
0010
0100
1000
0010
0100
0001
0010
0001
0010
0001
1000
0100
0001
1000
0010
,
0001
0000
1000
0000
0100
0000
1000
0001
0100
0010
1000
0000
0010
1000
0001
0000
,
1000
0010
0100
0000
0010
0000
1000
0100
0010
0000
0011
0000
0110
0000
1100
0000
,
1000
0010
0100
0000
0001
0000
1000
0001
0010
0100
1000
0000
0001
0010
0100
0000
,
1000
0010
0100
0000
0010
0000
0001
0010
0100
0000
0001
0000
0010
0001
1000
0100
,
0110
0000
0001
0000
0010
0000
0001
0010
0100
0010
1000
0000
0010
0001
0100
0000
,
0001
0100
0010
1000
0100
0000
1000
0100
0010
0001
0100
0000
0010
1000
0001
0100
,
0010
1000
0100
0000
0010
0100
0001
0000
0100
1000
0010
0000
0100
0010
0100
0000
,
0010
1000
0001
0000
0010
0100
1000
0010
0100
0001
0010
0001
0100
0001
0010
0001
,
0200
0000
0000
0000
0310
0000
0000
1000
0100
0000
0000
0000
0011
0000
0000
0000
,
0001
0000
0000
0000
0110
0000
0000
0001
0010
0000
0000
0000
1100
0000
0000
0000
,
0001
0000
0000
0000
1010
0000
0000
0001
0100
0000
0000
0000
1001
0000
0000
0000
,
0001
0000
0000
0000
1010
0000
0000
1000
0100
0000
0000
0000
0110
0000
0000
0000
,
1001
0000
0001
0000
1000
0000
0010
1000
,
1001
0001
0000
0010
0000
0100
0000
0010
,
1001
0000
0100
0010
1001
0000
0100
0110
,
1000
1001
0001
0110
1000
1001
0001
0110
,
1001
0000
0000
1000
0010
0000
0000
0010
0100
0000
0000
0100
0010
0000
1000
0000
,
0001
0010
0001
1000
0000
0001
0010
0100
,
0110
0000
0000
0010
0001
0000
0000
0001
0100
0000
0000
0100
0010
0000
0100
0000
,
0001
1000
0100
0010
0100
1000
0001
0100
,
0110
0000
0000
0010
1000
0000
0000
1000
0001
0000
0000
0001
0010
0000
0010
0100
,
1000
0000
0100
0000
1000
0000
0010
0100
0001
0000
1000
0000
0010
0000
0100
0010
,
1000
0000
0000
0010
0000
0000
1000
0000
0000
0010
0000
0000
0100
0000
0000
0001
0000
0000
0100
0000
0000
0001
0000
0000
0100
0000
0000
0010
0000
0000
1000
0000
0000
0001
0000
0000
0040
0000
0400
0000
0000
0000
0000
0000
0000
0000
0330
0000
,
1001
0000
0010
0000
1001
0000
0100
0000
2001
3002
2003
3002
0023
0000
0000
0000
,
0030
0000
0000
0000
;

//--------------- dance-double - Pandemonium X ----------------
#NOTES:
     dance-double:
     Pandemonium X:
     Easy:
     7:
     0.270223,0.376884,0.149897,0.049966,0,265,244,21,7,0,0,0,0,0,0.270223,0.376884,0.149897,0.049966,0,265,244,21,7,0,0,0,0,0:
00000000
00000000
00000000
00000000
,
00000000
00000000
00000000
00000000
,
00000000
00000000
00000000
00000000
,
00000000
00000000
00000000
00000000
,
00000000
00000000
00000000
00000000
,
00000000
00000000
00000000
00000000
,
00000000
00000000
00000000
00000000
,
00000000
00000000
00000000
00000000
,
10000000
01000000
00100000
00010000
,
00001000
00000100
00000000
00000000
,
00001000
00000100
00000010
00000001
,
00000100
00000010
00000000
00000000
,
00000100
00000010
00001000
00010000
,
01000000
00010000
00000000
00000000
,
00011000
00001000
01000000
00200000
,
00300000
10000000
00000000
00010000
00000000
00100000
00000000
00001000
,
00011000
00010000
00000000
00000000
,
00000000
00000100
00000000
00000000
,
00000000
00001000
00000000
00000000
,
00000000
00000010
00000000
00000100
,
00000000
00000001
00000000
00000000
,
00000000
00001000
00000000
00000000
,
00000000
00000100
00000000
00000000
,
00000000
00000000
00010000
00000000
00000000
00000000
00001000
00010000
,
00001000
00010000
00001000
01000000
,
00100000
10000000
01000000
00010000
,
01000000
00010000
00100000
00001000
,
00010000
00000100
00001000
00000100
,
00000010
00000100
00001000
00000001
,
00000100
00000010
00001000
00000100
,
00020100
00031000
00010000
00001000
,
01000000
00100000
10000000
01000000
,
00010000
01000000
00100000
01000000
,
10000000
01000000
00100000
00010000
,
00010000
00100000
00001000
00010000
,
00000100
00001000
00000001
00001000
,
00000001
00000010
00000001
00000100
,
00000010
00001000
00000100
00010000
,
00001000
01000000
00100000
10000000
,
00010000
00100000
00010000
00100000
00010000
00000000
11000000
00000000
,
10000000
00000000
00010000
00000000
00100000
00000000
00000000
00001000
,
00000000
00010000
00000000
00001000
00000000
00000000
00000000
00000000
,
00010000
00000000
00000100
00000000
00001000
00000000
00000000
00000010
,
00000000
00000100
00000000
00000010
00000000
00000000
00000000
00000000
,
00000100
00000000
00000001
00000000
00000010
00000000
00000000
00000100
,
00000000
00001000
00000000
00000100
00000000
00010000
00000000
00000000
,
00001000
00000000
00000000
00000000
01000000
00000000
00000000
00100000
,
00000000
10000000
00000000
00010000
00000000
00100000
00000000
01000000
,
10000000
00000000
00010000
00000000
00100000
00000000
00000000
00001000
,
00000000
00010000
00000000
00001000
00000000
00000000
00000000
00000000
,
00010000
00000000
00000100
00000000
00001000
00000000
00000000
00000100
,
00000000
00001000
00000000
00000001
00000000
00000000
00000000
00000000
,
00000100
00000000
00000010
00000000
00010000
00000000
00000000
00001000
,
00000000
01000000
00000000
00001000
00000000
00010000
00000000
00000100
,
00001000
00000000
00000010
00000000
00000100
00000000
00000000
00000001
,
00000000
00001000
00000000
00000100
00010000
00001000
00010000
00000000
,
00000000
00000000
00011000
00000000
,
01001000
00000000
01100000
00000000
,
10100000
00000000
00000000
00000000
,
00000000
00000000
11000000
00000000
,
00110000
00000000
00000000
00000000
,
00000000
00000000
00101000
00000000
,
00011000
00000000
00000000
00000000
,
00000100
00000000
00010000
00000000
00000100
00001000
00000100
00000000
,
00001000
00000000
00000011
00000000
,
00001100
00000000
00010100
00000000
,
00011000
00000000
00000000
00000000
,
02001000
00000000
03100000
00000000
01000000
00010000
10000000
00000000
,
10010000
00000000
00000000
11000000
00000000
00000000
00110000
00000000
,
00000000
00000000
00000000
00000000
,
00102000
00000000
00000000
00000000
00013000
00000100
00010000
00000100
,
00002000
00000000
00003020
00000000
,
00000130
00000010
00000000
00000100
,
00000000
00000001
00000000
00001000
,
00000000
00000100
00000000
00010000
,
00000000
00001000
00000000
01000000
,
00100000
10000000
00000000
01000000
,
00010000
01000000
00000000
01000000
,
00100000
00000000
00010000
00000000
,
00100000
00010000
00001000
00000100
,
00000010
00000000
00000001
00000000
00000100
00000000
00000000
00000010
,
00000000
00001000
00000000
00000100
00000000
00000000
00000000
00000000
,
00010000
00000000
00001000
00000000
01000000
00000000
00000000
00100000
,
00000000
10000000
00000000
00010000
00000000
00000000
00100000
00000000
,
01000000
00000000
10000000
00000000
00010000
00000000
00000000
00100000
,
00000000
00001000
00000000
00010000
00000000
00000100
00000000
00001000
,
00000010
00000000
00000100
00000000
00000001
00000000
00000010
00000100
,
00000000
00001000
00000000
00000100
00010000
00001000
00200000
00000000
,
00300000
00000000
00000000
00000000
;

//--------------- dance-double - Pandemonium X ----------------
#NOTES:
     dance-double:
     Pandemonium X:
     Medium:
     10:
     0.412982,0.502513,0.199863,0.164173,0.007138,405,377,28,23,0,0,0,0,0,0.412982,0.502513,0.199863,0.164173,0.007138,405,377,28,23,0,0,0,0,0:
00000000
00000000
00000000
00000000
,
00000000
00000000
00000000
00000000
,
00000000
00000000
00000000
00000000
,
00000000
00000000
00000000
00000000
,
00000000
00000000
00000000
00000000
,
00000000
00000000
00000000
00000000
,
00000000
00000000
00000000
00000000
,
00011000
00000000
00000000
00000000
,
00010000
00100000
01000000
10000000
00010000
00100000
01000000
10000000
,
01000000
00100000
00010000
00000000
00000000
00000000
00000000
00000000
,
00001000
00000100
00000010
00000001
00001000
00000100
00000010
00000001
,
00000010
00000100
00001000
00000000
00000000
00000000
00000000
00000000
,
00010000
00100000
01000000
10000000
00010000
00100000
01000000
10000000
,
01000000
00100000
00010000
00000000
00000000
00000000
00000000
00000000
,
00011000
00000000
00000000
00000000
00010000
00000100
00010000
00000100
00001000
00000000
00000000
00000000
00000020
00000000
00000000
00000000
,
00000030
00000110
00000000
00001010
00000000
00010100
00000000
00011000
,
00000000
00001000
01000000
00100000
,
00000000
10000000
00010000
00100000
,
00000000
00100000
00001000
00010000
,
00000000
00000100
00001000
00000010
,
00000000
00010000
00001000
00100000
,
00000000
00010000
01000000
00100000
,
00000000
01000000
00001000
00010000
,
00000000
00000000
00000100
00000000
00001000
00000000
00000010
00000100
,
00001001
00000000
00000001
00000000
00000100
00000000
00000010
00001000
,
00000100
00000000
00010000
00000000
00001000
00000000
01000000
00100000
,
10000000
10000000
00010000
00000000
00100000
00000000
01000000
10000000
,
00010000
00000000
01000000
00000000
10000000
01000000
00010000
00000000
,
00010000
00100000
10000000
00000000
00100000
00000000
00001000
00000000
,
00010000
00000000
00000100
00000100
00001000
00000000
00000010
00000000
,
00000210
00000000
00000301
00001000
00000100
00000000
00001000
00000100
,
00010000
00001000
01000000
00000000
00100000
00100000
10000000
10000000
,
00010000
10000000
01000000
00000000
11000000
00000000
10000000
00000000
,
10100000
00100000
01000000
00000000
00010000
00000000
00100000
00001000
,
00010000
00010000
00000100
00000000
00010100
00000000
00000100
00000000
,
00001010
00000000
00000100
00001000
00000010
00000000
00010010
00000000
,
00001000
00000000
01000000
00000000
00100000
10000000
00010000
00000000
,
00100000
00000000
00001000
00000000
00010000
00000100
00001000
00000000
,
00000010
00000100
00000010
00000100
00000001
00001000
00000001
00001000
,
00000001
00000100
00001000
00010000
00100000
00100000
02000000
00000000
,
03010000
00000000
00100000
00000000
01000000
00000000
10000000
01000000
,
00000000
10000000
00000000
00010000
00000000
00100000
00001000
00010000
,
00000100
00000000
00001000
00000000
00000010
00000000
00000100
00000001
,
00000000
00000010
00000000
00001000
00000000
00000010
00000100
00001000
,
00000100
00000000
00010000
00000000
00001000
00000000
00010000
00001000
,
00000000
01000000
00000000
00100000
00000000
10000000
00000000
00010000
,
01000000
00000000
10000000
01000000
00010000
00000000
10000000
01000000
,
00000000
00100000
00000000
00010000
00000000
00001000
00000000
00000100
,
00001000
00000000
00001000
00000000
00000001
00000000
00000100
00000010
,
00000000
00000100
00000000
00000001
00000000
00000001
00000010
00000100
,
00001000
00000000
00000100
00000000
00010000
00000000
00001000
01000000
,
00000000
00100000
00000000
10000000
00000000
00010000
01000000
10000000
,
01000000
00000000
00100000
00000000
10000000
00000000
00010000
00100000
,
00000000
00001000
00000000
00010000
00000000
00000100
00000000
00001000
,
00001010
00000000
00000010
00000100
00000001
00000000
00000010
00000000
,
00000100
00001100
00000000
00010100
00010000
00001000
00011000
00000000
,
00001000
01000000
00200000
10300000
,
02000000
03010000
02000000
03010000
,
00200000
00301000
00010000
00000100
,
00001000
00000010
00000002
00000013
,
00000200
00000301
00001000
00000100
,
00010000
00001000
02000000
13000000
,
02000000
03010000
00100000
10000000
,
00100000
00000000
00001000
00010000
00000100
00001000
00000100
00000100
,
00001000
00000010
00000002
00000013
,
00002000
00003100
00020000
00031000
,
02000000
13000000
01000000
00001000
,
00021000
00030000
00010200
00000300
,
00002000
00000000
00003001
00000020
00000000
00000130
00002000
00000000
,
00003001
00000100
00000010
00000000
00000100
00000000
00000010
00000000
,
00010000
00001000
00010000
00001000
00010000
00010000
00010000
00010000
,
00001000
01000000
00100000
00000000
20100000
00000000
00000000
00000000
,
31000000
10000000
00000000
00010000
,
00000000
00100000
00000000
00001000
,
00000000
00010000
00000000
00000100
,
00000000
00001000
00000000
00000010
,
00001001
00000001
00000000
00001000
,
00001100
00000100
00000000
00001000
,
00010100
00001000
00011000
00001000
,
01000000
00100000
01000000
00010000
10000000
00010000
00100000
00001000
,
00010000
00000000
00000100
00000000
00001000
00000000
00000010
00000001
,
00000000
00000010
00000000
00001000
00000000
00000100
00010000
00001000
,
01000000
00000000
10000000
00000000
01000000
00000000
00010000
00100000
,
00000000
10000000
00000000
00100000
00000000
00010000
00100000
01000000
,
10000000
00000000
00010000
00000000
00100000
00000000
00001000
00010000
,
00000000
00000100
00000000
00001000
00000000
00000010
00000000
00000001
,
00000010
00000000
00000100
00000001
00001000
00000000
00000001
00000011
,
00000000
00001100
00000000
00010100
00001000
00001000
00022000
00000000
,
00033000
00000000
00000000
00000000
;

//--------------- dance-double - Pandemonium X ----------------
#NOTES:
     dance-double:
     Pandemonium X:
     Hard:
     15:
     0.613865,0.753769,0.42114,0.571037,0.267674,602,543,59,80,0,0,4,0,0,0.613865,0.753769,0.42114,0.571037,0.267674,602,543,59,80,0,0,4,0,0:
00000000
00000000
00000000
00000000
,
00000000
00000000
00000000
00000000
,
00000000
00000000
00000000
00000000
,
00000000
00000000
00000000
00000000
,
10000000
01000000
10000000
00100000
01000000
00001000
00010000
00000100
,
00001000
00000010
00000100
00000000
00000000
00000000
00000000
00000000
,
00000001
00000100
00000010
00001000
00000100
00010000
00001000
00100000
,
01100000
00000000
00000000
00000000
,
11000000
00000000
00000000
00000000
00110000
00000000
00000000
00100000
00001000
00000000
00000000
00000000
00011000
00000000
00000000
00000000
,
00010000
00000100
00002000
00000000
00000000
00000000
00003000
00000000
,
00001001
00000000
00000000
00000000
00001010
00000000
00000000
00000010
00010000
00000000
00000000
00000000
00011000
00000000
00000000
00000000
,
00001000
00100000
02000000
00000000
00000000
00000000
03000000
00000000
,
00110000
00000000
00000000
00000000
00011000
00000000
00000000
00010000
00000010
00000000
00000000
00000000
00000110
00000000
00000000
00000000
,
00000100
00000001
00000020
00000000
00000100
00000000
00000031
00000000
,
00000011
00000000
00000000
00000000
00000001
00000100
00000010
00001000
00000200
00000000
00000000
00000000
00040300
00000000
00000000
00030000
,
00000000
00011000
00000000
00100010
00000000
01000100
00000000
00010000
,
00011000
00000010
00000100
00000010
,
00001000
00000100
00000000
00000001
00000000
00000100
00000000
00001000
,
00000010
00010000
00001000
00000000
00100000
00000000
00001000
00000000
,
00010000
00000100
00000000
00010000
00000000
00001000
00000000
00010000
,
00001000
00100000
00010000
00000000
01000000
00000000
00010000
00000000
,
01000000
10000000
00000000
01000000
00000000
00010000
00000000
00100000
,
00000000
00001000
00010000
00000000
00000100
00001000
00000010
00000000
,
00000100
00000000
00000001
00000000
00000000
00000000
00000010
00000000
00000000
00000000
00000100
00000000
00000100
00010000
00001000
00000000
,
00011000
00000000
00000000
00000000
00001000
00000000
01000000
00000000
00100000
00000000
10000000
01000000
00000000
01000000
00100000
00000000
,
00001000
00000000
00001000
00000000
00010000
00000100
00000000
00001000
00000010
00000000
00000100
00000000
00000001
00000010
00000001
00000000
,
00001000
00000000
00001000
00000000
00000010
00000000
00000100
00000000
00000001
00000000
00001000
00000100
00000000
00010000
00001000
00000000
,
00010000
00000000
00001000
00000000
01000000
00100000
00000000
01000000
00010000
10000000
01000000
00000000
00100000
01000000
00000000
00100000
,
00010000
01000000
00100000
00000000
10000000
00000000
00010000
00000000
00100000
00000000
00010000
00100000
00000000
00100000
00001000
00000000
,
00010000
00000000
00010000
00000000
00000100
00001000
00000010
00000000
00000001
00000000
00000010
00000000
00001000
00000000
00000100
00000000
,
00010000
00001000
01000000
10000000
01000000
00010000
00100000
10000000
,
00100000
00010000
00000000
00011000
00000000
00001100
00000000
00000110
,
00000000
00000000
00000011
00000000
00000101
00000000
00000100
00000000
00000010
00000000
00010000
00001000
00000000
00010000
00000100
00000000
,
00010000
00000000
00001000
00000000
01000000
00100000
00000000
01000000
00010000
10000000
01000000
00000000
00100000
01000000
00100000
00000000
,
01000000
00000000
01000000
00000000
10000000
00000000
01000000
00000000
00110000
00000000
00100000
00001000
00000000
00010000
00000010
00000000
,
00000100
00000000
00000001
00000000
00000010
00000100
00000000
00000010
00000001
00000100
00000010
00000000
00012000
00000000
00000000
00000000
,
00013000
00000000
00001000
00000000
00011000
00000000
00001000
01000000
00100000
00000000
01000000
00000000
01100000
00000000
00100000
10000000
,
01000000
00000000
01000000
00000000
01100000
00000000
00100000
00001000
00010000
00000000
00010000
00000000
00011000
00000000
00010000
00000000
,
00000100
00001000
00000010
00000001
00000010
00000100
00001000
00010000
,
00001000
00000000
00001000
00000000
00010000
00000000
00010000
00000000
00000100
00010000
00001000
01000000
00002000
00000000
00000000
00000000
,
00023000
00000000
00032000
00000000
02003000
00000000
03100000
00020000
,
00000000
00230000
00000000
20300000
00000000
31000000
00100000
01000000
,
20000000
00000000
32000000
00000000
03020000
00000000
00130000
00020000
,
00000000
00032000
00000000
00003200
00000000
00000310
00000100
00001000
,
00001002
00000000
00000203
00000000
00002300
00000000
00003100
00002000
,
00000000
00023000
00000000
00230000
00000000
20300000
00000000
31000000
,
00020000
00000000
01030000
10000000
00200000
00000000
01300000
01100000
,
00000000
10010000
00000000
00101000
00000000
00010100
00000000
00001100
,
00000021
00000000
00002030
00000000
00003020
00000000
00000031
00000200
,
00000000
00002300
00000000
00023000
00000000
00031000
00010000
00100000
,
20000000
00000000
32000000
00000000
03020000
00000000
00130000
00002000
,
00000000
00023000
00000000
00030200
00000000
00001300
00000100
00000010
,
00000002
00000000
00000203
00000000
00002300
00000000
00003100
00020000
,
00000000
00032000
00000000
02003000
00000000
23000000
00000000
31000000
,
00010000
00000000
00000000
00100000
00001000
00010000
00001000
00000000
00010000
00000000
00000100
00000000
00004000
00000000
00000000
00000000
,
00003001
00000000
00000100
00000000
00001000
00000000
00010000
00000000
00001000
01000000
00100000
10000000
02000000
03000000
00000000
00000000
,
00100000
00010000
10000000
01000000
20000000
00000000
30100000
01000000
,
00020000
00000000
00130000
00001000
00020000
00000000
00030100
00001000
,
00000020
00000000
00000130
00000000
00000010
00001000
00000001
00000010
,
00000100
00001000
00000000
00000100
00010000
00000100
00010000
00000000
00001000
01000000
00000000
00010000
00100000
00010000
00100000
00000000
,
11000000
01000000
00100000
00001000
00010000
00000100
00001000
00000010
,
00000100
00000001
00001000
00000000
00001001
00000000
00001000
00000000
00001000
00000000
00000100
00010000
00002000
00000000
00000000
00000000
,
00023000
00000000
00031000
00000000
01000000
00100000
10000000
01000000
,
00100000
00000000
00000000
00000000
01000000
10000000
01000000
00000000
10000000
00100000
10000000
00000000
00010000
00000000
00010000
00000000
,
00110000
00000000
00100000
00001000
00020000
00000000
00030100
00001000
,
00000020
00000000
00000000
00000000
00000130
00000000
00000001
00000000
00000010
00000100
00000010
00000000
00000100
00000000
00000100
00000000
,
00012000
00000000
02003000
00000000
13000000
01000000
00010000
00100000
,
10010000
00000000
00000000
00000000
00011000
00000000
00000000
00000000
00000010
00000100
00000010
00000100
00000010
00000000
00001001
00000000
,
00000021
00000000
00000130
00002000
00000000
00003100
00020000
00000000
,
00031000
01000000
00001000
00000000
01000000
00000000
00100000
00000000
10000000
00000000
01000000
00000000
00010000
00000000
01000000
00000000
,
10000000
01000000
00100000
00010000
00100000
00001000
00010000
00000100
00001000
00000000
00001000
00000000
00001000
00000000
00001000
00000000
,
00000001
00000100
00000010
00000000
00000100
00000010
00000000
00010000
00004000
04000000
00000000
00000000
00000000
00000000
00000000
03003000
,
00110000
00000000
00000000
00000000
01000000
00000000
00000000
10000000
00100000
00000000
00000000
00000000
01010000
00000000
00000000
00000000
,
10000000
00000000
00000000
00000000
00110000
00000000
00000000
00100000
00001000
00000000
00000000
00000000
00011000
00000000
00000000
00000000
,
00010000
00000000
00000000
00000000
00010100
00000000
00000000
00000100
00001000
00000000
00000000
00000000
00000010
00000000
00000000
00000000
,
00000100
00000000
00000000
00000000
00000101
00000000
00000000
00001000
00000100
00000000
00000000
00000000
00000011
00000000
00000000
00000000
,
00001001
00000000
00000010
00000000
00010000
00000000
00001000
01000000
,
01100000
01000000
00000000
00100000
00000000
10000000
01000000
00100000
,
00110000
00000000
00100000
00001000
00011000
00000000
00000100
00010000
,
00010000
00011000
00001000
00011000
00010000
00011000
00001000
00011000
,
00020000
00000000
00030200
00000000
00002300
00000000
00003010
00000002
,
00000000
00000023
00000000
00002030
00000000
00003010
00000100
00001000
,
00020000
00000000
00032000
00000000
00203000
00000000
10300000
00200000
,
00000000
00302000
00000000
00023000
00000000
00031000
00010000
00000010
,
00000200
00000000
00000320
00000000
00020030
00000000
00031000
02000000
,
00000000
23000000
00000000
32000000
00000000
03020000
00000000
10030000
,
01000000
00000000
00100000
00000000
00010000
00000000
00001000
00000000
00000100
00000000
00001000
00000000
00001000
00000100
00001000
00000100
,
00010000
00000000
00011000
00000000
00000000
00000000
00101000
00000000
00001000
01000000
00100000
10000000
00020000
00000000
00000000
00000000
,
00030000
00000000
00000000
00000000
;

//--------------- dance-double - Pandemonium X ----------------
#NOTES:
     dance-double:
     Pandemonium X:
     Challenge:
     16:
     0.732151,0.942211,0.69952,0.178449,0.496088,718,620,98,25,0,0,0,0,0,0.732151,0.942211,0.69952,0.178449,0.496088,718,620,98,25,0,0,0,0,0:
00000000
00000000
00000000
00000000
,
00000000
00000000
00000000
00000000
,
00000000
00000000
00000000
00000000
,
00000000
00000000
00000000
00000000
,
10000000
01000000
00100000
00010000
00001000
00000100
00000001
00000100
,
00001000
00000010
00000100
00000000
00000000
00000000
00000000
00000000
,
00000001
00000010
00000100
00001000
00010000
00100000
10000000
01000000
,
11000000
00000000
00000000
00000000
,
10000000
01000000
10000000
00010000
01000000
00001000
00010000
00000100
,
00001000
00000010
00000010
00000000
00000000
00000000
00000000
00000000
,
00001000
00000001
00000100
00000001
00001000
00000100
00010000
00001000
,
00100000
00010000
00010000
00000000
00000000
00000000
00000000
00000000
,
10000000
00010000
00100000
00001000
00010000
00000100
00001000
00000001
,
00000100
00000010
00000010
00000000
00000000
00000000
00000000
00000000
,
00000110
00000000
00000000
00000000
00000000
00000000
00000000
00000000
00000000
00000000
00000000
00000000
00000010
00000000
00000000
00010000
00000000
00000000
00000100
00000000
00000000
00010000
00000000
00000000
00001000
00000000
00000000
00000000
00000000
00000000
00000000
00000000
00000000
00000000
00000000
00000000
00010000
00000000
00100000
00000000
00010000
00000000
00100000
00000000
00010000
00000000
00000000
00000000
,
00000000
01010000
00000000
00001100
00000000
01010000
00000000
00001000
,
00011000
00020000
00000000
00000000
,
00000000
00030200
00000000
00000000
,
00000000
00002300
00000000
00000000
,
00000000
00003020
00000000
00000000
,
00000000
00000230
00000000
00000000
,
00000000
00000302
00000000
00000000
,
00000000
00002003
00000000
00000000
,
00000000
00000000
00000000
00000000
00003200
00000000
00000000
00000000
00000000
00000000
00000000
00000000
00010300
00001000
01000000
00100000
,
10100000
00000000
00000000
00000000
10000000
00000000
00010000
00000000
00110000
00000000
00100000
00001000
00000000
00010000
00000100
00000000
,
00001100
00000000
00001100
00000000
00001000
00000000
00000010
00000000
00000001
00000000
00000010
00000000
00000100
00000001
00001000
00000000
,
00000100
00000000
00000100
00000000
00010000
00000000
00001000
00000000
00011000
00000000
00001000
01000000
00000000
01000000
00100000
00000000
,
10000000
00000000
00010000
00000000
10000000
01000000
00000000
10000000
00010000
01000000
00100000
00000000
01000000
00100000
00000000
01000000
,
00010000
00100000
00010000
00000000
00100000
00000000
00001000
00000000
00011000
00000000
00010000
00000100
00000000
00001000
00000010
00000000
,
00000110
00000000
00000110
00000000
00000001
00000010
00000100
00000000
00001100
00000000
00001000
00000100
00010000
00000000
00001000
00000000
,
02000000
00000000
03100000
00010000
00100000
10000000
01000000
00010000
,
01000000
00000000
10000000
00010000
00100000
00000000
01000000
00000000
00100000
00001000
00010000
00000000
00001000
00010000
00000100
00000000
,
00001000
00000010
00000100
00000000
00000001
00000000
00000010
00000000
00000110
00000000
00000010
00000001
00000000
00001000
00000100
00000000
,
00001100
00000000
00010100
00000000
00001000
00010000
00000000
00001000
01000000
00000000
00100000
00000000
10000000
00010000
10000000
00000000
,
10010000
00000000
10010000
00000000
10000000
00000000
01000000
00000000
00110000
00000000
00100000
00001000
00000000
00010000
00000100
00000000
,
00001100
00000000
00001010
00000000
00000010
00000000
00000100
00000000
00000010
00010000
00000000
00001000
00020000
00000000
00000000
00000000
,
00030100
00000000
00001000
00000000
00001010
00000000
00000010
00000100
00000000
00000001
00001000
00000000
00001100
00000000
00010100
00000000
,
00000100
00010000
00001000
00000000
00011000
00000000
00001000
01000000
00000000
00100000
10000000
00000000
10010000
00000000
11000000
00000000
,
10000000
01000000
00100000
00010000
00100000
00001000
00010000
00000100
00001000
00000010
00000100
00000001
00000010
00000100
00001000
00000001
,
00001000
00000000
00000010
00000000
00100000
00000000
00001000
00000000
00010000
00001000
00010000
00001000
00022000
00000000
00000000
00033000
,
00110000
00000000
11000000
00000000
10010000
00000000
00100000
00110000
,
00000000
00101000
00000000
00011000
00000000
00010000
00000010
00000100
,
00000110
00000000
00001010
00000000
00010010
00000000
00010000
00011000
,
00000000
01001000
00000000
01100000
00000000
01000000
10000000
01000000
,
01010000
00000000
01001000
00000000
00011000
00000000
00010000
00010100
,
00000000
00001100
00000000
00001001
00000000
00001010
00000000
00000100
,
00000101
00000000
00000001
00001000
00010010
00000000
00001000
00011000
,
00000000
01000100
00000000
00100010
00000000
01000100
00000000
00011000
,
00011000
00000000
00110000
00000000
11000000
00000000
10000000
10010000
,
00000000
00101000
00000000
00011000
00000000
00010000
00000100
00001000
,
00001010
00000000
00000101
00000000
00001001
00000000
00000001
00001001
,
00000000
00001100
00000000
00010100
00000000
00000100
00010000
00001000
,
01001000
00000000
01100000
00000000
10100000
00000000
10000000
10010000
,
00000000
00110000
00000000
00101000
00000000
00011000
00000000
00010000
,
00010100
00000000
00000000
00000000
00000000
00000000
00000000
00000000
00000000
00010000
00000000
00000000
00000100
00000000
00000000
00001000
00000000
00000000
00000010
00000000
00000000
00001000
00000000
00000000
00000001
00000000
00000000
00000000
00000000
00000000
00000000
00000000
00000000
00000000
00000000
00000000
00001000
00000000
00000100
00000000
00001000
00000000
00000100
00000000
00001000
00000000
00000100
00000000
,
00001000
00000000
00001100
00000000
00000000
00000000
01010000
00000000
00001000
00100000
00001000
00010000
00000020
00000000
00000000
00000000
,
00001030
00000000
00000001
00000000
00000010
00000000
00000100
00000000
00000010
00000001
00000010
00000001
00000100
00000000
00001000
00000000
,
00000100
00001000
00000100
00000000
00001000
00000000
00010000
00001000
00010000
00001000
00010000
00000000
00001000
00100000
01000000
00000000
,
10000000
00000000
01000000
00000000
00100000
00000000
01000000
10000000
01000000
10000000
01000000
00000000
10000000
00000000
00010000
01000000
,
00010000
01000000
00001000
00100000
00010000
00000000
00100000
00010000
01000000
00010000
01000000
00000000
00010000
00100000
00001000
00010000
,
00001000
00000000
00000100
00000000
00000001
00000000
00000010
00000100
00001000
00000100
00001000
00000000
00000001
00000000
00000100
00000010
,
00001000
00000100
00000010
00000000
00000001
00000100
00001000
00000100
00000010
00000000
00000100
00000000
00002000
00000000
00000000
00000000
,
00013000
00001000
00010000
00000000
00001000
00000000
00000100
00000001
00000100
00000000
00000001
00000000
00000010
00000100
00001000
00000000
,
00000100
00010000
00001000
00100000
00010000
01000000
00100000
10000000
00010000
00100000
10000000
00010000
01000000
10000000
00010000
00100000
,
01000000
00000000
10000000
00000000
01000000
00000000
10000000
00010000
01000000
00100000
10000000
00000000
01000000
10000000
00010000
00000000
,
10000000
00100000
00010000
00000000
00100000
00000000
00010000
00100000
00010000
00000000
00000010
00000000
00001000
00000000
00000100
00000000
,
00000010
00000100
00000001
00000000
00000100
00000000
00001000
00000000
00000001
00000100
00001000
00000000
00000100
00000010
00000100
00000000
,
00000001
00000010
00000100
00000000
00001000
00000000
00000100
00010000
00001000
00000000
00100000
00000000
00010000
01000000
00010000
10000000
,
01000000
00000000
10000000
00000000
00100000
00000000
10000000
00100000
01000000
00100000
10000000
00000000
00100000
10000000
01000000
00000000
,
10000000
01000000
10000000
00010000
01000000
00000000
00010000
01000000
00001000
00010000
00000100
00000000
00001000
00000010
00000100
00000000
,
00000001
00000000
00000010
00000100
00000010
00000000
00000001
00000010
00000100
00000000
00001000
00000100
00000010
00000000
00000001
00000100
,
00000020
00000000
00002030
00000000
00003100
00010000
00001000
00100000
01000000
10000000
00100000
01000000
00010000
10000000
00100000
01000000
,
00200000
00000000
00000000
00300000
01000000
00000000
00000000
00010000
00100000
00000000
00000000
00000000
00011000
00000000
00000000
00000000
,
00010000
00000000
00000000
00000000
00000100
00000000
00000000
00001000
00000010
00000000
00000000
00000000
00000101
00000000
00000000
00000000
,
00000001
00000000
00000000
00000000
00001000
00000000
00000000
00000100
00010000
00000000
00000000
00000000
00011000
00000000
00000000
00000000
,
00001000
00000000
00000000
00000000
01000000
00000000
00000000
00100000
10000000
00000000
00000000
00000000
01010000
00000000
00000000
00000000
,
10010000
10000000
01000000
00010000
01000000
00010000
00001000
00000100
,
00000110
00000001
00000100
00001000
00000100
00001000
00010000
00100000
,
10100000
00000000
10000000
00010000
00110000
00000000
00100000
00001000
,
00011000
00010000
00011000
00001000
00011000
00010000
00011000
00001000
,
00010200
00000000
00001000
00000000
00010300
00000000
00010000
00012000
,
00000000
00100000
00000000
01003000
00000000
01000000
10000000
01000000
,
02010000
00000000
00001000
00000000
03020000
00000000
00130000
00210000
,
00000000
00001000
00000000
00010000
00000000
00301000
00010000
00000100
,
00002100
00000000
00000010
00000000
00003100
00000000
00000100
00001200
,
00000000
00010000
00000000
00001000
00000000
00010000
00000000
00001300
,
00000100
00000000
00000000
00001000
00000000
00000000
00000100
00000000
00000000
00010000
00000000
00000000
00001000
00000000
00000000
01000000
00000000
00000000
00100000
00000000
00000000
10000000
00000000
00000000
00010000
00000000
00000000
00100000
00000000
00000000
01000000
00000000
00000000
10000000
00000000
00000000
00010000
00000000
10000000
00000000
00010000
00000000
10000000
00000000
00010000
00000000
10000000
00000000
,
00010000
00000000
00110000
00000000
00000000
00000000
00001010
00000000
00000010
00010000
00001000
00100000
00020000
00000000
00000000
00000000
,
00030000
00000000
00000000
00000000
;
