#TITLE:U Got Me Crazy;
#SUBTITLE:;
#ARTIST:MAX;
#TITLETRANSLIT:;
#SUBTITLETRANSLIT:;
#ARTISTTRANSLIT:;
#GENRE:;
#CREDIT:;
#MUSIC:U Got Me Crazy.ogg;
#BANNER:;
#BACKGROUND:;
#CDTITLE:;
#SAMPLESTART:30.118;
#SAMPLELENGTH:15.469;
#SELECTABLE:YES;
#OFFSET:-0.118;
#BPMS:0.000=128.000;
#STOPS:;
#BGCHANGES:;
#FGCHANGES:;

//--------------- dance-single - Pandemonium X ----------------
#NOTES:
     dance-single:
     Pandemonium X:
     Beginner:
     4:
     0,0,0,0,0:
0000
0000
0000
0000
,
0000
0000
0000
0000
,
0000
0000
0000
0000
,
0000
0000
0000
0000
,
0001
0000
0000
0000
,
1000
0000
0000
0000
,
0001
0000
0000
0000
,
0110
0000
0000
0000
,
1000
0000
0100
0000
,
1000
0000
0010
0100
,
0001
0000
0010
0000
,
0100
0100
1000
1000
,
0001
0000
0100
0000
,
0010
0000
1000
0000
,
0100
0010
0001
0000
,
1001
0000
0000
0001
,
0100
0000
0000
0010
,
1000
0000
0000
0000
,
0000
0100
0010
0100
,
1000
0000
0000
0001
,
0200
0000
0300
0000
,
0020
0000
0030
0000
,
0100
0010
1001
0000
,
0001
1000
0020
0000
,
0030
0000
0000
0000
,
0100
0000
0010
0000
,
1000
0000
0001
0000
,
0010
0000
0100
0000
,
1001
0000
0000
0000
,
0001
0000
1000
0000
,
0100
0000
1000
0000
,
0010
0000
0100
0000
,
1001
0000
0001
1000
,
0100
0000
0010
0000
,
0100
0000
1000
0000
,
0001
0000
0100
0000
,
0001
0000
0010
0000
,
0100
0000
0100
0000
,
0010
0010
0010
0000
,
0100
0000
1000
0000
,
1001
0000
0000
0001
,
0010
0000
0000
0000
,
0100
0000
0000
0000
,
0000
0000
0000
0000
,
0000
0000
0000
1000
,
0001
0000
0000
0000
,
0100
0000
0000
0000
,
0000
0010
0000
0100
,
1001
0000
0000
0000
,
0001
0000
1000
0000
,
0100
0100
0100
0000
,
0010
0000
0001
0000
,
1000
1000
0001
0000
,
0101
0000
0000
0000
,
1100
0000
0000
0000
,
0011
0000
0000
0000
,
1010
0000
0100
0000
,
1001
0000
0000
0000
,
0001
0000
0000
1000
0000
0000
0010
0000
,
1001
0000
0000
0000
;

//--------------- dance-single - Pandemonium X ----------------
#NOTES:
     dance-single:
     Pandemonium X:
     Easy:
     6:
     0,0,0,0,0:
0000
0000
0000
0000
,
0000
0000
0000
0000
,
0000
0000
0000
0000
,
0000
0000
0000
0000
,
0001
0000
0000
0000
,
1000
0000
0000
0000
,
0010
0000
0000
0000
,
2002
0000
0000
3003
,
1000
0001
0010
0001
,
1000
0100
0010
0001
,
0010
0001
0100
0001
,
0100
1000
0100
0001
,
1000
1000
0001
0001
,
0010
0001
1000
0100
,
0010
0100
1000
0010
,
0101
0000
0000
1010
0000
0000
0001
1000
,
0001
0010
0100
0000
,
0010
0001
1000
0000
,
0000
0001
1000
0100
,
0010
0010
0010
0100
,
2000
0000
0000
3000
,
0002
0000
0000
0003
,
1001
0110
1001
1000
,
0001
0010
0100
2000
,
3000
0000
0000
0000
,
0001
0000
1000
0000
,
0100
0000
1000
0000
,
0010
1000
0001
0100
,
1001
0000
0002
0000
,
0103
0000
0001
0000
,
0010
0000
0100
0000
,
1000
0100
0010
0001
,
2002
3003
0020
0130
,
1001
0001
1000
0000
,
0100
1000
0010
0000
,
0100
0001
0010
0000
,
0100
0010
0001
1000
,
0002
0103
0002
1003
,
0100
0000
0010
0000
0002
0003
0010
0000
,
0100
1000
0001
0100
,
2002
0000
3003
0010
,
1002
0000
0000
0000
,
2003
0000
0000
0000
,
3200
0000
0000
0000
,
0320
0000
0000
0000
,
0031
1000
0200
1300
,
0100
0010
0002
1003
,
0100
1000
0010
0100
,
0001
1000
0010
2001
,
3100
0010
0001
0000
,
0100
0001
1000
0000
,
0100
1000
0010
0000
,
0100
0001
1000
0100
,
0020
0000
0000
0130
,
2000
0000
0000
3001
,
0200
0000
0000
0310
,
1000
0010
0100
0001
,
2000
3000
0000
0000
,
0101
0000
0000
1010
0000
0000
1100
0000
,
1001
0000
0000
0000
;

//--------------- dance-single - Pandemonium X ----------------
#NOTES:
     dance-single:
     Pandemonium X:
     Medium:
     10:
     0,0,0,0,0:
0000
0000
0000
0000
,
0000
0000
0000
0000
,
0000
0000
0000
0000
,
0000
0000
0000
0000
,
0001
0000
0000
0000
,
1000
0000
0000
0010
0000
0100
0001
0010
,
0000
0000
0000
0000
,
2200
0000
0000
3300
,
1000
0000
0001
0000
0100
0000
0010
0010
,
1000
0000
0001
0000
0010
1000
0010
0000
,
0001
0000
0100
0000
0001
1000
0100
0000
,
0110
0000
0001
0000
1000
0001
0010
0000
,
0101
1010
0101
1010
,
0001
0000
1000
0000
0100
1000
0001
0000
,
0100
0000
0001
0000
0010
0001
1000
0000
,
0001
0000
0000
0001
0000
0000
1000
0000
0000
1000
0000
0000
0010
0000
1000
0000
,
0100
0000
0000
0000
0010
0000
0000
0001
0000
0000
0000
0000
0010
0000
0000
0000
,
0001
0000
0000
0000
1000
0000
0000
0010
0000
0000
0000
0000
0100
0000
0100
0000
,
0000
0010
1000
0001
,
0010
0000
0000
0100
0000
0000
0010
0000
0001
0000
0000
0000
1000
0000
0000
0000
,
0100
0000
0000
0100
0000
0000
0100
0000
0000
0100
0000
0000
0100
0000
0000
0000
,
0010
0000
0000
0010
0000
0000
0010
0000
0000
0010
0000
0000
0010
0000
0000
0000
,
0001
0100
0010
1000
0001
0000
1001
0000
,
1000
0100
0010
0001
1000
0001
1000
0001
,
0200
0300
0000
0000
,
0010
0000
1000
0000
,
0100
0000
0010
0000
,
0011
0110
1100
1001
,
0102
0000
0013
0000
0100
0100
1000
1000
,
0001
0000
0010
0000
,
0001
0000
1000
0000
,
0100
1000
0010
0100
0001
0010
0100
0000
,
1200
0000
0000
0000
0310
0000
0000
0000
0001
1000
0000
0001
1000
0000
0000
0000
,
0001
0000
0000
0000
0100
0000
0000
0000
0010
0000
0000
1000
0000
0000
0000
0000
,
0010
0000
0000
0000
1000
0000
0000
0000
0100
0000
0000
0010
0000
0000
0000
0000
,
0100
0000
0000
0000
1000
0000
0000
0000
0001
0000
0000
0010
0000
0000
0000
0000
,
0001
0000
0000
0000
1000
0000
0000
0000
0100
0000
0000
0010
0000
0000
0000
0000
,
0100
0000
0000
1000
0000
0000
0010
0000
0100
0000
0000
0001
0000
0000
0010
0000
,
0100
0000
0010
0000
0002
0003
1000
0000
,
0002
0000
0003
0000
2000
3000
0000
0002
0003
0200
0000
0300
0020
0000
0000
0000
,
1030
0000
0000
0100
0000
0000
0010
0000
0000
0001
0000
0000
1000
0000
0001
0000
,
0201
0000
0000
0300
,
0020
0000
0000
0030
,
2000
0000
0000
3000
,
0002
0000
0000
0003
,
1000
0000
1100
0000
0100
0010
0001
0000
,
0100
0000
0101
0000
0001
1000
0010
0000
,
1000
0010
0100
0001
,
1000
0000
0100
0000
0010
0000
0001
0010
0000
0001
0010
0000
0200
0000
0000
0000
,
1300
0100
0010
0000
0100
0000
1100
0000
,
1000
0010
0100
0000
0001
0000
0011
0000
,
0001
0010
0100
0000
0010
0000
0011
0000
,
0001
0100
0010
0000
0100
0001
1000
0000
,
0001
0000
0000
0100
0000
0000
0001
0000
0000
0100
0000
0000
0001
0000
0000
0000
,
1000
0000
0000
0010
0000
0000
1000
0000
0000
0010
0000
0000
1000
0000
0000
0000
,
0001
0000
0000
1000
0000
0000
0001
0000
0000
1000
0000
0000
0001
0000
0000
0000
,
1000
0100
0010
0001
1000
0001
1000
0001
,
0200
0300
0000
0000
,
0110
0000
0000
0101
0000
0000
0110
0000
0000
1010
0000
0000
0010
0000
0100
0000
,
1001
0000
0000
0000
;

//--------------- dance-single - Pandemonium X ----------------
#NOTES:
     dance-single:
     Pandemonium X:
     Hard:
     13:
     0,0,0,0,0:
0000
0000
0000
0000
,
0000
0000
0000
0000
,
0000
0000
0000
0000
,
0000
0000
0000
0000
,
0001
0000
0000
0000
,
1000
0000
0000
0000
,
0010
0000
0000
0000
,
2002
0000
0000
3003
,
1000
0000
0100
0000
1000
0000
0010
0000
0100
0000
0001
0000
0010
0100
0010
0100
,
1000
0000
0100
0000
1000
0000
0001
0000
0100
0000
0001
0010
0000
0000
0010
0000
,
0001
0100
0001
1000
0100
0010
0100
1000
,
0001
0000
0100
0000
1000
0000
0100
0000
0001
0000
1000
0100
0000
0000
0000
0000
,
0011
1100
0101
1010
,
0001
0000
1000
0000
0010
0000
1000
0000
0001
0000
0010
0001
0000
0001
0100
0000
,
0100
0000
0100
0001
0000
0001
0010
0000
0010
0000
0100
0000
1000
0000
0001
0000
,
1001
0000
0000
0010
0000
0000
1001
0000
0000
0100
0000
0000
1001
0000
1000
0000
,
0010
0000
0100
0000
1000
0000
0100
0001
0000
0000
0000
0000
1000
0000
0001
0000
,
0010
0000
1000
0000
0010
0000
0001
0100
0000
0000
0000
0000
0010
1000
0010
1000
,
0000
0000
0010
0001
0010
1000
0001
0010
,
0100
0000
1000
0001
1000
0000
0001
0000
0010
0000
0001
0000
1000
0000
0010
0000
,
0100
0000
0000
0100
0000
0000
0100
0000
0000
0100
0000
0000
0100
0000
0001
0000
,
0010
0000
0000
0010
0000
0000
0010
0000
0000
0010
0000
0000
0010
0000
0100
0000
,
1000
0100
0001
0100
1100
0000
1001
0000
,
0001
0000
0001
0000
0100
0000
0100
0000
0010
1000
0010
1000
0010
0100
0001
1000
,
0200
0300
0000
0000
,
0010
0001
0100
0000
0010
1000
0001
0000
,
0010
0001
1000
0000
0100
0010
0001
0000
,
0010
0001
1000
0010
0100
1000
0100
0000
,
1100
0000
0000
0000
1001
0000
0000
0000
0001
1000
0001
1000
0001
1000
0001
1000
,
0001
0010
0100
0000
1000
0100
0010
0000
,
0100
0010
0100
0000
0100
1000
0100
0000
,
0100
0010
0001
0100
0010
1000
0100
0000
,
1001
0000
0000
0000
0110
0000
0000
0000
0001
0100
0000
0100
0020
0000
0000
0000
,
1030
0000
0100
0000
1000
0000
0010
0000
0100
0000
0001
0010
0000
0000
0000
0000
,
0001
0000
1000
0000
0100
0000
0010
0000
0100
0000
1000
0010
0000
0000
0000
0000
,
1000
0000
0001
0000
0010
0000
0001
0000
0100
0000
0001
0010
0000
0000
0000
0000
,
0001
0000
1000
0000
0100
0000
0010
0000
0100
0000
1000
0010
0000
0000
0000
0000
,
0201
0000
0000
0310
0000
0000
0000
0000
2100
0000
0000
3010
0000
0000
0000
0000
,
0100
1000
0010
0100
0002
0013
0100
0010
,
0002
0000
1003
0000
0020
0030
0100
0002
0003
0020
0000
0200
0000
0000
0330
0000
,
1001
0000
0000
0010
0000
0000
1001
0000
0000
0100
0000
0000
0001
0000
1000
0000
,
1200
0000
0000
0300
,
0020
0000
0000
0030
,
0002
0000
0000
0000
,
2000
0000
0000
0000
0003
0000
3001
1000
,
0020
0000
0100
0000
1030
0000
0100
0010
,
0002
0000
0010
0000
0100
0000
0013
0100
,
1000
0000
1000
0010
1000
0001
0010
0100
,
1000
0000
1000
0000
0001
0000
0001
1000
0000
0001
1000
0000
0210
0000
0000
0000
,
0301
0000
0100
0000
1001
0000
0000
0000
1000
0000
0100
0010
0000
0100
0000
0000
,
1000
0000
0100
0000
1001
0000
0000
0000
0001
0000
1000
0001
0000
0010
0000
0000
,
0001
0100
0010
0000
0100
0001
1000
0000
,
0001
0010
0100
0010
0001
1000
0010
0000
,
0101
0000
0000
0101
0000
0000
0101
0000
0000
0101
0000
0000
0101
0000
0000
0000
,
1100
0000
0000
1100
0000
0000
1100
0000
0000
1100
0000
0000
1100
0000
0000
0000
,
1000
0100
0010
0001
1000
0000
0110
0000
,
0001
0000
0001
0000
0100
0000
0100
0000
0010
1000
0010
1000
0010
0100
0001
0010
,
0100
0000
0000
0000
,
1001
0000
0000
0011
0000
0000
1001
0000
0000
1010
0000
0000
1001
0000
0110
0000
,
1001
0000
0000
0000
;

//--------------- dance-single - Pandemonium X ----------------
#NOTES:
     dance-single:
     Pandemonium X:
     Challenge:
     14:
     0,0,0,0,0:
0000
0000
0000
0000
,
0000
0000
0000
0000
,
0000
0000
0000
0000
,
0000
0000
0000
0000
,
0002
0003
0000
0000
,
0200
0000
0300
0002
0003
0010
0001
2000
,
0000
3000
0000
0000
,
0220
0000
0000
0330
,
0001
0000
1000
0001
0000
0010
0000
1000
0000
0010
0000
0001
0100
0001
0100
0001
,
0010
0100
0010
0000
0100
0000
0010
0000
0001
0000
1000
0001
0000
0000
1000
0000
,
0001
0010
0001
1000
0010
0100
0001
0010
0100
0010
0001
1000
0000
0001
1000
0010
,
0100
0000
1000
0000
0100
0000
0001
0000
1000
0001
0010
0100
0000
0000
0010
0001
,
1000
0000
0000
0001
0010
0000
0000
1000
0010
0000
0000
0001
0010
0000
0000
0000
,
0100
0000
0010
0000
0001
0000
0100
0001
0010
0000
0010
0100
0000
0100
0010
0000
,
0001
1000
0010
0100
0000
0010
1000
0001
0010
0100
0010
0001
0100
0000
0010
0000
,
2010
0000
0000
3001
0000
0000
1002
0000
0000
0013
0000
0000
0100
0000
0010
0000
,
0001
0000
0100
0000
0010
0000
1000
0001
0000
0000
0000
0000
1000
0000
0100
0000
,
1000
0000
0001
0000
0010
0000
0100
0010
0000
0000
0000
0000
0001
1000
0001
1000
,
0000
0000
0000
0000
0001
0000
0100
0000
1000
0000
0100
0000
0010
0000
1000
0001
,
0010
0000
0010
0001
0100
0000
1000
0000
0100
0000
0010
0000
1000
0000
0001
0000
,
0011
0000
0000
0011
0000
0000
0011
0000
0000
0011
0000
0000
0010
0000
0100
0000
,
1100
0000
0000
1100
0000
0000
1100
0000
0000
1100
0000
0000
1000
0000
0100
0000
,
1000
0100
0001
0010
1000
0000
1001
1000
,
0001
0000
0000
0000
0000
0000
0001
0000
0000
0000
0000
0000
1000
0000
0000
0000
0000
0000
1000
0000
0000
0000
0000
0000
0010
0000
0000
0100
0000
0000
0010
0000
0000
0100
0000
0000
0010
0000
0100
0000
0010
0000
0100
0000
0010
0000
0100
0000
,
0020
0030
0000
MMMM
,
1001
1000
0010
0000
1001
0001
0010
0000
,
1001
1000
0100
0000
1001
0001
0100
0000
,
0001
0100
1000
0010
0001
1000
1001
0000
,
0101
0000
0000
0000
1010
0000
0000
0000
0001
0100
0001
0100
0010
1000
0010
1000
,
1001
1000
0010
0000
1001
0001
0010
0000
,
1001
0001
0100
0000
1001
1000
0100
0000
,
1000
0100
0001
0010
1000
0001
1001
0000
,
0201
0000
0000
0000
0000
0000
0000
0000
0000
0000
0000
0000
0000
0000
0000
0000
0000
0000
0000
0000
0000
0000
0000
0000
0301
0000
0000
0000
0000
0000
0000
0000
0000
0000
0000
0000
1000
0000
0000
0000
0000
0000
0000
0000
0000
0000
0000
0000
0001
0000
0000
0000
0000
0000
0020
0030
0000
0000
0000
0000
0000
0000
0000
0000
0000
0000
0020
0030
0000
0000
0000
0000
2000
0000
0000
0000
0000
0000
0000
0000
0000
0000
0000
0000
0000
0000
0000
0000
0000
0000
0000
0000
0000
0000
0000
0000
,
3001
0000
0010
0000
0100
0000
0010
0000
0001
0000
0001
0010
0000
0010
0100
0010
,
0001
1000
0010
0000
0100
0000
0010
0100
0001
0000
1000
0100
0000
0000
0010
0000
,
0100
0000
0020
0000
0032
0000
0103
0010
2000
0000
0000
0000
3100
0000
0010
0001
,
0100
0000
0001
0000
0100
0000
0010
1000
0100
0000
0100
1000
0000
0000
0001
0000
,
0012
0000
0000
0103
0000
0010
0100
0000
2010
0000
0000
3100
0000
0000
0010
0000
,
0100
0000
1000
0000
0100
0010
0001
1000
MMMM
0000
0000
1001
0000
0000
1000
0000
,
MMMM
0000
0001
0000
MMMM
0000
0000
MMMM
0000
MMMM
0000
0000
2002
0000
0000
3003
,
0102
0000
0000
0013
0000
0000
1200
0000
0000
0310
0000
0000
0100
0000
0010
0000
,
2001
0000
0000
3000
,
0200
0000
0000
0300
,
0010
0000
0000
0010
0000
0000
0010
0000
0010
0000
0010
0000
0010
0100
0010
0100
,
0010
0000
0000
0010
0000
0000
0010
0000
0010
0000
0010
0000
0001
0000
1000
0000
,
1001
0000
0000
0001
0100
0000
0000
0100
0010
0000
1000
0000
1001
0000
1000
0001
,
1000
0000
0000
0001
0010
0000
0000
0010
0100
0000
0010
0000
0001
0010
0001
0010
,
0001
0100
1000
0100
0010
1000
0001
0010
,
1001
0000
0000
0000
0000
0000
0000
0000
0000
0000
0000
0000
0101
0000
0000
0000
0000
0000
0000
0000
0000
0000
0000
0000
1001
0000
0000
0000
0000
0000
0000
0000
0000
0000
0000
0000
1000
0000
0000
0000
0000
0000
0200
0300
0000
0000
0000
0000
0000
0000
0000
0000
0000
0000
0200
0300
0000
0000
0000
0000
0001
0000
0000
0000
0000
0000
0000
0000
0000
0000
0000
0000
2001
0000
0000
0000
0000
0000
0000
0000
0000
0000
0000
0000
0000
0000
0000
0000
0000
0000
0000
0000
0000
0000
0000
0000
,
3010
0000
0100
0000
0101
0000
0000
0000
0001
0000
1000
0100
0000
0100
0000
0000
,
0010
0000
0100
0000
1100
0000
0100
1000
0010
0000
0100
0001
0000
0010
0000
0000
,
0100
0000
0010
0000
0001
0000
0100
0010
1000
0000
1000
0001
0000
0000
0010
0100
,
1000
0000
0100
0010
0001
0000
0010
0000
0001
0000
0100
0010
0000
0010
1000
0000
,
1001
0000
0000
0011
0000
0000
1001
0000
0000
1010
0000
0000
1000
0001
1000
0001
,
1000
0000
0000
1010
0000
0000
1001
0000
0000
0011
0000
0000
0001
1000
0001
1000
,
0001
0100
1000
0010
0001
0000
1001
0000
,
0001
0000
0000
0000
0000
0000
0001
0000
0000
0000
0000
0000
1000
0000
0000
0000
0000
0000
1000
0000
0000
0000
0000
0000
0010
0000
0000
0100
0000
0000
0010
0000
0000
0100
0000
0000
0010
0000
0100
0000
0010
0000
0100
0000
0010
0000
0100
0000
,
0020
0030
0000
MMMM
,
0101
0000
0000
1010
0000
0000
1100
0000
0000
0011
0000
0000
0110
0000
1100
0000
,
2002
0000
0000
0000
,
0000
0000
0000
0000
,
3003
0000
0000
0000
;

//--------------- dance-double - Pandemonium X ----------------
#NOTES:
     dance-double:
     Pandemonium X:
     Easy:
     7:
     0,0,0,0,0:
00000000
00000000
00000000
00000000
,
00000000
00000000
00000000
00000000
,
00000000
00000000
00000000
00000000
,
00000000
00000000
00000000
00000000
,
00001000
00000000
00000000
00000000
,
00010000
00000000
00000000
00000000
,
00001000
00000000
00000000
00000000
,
00011000
00000000
00000000
00000000
,
00100000
00010000
10000000
01000000
,
10000000
00010000
00100000
00001000
,
00010000
00000100
00001000
00000010
,
00000100
00000001
00000010
00000100
,
00001100
00010000
00011000
01000000
,
01010000
00010000
00100000
00001000
,
00011000
00010000
00000100
00001000
,
00000102
00000000
00000000
00000000
00000000
00000000
00000103
00000001
,
00001000
00000100
00001100
00000000
,
00000100
00010000
00011000
00000000
,
00000000
00100000
00001000
01000000
,
00001000
00000000
00010000
00000000
00000100
00000000
00001000
00000010
,
00000200
00000000
00000000
00000000
00000300
00000000
00000010
00010000
,
00002000
00000000
00003000
00000000
,
00010000
00001000
01001000
00000000
,
00100000
01000000
00020000
20000000
,
30030000
00000000
00000000
00000000
,
00010000
00000000
00100000
00000000
,
00001000
00000000
00010000
00000000
,
00000100
00001000
00000010
00000100
,
00001001
00000000
00000000
00000000
00000200
00000000
00000000
00000300
,
00001001
00000000
00000001
00000000
,
00000100
00000000
00001000
00000000
,
00010000
00100000
01000000
01010000
,
00210000
01300000
20000000
30020000
,
01030000
00010000
00100000
00001000
,
00010000
00000100
00001000
00000010
,
00010000
00001000
00100000
00010000
,
10000000
01000000
00100000
00001000
,
00020000
00030100
00020000
00031000
,
00000100
00001000
00000000
00000010
,
00000100
00000000
00000000
00000020
,
00020030
00000000
00000000
00000000
00000000
00000000
00031000
01000000
,
00100000
00000000
00000000
00000000
,
00000000
00000000
00000000
00000000
,
00000000
00000000
00000000
00000000
,
00000000
00000000
00000000
00000000
,
10000000
00000000
00010000
00000000
,
00100000
00000000
00001000
00000000
,
00010000
00000100
00001000
00000010
,
00000100
00000001
00000010
00002001
,
00003100
00010000
00002000
01003000
,
00100000
10000000
02000000
13000000
,
00010000
00100000
00002000
01003000
,
00001000
00010000
00000200
00001300
,
00000022
00000000
00000000
00000033
,
00002200
00000000
00000000
00003300
,
00020200
00000000
00000000
00030300
,
00001000
00000000
00010000
00001000
02000000
00000000
00200000
00000000
,
03300000
00000000
00000000
00000000
,
10010000
00000000
00000000
00110000
00000000
00000000
00101000
00000000
,
00011000
00000000
00000000
00000000
;

//--------------- dance-double - Pandemonium X ----------------
#NOTES:
     dance-double:
     Pandemonium X:
     Medium:
     10:
     0,0,0,0,0:
00000000
00000000
00000000
00000000
,
00000000
00000000
00000000
00000000
,
00000000
00000000
00000000
00000000
,
00000000
00000000
00000000
00000000
,
00001000
00000000
00000000
00000000
,
00010000
00000000
00000000
00000000
,
00001000
00000000
00000000
00000000
,
00022000
00000000
00000000
00033000
,
00010000
00000000
00000100
00000000
00001000
00000000
00000010
00000100
,
00000010
00001000
00000100
00010000
,
01001000
00000000
00001000
00000000
01000000
00100000
01000000
00000000
,
00010000
00100000
10000000
00100000
,
00110000
00110000
00011000
00011000
,
00000100
00000000
00001000
00000000
00000010
00000100
00000001
00000000
,
00000010
00000000
00000001
00000000
00001000
00000000
00000100
00010000
,
00001000
00000000
00000000
01000000
00000000
00000000
00100000
00000000
00000000
10000000
00000000
00000000
01000000
00000000
00100000
00000000
,
00110000
00000000
00100000
00001000
00010000
00000000
00000100
00000000
,
00001100
00000000
00000000
00000000
00001000
00000000
00000010
00000000
00000100
00000000
00000000
00000000
00000002
00000000
00000000
00000003
,
00000000
00000000
00001000
00000100
00001000
00000000
00000100
00000000
,
00010000
00000000
00000000
00001000
00000000
00000000
01000000
00000000
00100000
00000000
00000000
00000000
01000000
00000000
00010000
00000000
,
00100000
00000000
00000000
01000000
00000000
00000000
00100000
00000000
00000000
01000000
00000000
00000000
00100000
00000000
00001000
00000000
,
00010000
00000000
00000000
00001000
00000000
00000000
00010000
00000000
00000000
00001000
00000000
00000000
00010000
00000000
00000100
00000000
,
00001000
00000010
00000100
00000001
00000011
00000000
00000011
00000000
,
00000001
00000010
00000100
00001000
00000200
00000000
00020300
00000000
,
00032000
00003000
00000000
00000000
,
00010000
00001000
01000000
00000000
01000000
00010000
00100000
00000000
,
00100000
01000000
10000000
00000000
10000000
01000000
00100000
00000000
,
00100000
00001000
00010000
00000100
00001000
00000010
00000100
00000000
,
00002002
00000000
00003003
00000000
00000001
00000001
00000001
00000001
,
00001000
00000100
00001000
00000000
00000100
00010000
00001000
00000000
,
00001000
01000000
00100000
00000000
00100000
01000000
00010000
00000000
,
00010000
00100000
10000000
00100000
00010000
00001000
00010000
00000000
,
00022000
00000000
00033000
00000000
,
00010000
00000000
00000000
00000000
00000100
00000000
00000000
00000000
00001000
00000000
00000000
00000010
00000000
00000000
00000000
00000000
,
00000100
00000000
00000000
00000000
00000001
00000000
00000000
00000000
00000010
00000000
00000000
00001001
00000000
00000000
00000000
00000000
,
00001000
00000000
00000000
00000000
00000100
00000000
00000000
00000000
00010000
00000000
00000000
00001000
00000000
00000000
00000000
00000000
,
00010000
00000000
00000000
00000000
00001000
00000000
00000000
00000000
01000000
00000000
00000000
00010000
00000000
00000000
00000000
00000000
,
00100000
00000000
00000000
00100000
00000000
00000000
01000000
00000000
10000000
00000000
00000000
10000000
00000000
00000000
00010000
00000000
,
00100000
01000000
10000000
00100000
,
01000000
00000000
00000000
00000000
00001000
00000000
00000000
00010000
00000000
00000100
00000000
00000000
00002000
00000000
00000000
00000000
,
00003010
00000000
00000000
00000100
00000000
00000000
00000001
00000000
00000000
00001000
00000000
00000000
00000100
00000000
00010000
00000000
,
00011000
00000000
00000000
00000000
,
00000000
00000000
00000000
00000000
,
00000000
00000000
00000000
00000000
,
00000000
00000000
00000000
00000000
,
00200000
00302000
00013000
00011000
,
00000020
00020030
00031000
00012000
,
01003000
00000000
00100000
01000000
00010000
00000000
00100000
00010000
,
10000000
00000000
00010000
00000000
00100000
00000000
00001000
00010000
00000000
00001000
00010000
00000000
00000200
00000000
00000000
00000000
,
00001300
00000010
00001000
00000000
00000001
00000100
00000001
00000000
,
00000010
00000001
00000010
00000000
00000100
00001000
00000100
00000000
,
00010000
00001000
00010000
00000000
00001000
01000000
00001000
00000000
,
01000000
00000000
00100000
00000000
01000000
00000000
00000000
00000000
00010000
00000000
00000000
00100000
00000000
00000000
01000000
00000000
,
10000000
00000000
00000000
10000000
00000000
00000000
10000000
00000000
00000000
10000000
00000000
00000000
11000000
00000000
00000000
00000000
,
00010000
00000000
00000000
00010000
00000000
00000000
00010000
00000000
00000000
00010000
00000000
00000000
00110000
00000000
00000000
00000000
,
00100000
00001000
00010000
00000010
00000100
00000000
00000100
00000000
,
00000010
00010000
00001000
01000000
00200000
00000000
20300000
00000000
,
32000000
03000000
00000000
00000000
,
00100000
00000000
00000000
00001000
00000000
00000000
00010000
00000000
00000000
00000010
00000000
00000000
00000100
00000000
00000010
00000000
,
00001001
00000000
00000000
00000000
;

//--------------- dance-double - Pandemonium X ----------------
#NOTES:
     dance-double:
     Pandemonium X:
     Hard:
     13:
     0,0,0,0,0:
00000000
00000000
00000000
00000000
,
00000000
00000000
00000000
00000000
,
00000000
00000000
00000000
00000000
,
00000000
00000000
00000000
00000000
,
00001000
00000000
00000000
00000000
,
00100000
00000000
00000000
00010000
00000000
00100000
01000000
10000000
,
00000000
00000000
00000000
00000000
,
02020000
00000000
00000000
03030000
,
00010000
00000000
00100000
00000000
00001000
00000000
00010000
00000000
00000100
00000000
00001000
00000000
00000010
00000100
00000010
00000100
,
00000010
00000000
00000100
00000000
00000001
00000000
00001000
00000000
00000100
00000000
00001000
00000010
00000000
00000000
00000100
00000000
,
00000010
00001000
00000100
00010000
00001000
00010000
00000100
00001000
,
00000010
00000000
00010000
00000000
00001000
00000000
00100000
00000000
00010000
00000000
00100000
01000000
00000000
00000000
10000000
00000000
,
11000000
00110000
00011000
00001010
,
00000101
00000000
00000001
00000000
00000010
00000000
00000100
00000000
00000010
00000000
00000001
00001000
00000000
00000000
00000010
00000000
,
00010000
00000000
00000000
00001000
00000000
00000000
00010000
00000000
00001000
00000000
01000000
00000000
00010000
00000000
00100000
00000000
,
01100000
00000000
00000000
00101000
00000000
00000000
00011000
00000000
00000000
00010100
00000000
00000000
00000100
00000000
00001000
00000000
,
00001010
00000000
00000010
00000000
00000100
00000000
00000001
00000010
00000000
00000000
00000000
00000000
00000100
00000000
00000010
00000000
,
00000001
00000000
00001000
00000000
00000100
00000000
00010000
00001000
00000000
00000000
00000000
00000000
00001000
01000000
00001000
01000000
,
00000000
00000000
00100000
10000000
01000000
00100000
00001000
00010000
,
00000100
00000000
00001000
00000010
00000100
00000000
00000001
00000000
00000010
00000000
00000100
00000000
00000010
00000000
00000001
00000000
,
00001001
00000000
00000000
00001001
00000000
00000000
00001001
00000000
00000000
00001001
00000000
00000000
00000010
00000000
00001000
00000000
,
00001100
00000000
00000000
00001100
00000000
00000000
00001100
00000000
00000000
00001100
00000000
00000000
00000100
00000000
00010000
00000000
,
00001000
01000000
00010000
00100000
11000000
00000000
10000000
00100000
,
01000000
00000000
00010000
00000000
00100000
00000000
00001000
00000000
00010000
00001000
00010000
00001000
00010000
00001000
00010000
00001000
,
00020000
00030000
00000000
00000120
,
00001030
00000100
00001000
00000000
00000010
00001000
00000010
00000000
,
00000100
00000001
00000100
00000000
00000001
00000010
00000001
00000000
,
00000010
00000100
00001000
00000100
00010000
00001000
01000000
00000000
,
02200000
00000000
00000000
00000000
03300000
00000000
00000000
00000000
10000000
00010000
10000000
00010000
10000000
00010000
10000000
00010000
,
10000000
00010000
00100000
00000000
01000000
10000000
00010000
00000000
,
00100000
00001000
00010000
00000000
00000010
00000100
00000001
00000000
,
00000010
00000001
00000100
00001000
00010000
00100000
01000000
00000000
,
20020000
00000000
00000000
00000000
30030000
00000000
00000000
00000000
10000000
00010000
00000000
00010000
02000000
00000000
00000000
00000000
,
03001000
00000000
00010000
00000000
00000100
00000000
00001000
00000000
00000010
00000000
00000100
00000001
00000000
00000000
00000010
00000000
,
00000001
00000000
00001000
00000000
00000100
00000000
00010000
00000000
00001000
00000000
01000000
00001000
00000000
00000000
00000000
00000000
,
01000000
00000000
00100000
00000000
10000000
00000000
00010000
00000000
00100000
00000000
00001000
00010000
00000000
00000000
00000000
00000000
,
00000100
00000000
00001000
00000000
00000010
00000000
00000100
00000000
00000001
00000000
00001000
00000100
00000000
00000000
00000000
00000000
,
00000100
00000000
00000000
00000100
00000000
00000000
00000100
00000000
00010000
00000000
00000000
00010000
00000000
00000000
00010000
00000000
,
00001000
00000000
01000000
00000000
00100000
00000000
10000000
00000000
00020000
00000000
00030000
00100000
00000000
00000000
00001000
00000000
,
00020000
00000000
00030000
00000000
00000200
00000300
00000000
00020000
00030000
00002000
00000000
00003000
00020000
00000000
00000000
00000000
,
00030100
00000000
00000000
00011000
00000000
00000000
01000000
00000000
00000000
00011000
00000000
00000000
00001000
00000000
00100000
00000000
,
00210000
00000000
00300000
00000000
,
02000000
00000000
03000000
00000000
,
10000000
00000000
00000000
10000000
00000000
00000000
10000000
00000000
00010000
00000000
00000000
00000000
00100000
00000000
00000000
00000000
,
00001000
00000000
00000000
00001000
00000000
00000000
00001000
00000000
00010000
00000000
00000000
00000000
00000100
00000000
00001000
00000000
,
00001010
00000000
00000000
00000010
00000100
00000000
00000000
00000100
00000001
00000000
00000010
00000000
00000100
00000000
00000000
00000000
,
00001100
00000000
00000000
00000100
00010000
00000000
00000000
00010000
00001000
00000000
01000000
00000000
00100000
00000000
00000000
00000000
,
00000000
00000000
01000000
10000000
01000000
00010000
00100000
00001000
,
00010000
00000000
00010000
00000000
00010000
00000000
00010000
00001000
00000000
00001000
00010000
00000000
00000200
00000000
00000000
00000000
,
00001300
00000001
00000010
00000000
00000100
00001000
00000010
00000000
,
00000100
00000010
00001000
00000100
00010000
00001000
01000000
00000000
,
00001000
00010000
00000100
00000000
00010000
00001000
01000000
00000000
,
00100000
10000000
00010000
00100000
00001000
00010000
00000100
00000000
,
00001000
00000000
00000000
00001000
00000000
00000000
00001000
00000000
00000000
00001000
00000000
00000000
00001000
00000000
00000010
00000000
,
00000100
00000000
00000000
00000100
00000000
00000000
00000100
00000000
00000000
00000100
00000000
00000000
00000100
00000000
00000001
00000000
,
00000010
00000100
00001000
00000100
00010100
00000000
00011000
00000000
,
00001000
00000000
01000000
00000000
00100000
00000000
10000000
00000000
00010000
10000000
00010000
10000000
00010000
10000000
00010000
10000000
,
02000000
03000000
00000000
00000000
,
00110000
00000000
00000000
00011000
00000000
00000000
00001100
00000000
00000000
00000110
00000000
00000000
00000001
00000000
00000100
00000000
,
00002020
00000000
00000000
00000000
,
00000000
00000000
00000000
00000000
,
00003030
00000000
00000000
00000000
;

//--------------- dance-double - Pandemonium X ----------------
#NOTES:
     dance-double:
     Pandemonium X:
     Challenge:
     14:
     0,0,0,0,0:
00000000
00000000
00000000
00000000
,
00000000
00000000
00000000
00000000
,
00000000
00000000
00000000
00000000
,
00000000
00000000
00000000
00000000
,
00002000
00000000
00103000
00000000
00010000
00100000
01000000
00000000
,
20000000
00000000
30100000
02000000
00000000
03010000
00100000
00001000
,
00020000
00000000
00030100
00000000
00001000
00000010
00000100
00000000
,
00022000
00000000
00000000
00033000
,
00110000
00000000
00010000
01000000
00000000
00100000
00000000
10000000
00000000
00010000
00000000
00100000
00001000
00010000
00000100
00001000
,
00000010
00000100
00001000
00000000
00000100
00000000
00000001
00000000
00001000
00000000
00000100
00000010
00000000
00000000
00001001
00000000
,
00000001
00000200
00000310
00002000
00003100
00000000
00000100
00001000
00000100
00010000
00001000
00010000
00000000
00000100
00010000
00000100
,
00001000
00000000
00000010
00000000
00010000
00000000
00001000
00000000
00100000
00010000
10000000
01000000
00000000
00000000
10000000
00100000
,
01000000
00000000
00000000
00010000
00100000
00000000
00000000
00100000
00001000
00000000
00000000
00010000
00000010
00000000
00000000
00000000
,
00000100
00000000
00000010
00000000
00001001
00000000
00001000
00000001
00000010
00000000
00000100
00001000
00000000
00000000
00000100
00000000
,
00000100
00001000
00000100
00010000
00000100
00010000
00001000
01000000
00100000
10000000
00010000
00100000
01000000
00000000
10000000
00000000
,
00110000
00000000
00000000
00001010
00000000
00000000
00110000
00000000
00000000
00001010
00000000
00000000
00010000
00000000
00001000
00000000
,
01001000
00000000
01000000
00000000
00010000
00000000
00100000
01000000
00000000
00000000
00000000
00000000
00100000
00000000
00010000
00000000
,
00001000
00000000
00000100
00000000
00000010
00000000
00000100
00001000
00000000
00000000
00000000
00000000
00000001
00000100
00000001
00000100
,
00000000
00000000
00000001
00000100
00001000
00000100
00000001
00001000
,
00000100
00000000
00010000
00001000
01000000
00000000
01010000
00000000
00010000
00000000
00100000
00000000
01000000
00000000
10000000
00000000
,
10010000
00000000
00000000
00110000
00000000
00000000
00101000
00000000
00000000
00011000
00000000
00000000
00010000
00000100
00001000
00000010
,
00000100
00000000
00000000
00000101
00000000
00000000
00000011
00000000
00000000
00000110
00000000
00000000
00000100
00010000
00001000
00100000
,
00010000
00100000
10000000
00100000
00110000
00000000
00110000
00010000
,
01000000
00000000
01000000
00000000
00100000
00000000
00100000
00000000
10000000
00010000
10000000
00010000
10000000
00100000
01000000
00010000
,
20000000
30000000
00000000
MMMM0000
,
10010000
10000000
00100000
00000000
10100000
00100000
01000000
00000000
,
00110000
00100000
00010000
00000000
00110000
00010000
10000000
00000000
,
10000000
01000000
00100000
00010000
00001000
00000100
00000010
00000000
,
00000011
00000000
00000000
00000000
00000011
00000000
00000000
00000000
00000001
00000010
00000100
00000010
00000001
00000010
00000100
00000010
,
00000001
00000100
00000010
00000000
00001010
00001000
00000100
00000000
,
00010100
00010000
00001000
00000000
01001000
01000000
00010000
00000000
,
01100000
01000000
00100000
00010000
00001000
00000010
00000001
00000000
,
00002001
00000000
00000000
00000000
00003010
00000000
00000000
00000000
00000100
00000010
00000000
00000010
00000200
00000000
00000000
00000000
,
00000301
00000000
00000010
00000000
00000100
00000000
00000010
00000000
00000001
00000000
00001000
00000010
00000100
00000001
00000100
00000001
,
00001000
00000100
00010000
00000000
00001000
01000000
00100000
00000000
01000000
00000000
00010000
00100000
00000000
00100000
01000000
00000000
,
11000000
00000000
20000000
00000000
30200000
00000000
01300000
00010000
00200000
00000000
00000000
00000000
00310000
00000000
00100000
00000000
,
00002000
00000000
00013000
00000000
00020000
00000000
00030100
00000000
00001000
00000000
00000010
00000100
00000000
00000100
00000001
00000000
,
00001001
00000000
00000000
00000110
00000000
00000001
00001000
00000000
00001001
00000000
00000000
00000110
00000000
00000000
00001000
00000000
,
00000001
00000000
00000010
00000000
00000100
00000000
00000100
00000000
MMMM2000
00000000
01003000
00100000
00000000
10000000
00010000
00000000
,
0010MMMM
00000000
00001000
00000000
0001MMMM
00000000
00000100
MMMM0000
00010000
0000MMMM
00000000
00000000
00022000
00000000
00000000
00033000
,
00011000
00000000
00000000
00010100
00000000
00000000
00011000
00000000
00000000
01001000
00000000
00000000
00001000
00000000
00010000
00000000
,
00010200
00000000
00010000
00000000
00001300
00000000
00000100
00000010
,
00000021
00000000
00000000
00000000
00000100
00000000
00000000
00000000
00000031
00000000
00000000
00000000
00001000
00000010
00001000
00000010
,
00000100
00000000
00000000
00000100
00000000
00000000
00000100
00000000
00000100
00000000
00000100
00000000
00000100
00000010
00000100
00000010
,
00001000
00000000
00000000
00001000
00000000
00000000
00001000
00000000
00001000
00000000
00001000
00000000
00001000
00000100
00001000
00000100
,
00010000
00000000
00000000
00001000
02000000
00000000
00000000
03100000
20000000
00000000
32000000
00000000
03100000
00010000
00100000
00010000
,
02000000
00000000
00000000
03010000
00200000
00000000
00000000
00301000
00020000
00000000
00030200
00000000
00001300
00000010
00001000
00000010
,
00000100
00000000
00000000
00000000
00000001
00000000
00000100
00000000
00001000
00000000
00010000
00000000
00100000
00000000
10000000
00010000
,
00210000
00000000
01000000
00000000
00310000
00000000
00010000
02000000
00000000
13000000
01000000
00000000
20020000
00000000
00000000
30030000
,
11000000
00000000
01000000
00000000
00100000
00000000
00000000
00000000
00001000
00000000
00100000
00001000
00000000
00010000
00000000
00000000
,
00000100
00000000
00001000
00000000
00000010
00000000
00000100
00000001
00000010
00000000
00000010
00000001
00000000
00001000
00000000
00000100
,
00010000
00000000
00001000
00000000
00100000
00000000
00010000
00100000
01000000
00000000
00100000
00010000
00000000
00000000
01000000
00000000
,
00100000
00000000
10000000
00010000
00100000
00000000
01000000
10000000
00020000
00000000
00000000
00230000
00000000
00000000
00302000
00000000
,
00010000
00000000
00000000
00100000
00000000
00000000
00010000
00000000
00000000
00100000
00000000
00000000
00013000
00000100
00010000
00000100
,
00002000
00000000
00000000
00000010
00000000
00000000
00000100
00000000
00000000
00000010
00000000
00000000
00003100
00000010
00000100
00000010
,
00000001
00000100
00001000
00010000
00100000
00000000
01000000
01000000
,
10010000
00000000
01100000
00000000
10010000
00000000
01100000
00000000
00010000
01000000
00010000
01000000
00010000
00100000
00001000
00010000
,
00000020
00000030
00000000
MMMMMMMM
,
00000110
00000000
00000000
00001010
00000000
00000000
00010100
00000000
00000000
00011000
00000000
00000000
00101000
00000000
00110000
00000000
,
10010000
00000000
00000000
00000000
;
