#TITLE:Twilight;
#SUBTITLE:;
#ARTIST:KaW;
#TITLETRANSLIT:;
#SUBTITLETRANSLIT:;
#ARTISTTRANSLIT:;
#GENRE:;
#CREDIT:;
#MUSIC:Twilight.ogg;
#BANNER:Twilight.png;
#BACKGROUND:Twilight-bg.png;
#CDTITLE:;
#SAMPLESTART:21.195;
#SAMPLELENGTH:14.099;
#SELECTABLE:YES;
#OFFSET:1.746;
#BPMS:0.000=136.000;
#STOPS:;
#BGCHANGES:;
#FGCHANGES:;

//--------------- dance-single - ----------------
#NOTES:
     dance-single:
     :
     Beginner:
     4:
     0,0,0,0,0:
0000
0000
0000
0000
,
0000
0000
0000
0000
,
0000
0000
0000
0000
,
0000
0000
0000
0000
,
0000
0000
0000
0000
,
0001
0000
0000
0000
,
1000
0000
0000
0000
,
0010
0000
0000
0000
,
1000
0000
0000
0000
,
0100
0000
0000
0000
,
0010
0000
0000
0000
,
0001
0000
0000
0000
,
1001
0000
0110
0000
,
1000
0000
0001
0000
,
0200
0000
0000
0300
,
0001
0000
1000
0000
,
0010
0000
0100
0100
,
0001
0000
1000
0000
,
0020
0000
0130
0100
,
0001
0000
0010
0000
,
0100
0000
1000
1001
,
0001
0000
1000
0000
,
0010
0000
1000
0100
,
1000
0000
0001
0000
,
0100
0000
0010
1000
,
0010
0000
0100
0000
,
0001
0000
0010
0100
,
0010
0000
0001
0000
,
1001
0110
1001
0000
,
1000
0000
0000
0000
,
0001
0000
1000
0000
,
0010
0000
0000
0000
,
0100
0000
0010
0010
,
1001
0000
0001
0000
,
1000
0000
0010
1000
,
0010
0000
0100
0000
,
1001
0110
1001
0000
,
0002
0000
0000
0000
,
0000
0000
0000
0003
,
2000
0000
0000
0000
,
0000
0000
0000
3000
,
0010
0000
0000
0000
0000
0000
0000
0100
,
0000
0000
0010
0010
,
1000
0000
0000
0000
,
0001
0000
1000
0000
,
0110
0000
0000
0000
,
0001
0000
0000
0000
,
0010
0000
0000
0000
,
0100
0000
0000
0000
,
1000
0000
0000
0000
,
0010
0000
0000
0000
,
0100
0000
0000
0000
,
1001
0110
1001
0000
,
0001
0000
1000
0000
,
0200
0000
0000
0300
,
1000
0000
0001
0000
,
0100
0000
0010
0000
,
1000
0000
0001
0000
,
0020
0000
0000
0030
,
0100
0000
0010
0000
,
0001
0000
1000
0001
,
0110
0000
0000
0000
;

//--------------- dance-single - ----------------
#NOTES:
     dance-single:
     :
     Easy:
     7:
     0,0,0,0,0:
0000
0000
0000
0000
,
0000
0000
0000
0000
,
0000
0000
0000
0000
,
0000
0000
0000
0000
,
0001
0000
0000
1000
0000
0000
0001
0000
1000
0000
0000
0000
0000
0000
0000
0000
,
0001
0100
0020
2030
,
3100
0010
0002
2003
,
3010
0100
0002
0023
,
0130
0010
0002
0203
,
0310
0000
0100
0000
0001
0000
1000
0100
,
0000
0000
0010
0000
0001
0000
1000
0010
,
0000
0000
1000
0000
0100
0000
0010
0001
,
1000
0000
0000
0001
0000
0000
1000
0000
1001
0000
0000
0000
0000
0000
0000
0000
,
0002
0000
0000
0103
0020
0000
2030
0000
,
3200
0000
0000
0000
0000
0010
0320
0000
,
0032
0000
0000
1003
0002
0000
0000
0013
,
0200
0000
0000
0310
0002
0000
0000
0000
,
0203
0000
0000
0310
2000
0000
3200
0000
,
2300
0000
0000
3010
0100
0001
2000
0000
,
3002
0000
0000
0103
0020
0000
0000
1030
,
0200
0000
0000
0010
0310
0000
1001
0000
,
1000
0001
0100
1000
,
0100
0000
0001
0000
0010
0000
0100
0010
,
0000
0100
0001
0100
,
1000
0000
0010
0000
0001
0000
0010
0100
,
0000
0010
0100
0001
,
1000
0000
0010
0000
1000
0000
0100
1000
,
0000
0100
0010
0001
,
1001
0110
1001
0000
,
0001
0001
0001
0001
,
1000
1000
0010
0010
,
0100
0100
0100
0100
,
0001
0001
1000
0001
,
0100
0001
0010
0001
,
0100
0010
1000
0100
,
0010
0001
0010
0100
,
1000
0000
0000
0001
0000
0000
1000
0000
0001
0000
0000
0000
0000
0000
0000
0000
,
1000
0000
0010
0000
0100
0000
0000
0010
,
0000
0010
0000
0000
0010
0000
0100
0000
,
0001
0000
0001
0000
0001
0000
0000
0010
,
0000
0010
0000
0010
0100
0000
1000
0000
,
0000
1001
0000
0101
,
0000
1010
0000
1100
,
0000
0011
0000
0110
,
2000
3200
0320
0032
,
0103
0000
0010
0000
0100
0000
0001
1000
,
0000
0000
0100
0000
0010
0000
0001
0100
,
0000
0000
0010
0000
1000
0000
0100
0010
,
0000
0100
1000
1001
,
0001
0000
0100
0000
0010
0000
1000
0100
,
0000
0000
0010
0000
0100
0000
1000
0001
,
0000
0100
0001
0010
,
0001
0000
0000
1000
0000
0000
0001
0000
1000
0000
0000
0000
0000
0000
0000
0000
,
0002
0000
0000
0103
0020
0000
2030
0000
,
3200
0000
0000
0000
0000
0010
0320
0000
,
0230
0000
0000
0310
0002
0000
0203
0000
,
0320
0000
0000
0130
0002
0000
0000
0000
,
2003
3001
0200
0301
,
0020
0000
0130
0000
0020
0000
0031
1000
,
0020
1030
0002
1003
,
1100
0001
0101
0010
,
2002
3003
0000
0000
;

//--------------- dance-single - ----------------
#NOTES:
     dance-single:
     :
     Medium:
     12:
     0,0,0,0,0:
0000
0000
0000
0000
,
0000
0000
0000
0000
,
0000
0000
0000
0000
,
0000
0000
0000
0000
,
0101
0000
0000
1010
0000
0000
1100
0000
0011
0000
0000
0000
0000
0000
0000
0000
,
0000
0001
0100
0000
0001
0000
0000
1000
0000
0100
0000
0000
0010
0000
0010
0000
,
0000
0100
1000
0000
0001
0000
0000
1000
0000
0010
0000
0000
1000
0000
1000
0000
,
0000
0100
0010
0000
0100
0000
0000
1000
0000
0010
0100
0000
0010
0000
0100
0000
,
0000
0010
0100
0000
0001
0000
0000
0010
0000
0100
0000
0000
0010
0000
0010
0000
,
0001
0100
0001
0100
0010
1000
0100
0100
,
0000
0010
0100
1000
0001
0100
0010
0010
,
0000
1000
0001
0010
0001
0100
0001
0001
,
0101
0000
0000
1010
0000
0000
1100
0000
0011
0000
0000
0000
0000
0000
0000
0000
,
1000
0000
0000
1000
0000
0000
0001
0000
0100
0000
0000
0010
0000
0000
0100
0000
,
0001
0000
0000
0010
0000
0000
0200
0000
0000
0000
1300
0000
0002
0000
0000
0000
,
0103
0000
0000
0001
0000
0000
0010
0000
0001
0000
0000
1000
0000
0000
0010
0000
,
0100
0000
0000
0010
0000
0000
0100
0001
0200
0000
0000
0000
0000
0000
0000
0000
,
0310
0000
0000
0100
0000
0000
0001
0000
1000
0000
0000
0100
0000
0000
0010
0000
,
0100
0000
0000
1000
0000
0000
0001
1000
0001
0000
0010
0000
0200
0000
0000
0000
,
0310
0000
0000
0001
0000
0000
0100
0000
0010
0000
0000
1000
0000
0000
0001
0000
,
1000
0000
0000
0100
0000
0000
0010
0000
0100
1000
0000
1000
0001
0000
0000
0000
,
0100
0000
0000
0001
0000
0000
0010
0000
0100
0000
0000
0010
0000
0000
0001
0000
,
0100
0000
0000
0010
0000
0000
0100
0000
0001
0000
1000
0000
0001
0000
0010
0000
,
0100
0000
0000
0010
0000
0000
0001
0000
1000
0000
0000
0010
0000
0000
1000
0000
,
0100
0000
0000
0010
0000
0000
0100
0000
1000
0000
0010
0000
0001
0000
0010
0000
,
0100
0000
0000
0001
0000
0000
0010
0000
0100
0000
0000
0010
0000
0000
0001
0000
,
1000
0000
0000
0010
0000
0000
0100
0000
1000
0000
0100
0000
0001
0000
1000
0000
,
0100
0000
0000
0010
0000
0000
0100
0000
1000
0000
0000
0001
0000
0000
0100
0000
,
0010
0100
0010
0000
0100
0000
0001
1000
0001
0000
0000
0000
0000
0000
0000
0000
,
2000
0100
0010
3001
,
0002
0100
0010
1003
,
0020
0001
0100
1030
,
0200
1000
0010
0301
,
1000
0000
0000
0000
0001
0000
0000
0000
0010
0000
0000
0100
0000
0000
0010
0000
,
0001
0000
1000
0000
0010
0100
0001
0010
,
0100
0000
0000
0000
0010
0000
0000
0000
0001
0000
0000
0001
0000
0000
0010
0000
,
0001
0100
0001
0000
0100
0000
0010
0000
1001
0000
0000
0000
0000
0000
0000
0000
,
1000
0100
0010
0100
2000
0000
0000
0001
,
0000
3001
0000
0010
0200
0000
0320
0000
,
0031
0100
1000
0100
0002
0000
0000
1000
,
0000
0100
0000
1003
0001
0010
0100
0010
,
0001
0100
0001
1000
0020
0000
0000
1000
,
0000
0100
0000
1030
0002
0000
0023
0000
,
0031
0010
1000
0010
0100
0000
0000
0001
,
0100
1000
0010
0001
0010
0100
0001
1000
,
0001
0000
1000
0000
0100
0000
0000
1000
0000
0010
0000
0100
0001
0000
1000
0000
,
0000
0000
0001
0000
0010
0000
0000
0001
0000
0100
0000
0010
1000
0000
0100
0000
,
0000
0000
0010
0000
0100
0000
0000
0010
0000
0001
0000
0100
0010
0000
0100
0000
,
0000
0000
0010
0000
1000
0000
0000
0001
0000
1000
0000
0100
0010
0000
0100
0000
,
1000
0000
0100
0000
0010
0000
0001
0100
0000
0010
0000
0100
0001
0000
1000
0000
,
0000
0000
0001
0000
1000
0000
0010
1000
0000
0100
0000
0100
0010
0000
0001
0000
,
0000
0000
0010
0000
0001
0000
0100
0010
0000
0010
0000
0010
0100
0000
0001
0000
,
1001
0000
0000
0101
0000
0000
0011
0000
1001
0000
0000
0000
0000
0000
0000
0000
,
1000
0000
0000
0100
0000
0000
1000
0000
0010
0000
0000
0100
0000
0000
0001
0000
,
0010
0000
0000
0100
0000
0000
0010
0000
0001
0000
0100
0000
0020
0000
0000
0000
,
0130
0000
0000
0001
0000
0000
0010
0000
0001
0000
0000
1000
0000
0000
0100
0000
,
0010
0000
0000
0100
0000
0000
1000
0100
2000
0000
0000
0000
3000
0000
0000
0000
,
0001
0000
0000
0100
0000
0000
0001
0000
0010
0000
0000
0100
0000
0000
0010
0000
,
0001
0000
0000
1000
0000
0000
0010
0000
0100
0000
0010
0000
1000
0000
0001
0000
,
0010
0000
0000
0001
0000
0000
0100
0000
0010
0000
0000
1000
0000
0000
0100
0000
,
1000
0001
1000
0000
0010
0000
0100
0001
0100
0000
0001
0000
0010
0000
0100
0000
,
2000
3000
0000
0000
;

//--------------- dance-single - Pandemonium X ----------------
#NOTES:
     dance-single:
     Pandemonium X:
     Hard:
     15:
     0,0,0,0,0:
0000
0000
0000
0000
,
0000
0000
0000
0000
,
0000
0000
0000
0000
,
0000
0000
0000
0000
,
1001
0000
0001
0100
0000
0000
1010
0000
0101
0000
0000
0000
0000
0000
0000
0000
,
1000
0100
0010
0000
0100
0000
0010
0001
0000
0001
1000
0000
0010
0000
0100
0000
,
0000
0010
0100
0000
0010
0000
0100
0010
0000
0010
0000
1000
0001
0000
1000
0000
,
0000
0100
0010
0000
0100
0000
1000
0010
0000
0010
0000
0100
0001
1000
0001
0000
,
0000
0010
0100
0000
0010
0000
0001
0100
0000
0100
0010
0000
1000
0000
0001
0000
,
0010
0001
0100
0000
0010
0000
1000
0001
0000
0010
0001
0000
0100
0000
0001
0000
,
1000
0010
0100
0000
0010
0000
1000
0010
0000
0100
0000
0001
0010
0000
0100
0000
,
0010
0001
1000
0000
0010
0000
0100
0001
0000
0010
0000
0100
1000
0000
0001
0000
,
1001
0000
0010
0100
0010
0000
0110
0000
1001
0000
0000
1000
0010
0000
0100
0000
,
0001
0010
0000
0100
1000
0000
0010
0001
0000
0010
0000
0100
0001
0000
1000
0000
,
1000
0100
0000
0010
0001
0000
0100
1000
0000
0100
0000
0010
2000
0000
0000
0000
,
3001
0010
0000
0100
0010
0000
0001
0100
0000
0100
0000
1000
0100
0000
0001
0000
,
1000
0100
0000
0010
0100
0000
1000
0010
0100
0000
0000
0000
1001
0000
0000
0000
,
0001
0010
0000
0100
0001
0000
0100
1000
0000
0010
0000
0001
0010
0000
0100
0000
,
0001
0010
0000
1000
0010
0000
0001
0100
0010
0000
1000
0000
0200
0000
0000
0000
,
0310
1000
0000
0010
0001
0000
0100
0010
0000
0001
0000
0010
0100
0000
0001
0000
,
1000
0100
0000
0001
0100
0000
0010
0001
0100
0000
0010
0000
1001
0000
0000
0000
,
0102
0000
0000
0000
0013
0000
0100
1000
0000
1000
0010
0000
0100
0000
0100
0001
,
0000
0001
0010
0000
0100
0000
0100
1000
0000
1000
0001
0000
0100
0000
1000
0000
,
0100
0001
0000
0010
0100
0000
0010
0001
0000
0100
0000
0010
1000
0000
0100
0000
,
0001
0100
0000
0010
0001
0000
0010
0100
0000
0100
0000
0100
0010
0000
0001
0000
,
1000
0010
0000
0010
0100
0000
0100
0001
0000
0010
0000
0100
1000
0000
0100
1000
,
0000
1000
0000
0010
0100
0000
0001
0010
0000
1000
0000
0010
0001
0000
0100
0000
,
0010
0001
0000
0010
1000
0000
0001
0010
0000
0010
0000
0010
0100
0000
1000
0000
,
0010
0001
0010
0000
0100
0000
0010
1000
0001
0000
2000
0000
3200
0000
0320
0000
,
0031
0000
0000
0000
0001
0000
0000
0000
0001
0000
0000
0001
0000
0000
0001
0000
,
0001
0000
0000
0000
0001
0000
0000
0000
0001
0000
0000
0001
1000
0000
0001
0000
,
1000
0000
0000
0000
1000
0000
0000
0000
1000
0000
0000
1000
0000
0000
1000
0000
,
1000
0000
0000
0000
1000
0000
0001
0000
1001
0000
0000
0001
1000
0000
0001
0000
,
1001
0000
0000
0000
1000
0000
0000
0000
0100
0000
0000
0000
1000
0000
0000
0000
0001
0000
0000
0000
1000
0000
0020
0030
0000
0000
0020
0030
0001
0000
0000
0000
,
1000
0000
0001
0000
0100
0000
0010
0000
1000
0100
0010
0001
1000
0100
0010
0100
,
1000
0000
0000
0000
0001
0000
0000
0000
0010
0000
0000
0000
0001
0000
0000
0000
1000
0000
0000
0000
0001
0000
0200
0300
0000
0000
0200
0300
1000
0000
0000
0000
,
1001
0000
0001
0100
0010
0000
1010
0000
0101
0000
0001
0001
0000
1000
1000
0000
,
0001
0100
1000
0100
0001
0000
0000
1010
,
0000
1100
0000
1000
0100
0001
0100
0000
,
0001
0010
1000
0010
0001
0000
0000
0110
,
0000
0000
0011
0000
0000
0000
1000
0000
0100
0000
0010
0000
0001
1000
0001
1000
,
0001
0100
1010
0000
1000
0100
0011
0000
,
0001
0010
1100
0000
1000
0010
0101
0000
,
0001
1000
0110
0000
1000
0001
0011
0002
,
0203
2300
3020
0032
2003
3200
0302
0023
,
1030
0001
1000
0000
0001
0000
0100
0010
0000
1000
0100
0000
0010
0000
0100
1000
,
0001
0100
0001
0000
0010
0000
0001
0100
0000
0010
0000
0100
0001
0000
1000
0000
,
0100
0010
0001
0000
0000
0001
0000
1000
0000
0010
0000
0100
0001
0000
1000
0100
,
0000
0000
0010
0000
0000
0100
0000
1000
0010
0000
0001
0000
0110
0000
0000
0000
,
1000
0001
0010
0000
0001
0100
0000
0010
0000
1000
0100
0000
0010
0000
0100
1000
,
0000
0100
0010
0000
0001
0000
0100
0010
1000
0100
0010
0000
0100
0000
1000
0000
,
0001
1000
0100
0000
0010
0000
0100
1000
0000
0010
0100
0000
0001
0000
1000
0000
,
1001
0000
0100
0010
0100
0000
0110
0000
1001
0000
0000
0001
0010
0000
0010
0000
,
0100
0010
0000
0001
0100
0000
0010
1000
0000
0001
0000
0010
0001
0000
0100
0000
,
0010
1000
0000
0100
0010
0000
0100
1000
0000
0010
0100
0000
0002
0000
0000
0000
,
1003
0100
0000
1000
0010
0000
0100
0001
0000
0010
0000
0001
0100
0000
0010
0000
,
1000
0100
0000
0010
0100
0000
0010
0001
0100
0000
1000
0000
0100
0000
0001
0000
,
1000
0000
0001
1000
0000
1000
0100
0010
0000
0010
0100
0000
1000
0000
0100
1000
,
0000
0001
0100
0000
0010
0000
0100
0001
0000
0010
0000
0010
0001
0000
0100
0000
,
0010
0100
0000
0001
0010
0000
0100
1000
0000
0010
0000
0100
0001
0000
1000
0000
,
0100
1000
0010
0000
0101
0000
0010
0100
0001
0000
2000
0000
3200
0000
0320
0000
,
0002
0033
0000
0000
;

//--------------- dance-double - ----------------
#NOTES:
     dance-double:
     :
     Easy:
     7:
     0,0,0,0,0:
00000000
00000000
00000000
00000000
,
00000000
00000000
00000000
00000000
,
00000000
00000000
00000000
00000000
,
00000000
00000000
00000000
00000000
,
00001000
00000000
00000000
00010000
00000000
00000000
00001000
00000000
00010000
00000000
00000000
00000000
00000000
00000000
00000000
00000000
,
00000100
00001000
00000010
00000010
,
00000100
00000001
00001000
00001000
,
00000100
00010000
00001000
00001000
,
00100000
00010000
01000000
10010000
,
00010000
10000000
00100000
01000000
,
00001000
00010000
00000100
00010000
,
00001000
01000000
00001000
00010000
,
00000100
00000000
00000000
00001000
00000000
00000000
00000010
00000000
00001001
00000000
00000000
00000000
00000000
00000000
00000000
00000000
,
00000002
00000000
00000000
00000103
00000020
00000000
00002030
00000000
,
00003200
00000000
00000000
00000000
00000000
00010000
00010300
00000000
,
00002000
00000000
00000000
01003000
00020000
00000000
00000000
00130000
,
02000000
00000000
00000000
13000000
00010000
00000000
01100000
00000000
,
20000000
00000000
00000000
31000000
20000000
00000000
30200000
00000000
,
02300000
00000000
00000000
03010000
00100000
00100000
00020000
00000000
,
02030000
00000000
00000000
03001000
00020000
00000000
00000000
00030100
,
00002000
00000000
00000000
00003010
00000100
00000000
00001001
00000000
,
00000001
00000100
00000010
00001000
,
00000100
00000000
00010000
00000000
00001000
00000000
01000000
00010000
,
00000000
00100000
01000000
00100000
,
00010000
00000000
00001000
00000000
00000100
00000000
00001000
00000010
,
00000000
00000100
00001000
00010000
,
00100000
00000000
01000000
00000000
00010000
00000000
10000000
01000000
,
00000000
10000000
01000000
00100000
,
00110000
00011000
00110000
00000000
,
00010000
00010000
01000000
01000000
,
00001000
00001000
00010000
00010000
,
00000100
00000100
00001000
00001000
,
00000010
00000010
00000100
00000100
,
00000001
00000100
00000010
00001000
,
00000100
00010000
00001000
01000000
,
00010000
00100000
01000000
10000000
,
10010000
01100000
10010000
00000000
,
00010000
00000000
00100000
00000000
00001000
00000000
00000000
00010000
,
00000000
00010000
00000000
00000000
00000100
00000000
00001000
00000000
,
00000010
00000000
00000100
00000000
00000010
00000000
00000000
00000100
,
00000000
00000100
00000000
00000000
00000001
00000000
00001000
00000000
,
00000100
00001100
00000000
00010100
,
00000000
00011000
00000000
01001000
,
00000000
01100000
00000000
10010000
,
20000000
32000000
03200000
00320000
,
01030000
00000000
00010000
00000000
00100000
00000000
00001000
00010000
,
00000000
00000000
00000100
00000000
00001000
00000000
00000010
00000100
,
00000000
00000000
00000010
00000000
00001000
00000000
00000100
00000010
,
00000000
00000000
00000001
00000000
00000010
00000010
00000010
00000000
,
00000100
00000000
00000010
00000000
00000001
00000000
00001000
00000100
,
00000000
00000000
00010000
00000000
00001000
00000000
01000000
00010000
,
00000000
00000000
00100000
00000000
01000000
00000000
10000000
01000000
,
00100000
00000000
00000000
01000000
00000000
00000000
00100000
00000000
10010000
00000000
00000000
00000000
00000000
00000000
00000000
00000000
,
20000000
00000000
00000000
30010000
02000000
00000000
03002000
00000000
,
00023000
00000000
00000000
00000000
00000000
00001000
00031000
00000000
,
00200000
00000000
00000000
00301000
00020000
00000000
00000000
00030100
,
00002000
00000000
00000000
00003010
00000100
00000000
00001001
00000000
,
00000001
00001000
00000100
00010000
,
00001000
00000000
01000000
00000000
00010000
00000000
00100000
01000000
,
00000000
00100000
00010000
10000000
,
01000000
00100000
00010000
00100000
,
00022000
00033000
00000000
00000000
;

//--------------- dance-double - ----------------
#NOTES:
     dance-double:
     :
     Medium:
     11:
     0,0,0,0,0:
00000000
00000000
00000000
00000000
,
00000000
00000000
00000000
00000000
,
00000000
00000000
00000000
00000000
,
00000000
00000000
00000000
00000000
,
00001000
00000000
00000000
01000000
00000000
00000000
00100000
00000000
10010000
00000000
00000000
00000000
00000000
00000000
00000000
00000000
,
00000000
10000000
01000000
00000000
10000000
00000000
00000000
00100000
00000000
00100000
00000000
00000000
01000000
00000000
00001000
00000000
,
00000000
00010000
00000100
00000000
00001000
00000000
00000010
00000100
00000000
00000001
00000000
00001000
00000100
00000000
00000010
00000000
,
00000000
00000000
00001000
00000000
00010000
00000000
00000000
00001000
00000000
00001000
00000000
00000000
01000000
00000000
00010000
00000000
,
00000000
00000000
00100000
00000000
01000000
00000000
10000000
01000000
00000000
10000000
00000000
00100000
01000000
00000000
00010000
00000000
,
00100000
00000000
00001000
00000000
00010000
00000000
00000000
00000100
00000000
00000100
00000000
00000000
00001000
00000000
00000010
00000000
,
00000000
00000000
00000100
00000000
00000001
00000000
00000000
00000010
00000000
00000001
00000000
00000100
00000010
00000000
00001000
00000000
,
00000000
00000000
00000001
00000000
00000001
00000000
00000000
00000010
00000000
00000010
00000000
00000000
00000001
00000000
00000100
00000000
,
00000010
00000000
00000000
00001000
00000000
00000000
00000100
00000000
00010100
00000000
00000000
00000000
00000000
00000000
00000000
00000000
,
00010000
00001000
00100000
00000000
00010000
01000000
00100000
00000000
,
01000000
00010000
10000000
00000000
01000000
00100000
00010000
00000000
,
00100000
00001000
00010000
00000000
00000100
00001000
00000010
00000000
,
00000100
00001000
00000100
00000001
00001000
00000100
00000010
00000000
,
00000100
00001000
00000010
00000000
00000100
00000001
00001000
00000000
,
00000100
00010000
00000100
00000000
00010000
00001000
01000000
00000000
,
00010000
00100000
01000000
00000000
00100000
00010000
01000000
00000000
,
10000000
01000000
00010000
10000000
01000000
00100000
00110000
00000000
,
00100000
00000000
00000000
00000000
00002000
00000000
00000000
00013000
00000000
00000000
00000000
00000000
00000200
00000000
00000000
00001300
,
00000000
00000000
00000000
00000000
00000020
00000000
00000000
00000130
00000000
00000100
00000000
00000100
00000010
00000000
00001000
00000000
,
00000000
00000000
00000000
00000000
00000200
00000000
00000000
00010300
00000000
00000000
00000000
00000000
00002000
00000000
00000000
01003000
,
00000000
00000000
00000000
00000000
00020000
00000000
00000000
00130000
00000000
00100000
00000000
00100000
01000000
00000000
00100000
00000000
,
00000000
00000000
00000000
00000000
02000000
00000000
00000000
13000000
00000000
00000000
00000000
00000000
20000000
00000000
00000000
30100000
,
00000000
00000000
00000000
00000000
01000000
00000000
00010000
01000000
00000000
01000000
00000000
01000000
00010000
00000000
00100000
00000000
,
00001000
00000000
00000000
00000000
00020000
00000000
00000000
00030100
00000000
00000000
00000000
00000000
00002000
00000000
00000000
00000000
,
00003010
00001000
00000010
00000000
00000100
00000000
00000010
00000000
00001000
00000000
00000001
00000000
00000010
00000000
00000100
00000000
,
00001000
00000000
00000000
00000000
00001000
00000000
00000000
00000000
00001000
00000000
00000000
00001000
00000000
00000000
00001000
00000000
,
00000100
00000000
00000100
00000000
00010000
00001000
00010000
00001000
,
00100000
00000000
00000000
00000000
00100000
00000000
00000000
00000000
00100000
00000000
00000000
00100000
00000000
00000000
00100000
00000000
,
00010000
00000000
00010000
00000000
00010000
00100000
00010000
00100000
,
00010000
00000000
00000000
00000000
10000000
00000000
00000000
00000000
00010000
00000000
00000000
00100000
00000000
00000000
01000000
00000000
,
00100000
00000000
00010000
00000000
00001000
00000100
00000010
00000001
,
00001000
00000000
00000000
00000000
00000001
00000000
00000000
00000000
00000100
00000000
00000000
00000001
00000000
00000000
00001000
00000000
,
00001100
00000000
00000000
00000100
00000000
00000000
00010000
00000000
00011000
00000000
00000000
00000000
00000000
00000000
00000000
00000000
,
00010000
00000100
00010000
00001000
01000000
00000000
00000000
00010000
,
00000000
00100000
00000000
01000000
00100000
00000000
00010000
00000000
,
01000000
00100000
10000000
00010000
00100000
00000000
00000000
01000000
,
00000000
00100000
00000000
00010000
10000000
00100000
00010000
00100000
,
01000000
00100000
10000000
00010000
00100000
00000000
00000000
00001000
,
00000000
00010000
00000000
00000100
00001000
00000000
00000010
00000000
,
00000100
00000001
00000010
00001000
00000010
00000000
00000000
00000100
,
00000001
00000100
00001000
00000010
00010000
00001000
00100000
00010000
,
10000000
01000000
10000000
00100000
01000000
00010000
00100000
00100000
,
00000000
00010000
01000000
00001000
00010000
00000100
00001000
00001000
,
00000000
00000100
00001000
00000010
00000100
00000001
00000010
00000010
,
00000000
00000100
00000010
00000001
00001000
00001000
00001000
00000000
,
00000100
00010000
00001000
01000000
00010000
00100000
01000000
01000000
,
00000000
00100000
00010000
01000000
00100000
10000000
01000000
01000000
,
00000000
00100000
01000000
10000000
00100000
01000000
00010000
00100000
,
00110000
00000000
00000000
00100000
00000000
00000000
00001000
00000000
00011000
00000000
00000000
00000000
00000000
00000000
00000000
00000000
,
00020000
00000000
00030100
00001000
00000020
00000000
00000130
00000001
,
00002000
00000000
00003100
00000010
00000001
00000200
00000320
00000000
,
00002030
00000000
00003100
00000010
00000002
00000000
00000013
00000001
,
00002000
00000000
00003100
00010000
00002000
00000000
00013000
00000000
,
00001000
00000000
00000000
00000000
02000000
00000000
00000000
03100000
00000000
00000000
00000000
00000000
20000000
00000000
00000000
31000000
,
00000000
00000000
00000000
00000000
00200000
00000000
00000000
00301000
00000000
00010000
00000000
00001000
00010000
00000000
00000100
00000000
,
00001000
00000000
00000000
00000000
00000020
00000000
00000000
00000130
00000000
00000000
00000000
00000000
00000002
00000000
00000000
00000000
,
00001003
00000100
00010000
00001000
01000000
00100000
00010000
00100000
,
20000000
30000000
00000000
00000000
;

//--------------- dance-double - ----------------
#NOTES:
     dance-double:
     :
     Hard:
     15:
     0,0,0,0,0:
00000000
00000000
00000000
00000000
,
00000000
00000000
00000000
00000000
,
00000000
00000000
00000000
00000000
,
00000000
00000000
00000000
00000000
,
00011000
00000000
00000000
00110000
00000000
00000000
00001000
00000000
00010100
00000000
00000000
00000000
00000000
00000000
00000000
00000000
,
00000000
00000100
00001000
00000000
00000010
00000000
00000100
00000001
00000000
00000001
00000010
00000000
00000100
00000000
00000010
00000000
,
00000000
00000001
00000010
00000000
00000100
00000000
00001000
00000100
00000000
00001000
00000000
00000100
00010000
00000000
00001000
00000000
,
00000000
00010000
00001000
00000000
01000000
00000000
00010000
00100000
00000000
00100000
00010000
00000000
10000000
00010000
10000000
00000000
,
00000000
00010000
01000000
00000000
00100000
00000000
10000000
01000000
00000000
01000000
00000000
01000000
00100000
00000000
00001000
00000000
,
00011000
00001000
01000000
00000000
00100000
00000000
00100000
01000000
00000000
00100000
10000000
00000000
01000000
00000000
00100000
00000000
,
00000000
00100000
00001000
00000000
00010000
00000000
00000100
00000001
00000000
00000100
00000000
00001000
00000010
00000000
00000100
00000000
,
00000000
00000010
00000100
00000000
00001000
00000000
00000100
00000001
00000000
00001000
00000100
00000000
00010000
00001000
00010000
00000000
,
00011000
00000000
00000000
00110000
00000000
00000000
01000000
00000000
01100000
00000000
00000000
01000000
10000000
00000000
10000000
00000000
,
10000000
01000000
00000000
01000000
00100000
00000000
00100000
00001000
00000000
00010000
00000000
00000100
00001000
00000000
00000010
00000000
,
00000100
00000010
00000000
00000010
00001000
00000000
00001000
00000001
00000000
00000001
00000010
00000000
00000200
00000000
00000000
00000000
,
00010300
00001000
00000000
00001000
01000000
00000000
01000000
00100000
00000000
01000000
00000000
00010000
00100000
00000000
01000000
00000000
,
10000000
01000000
00000000
01000000
00100000
00000000
00100000
00001000
00010000
00000000
00000000
00000000
00001010
00000000
00000000
00000000
,
00000001
00000100
00000000
00000100
00000010
00000000
00000100
00000001
00000000
00001000
00000000
00000100
00000010
00000000
00000001
00000000
,
00000010
00000100
00000000
00000100
00001000
00000000
00000100
00010000
00001000
00000000
01000000
00000000
00200000
00000000
00000000
00000000
,
01300000
00010000
00000000
00010000
00100000
00000000
00100000
00001000
00000000
00001000
00000000
00010000
00000100
00000000
00001000
00000000
,
00000010
00000100
00000000
00000100
00000001
00000000
00000010
00000100
00001000
00000010
00000100
00000001
00000020
00000000
00000000
00000000
,
00000130
00000010
00000000
00000010
00000100
00000000
00001000
00000010
00000000
00000010
00000100
00000000
00000100
00000000
00000100
00000001
,
00000000
00000010
00000000
00000010
00000100
00000000
00000100
00000010
00000000
00000010
00000000
00000010
00000100
00000000
00010000
00000000
,
00001000
00010000
00000000
00001000
01000000
00000000
01000000
00010000
00000000
00010000
00000000
00010000
00100000
00000000
00100000
01000000
,
00000000
01000000
00000000
01000000
10000000
00000000
10000000
00100000
00000000
00100000
01000000
00000000
00001000
00000000
00010000
00000000
,
00001000
00100000
00000000
00010000
01000000
00000000
00100000
10000000
00000000
00010000
00000000
00100000
01000000
00000000
10000000
01000000
,
00000000
01000000
00000000
01000000
00100000
00000000
00010000
01000000
00000000
01000000
00000000
01000000
00001000
00000000
00010000
00000000
,
00000100
00001000
00000000
00000100
00000010
00000000
00000100
00001000
00000000
00000001
00000000
00000001
00000100
00000000
00000010
00000000
,
00001000
00000001
00000010
00000000
00001100
00000000
00000100
00010000
00001000
00000000
00020000
00000000
00032000
00000000
02003000
00000000
,
03100000
00000000
00000000
00000000
00100000
00000000
00000000
00000000
00100000
00000000
00000000
00100000
00000000
00000000
00100000
00000000
,
01000000
00000000
00000000
00000000
01000000
00000000
00000000
00000000
01000000
00010000
00100000
00000000
00100000
00001000
00010000
00001000
,
00010000
00000000
00000000
00000000
00010000
00000000
00000000
00000000
00010000
00000000
00000000
00010000
00000000
00000000
00010000
00000000
,
00000100
00000000
00000000
00000000
00000100
00000000
00000000
00000000
00000100
00001000
00000010
00000000
00000100
00000001
00000010
00000100
,
00001000
00000000
00000000
00000000
00000100
00000000
00000000
00000000
00010000
00000000
00000000
00000000
00001000
00000000
00000000
00000000
01000000
00000000
00000000
00000000
00010000
00000000
00200000
00300000
00000000
00000000
00200000
00300000
10000000
00000000
00000000
00000000
,
01000000
00000000
00100000
00000000
00001000
00000000
00010000
00000000
00000100
00001000
00000100
00000000
00001000
00000010
00000100
00000001
,
00001000
00000000
00000000
00000000
00000100
00000000
00000000
00000000
00010000
00000000
00000000
00000000
00000100
00000000
00000000
00000000
00001000
00000000
00000000
00000000
00000001
00000000
00000020
00000030
00000000
00000000
00000020
00000030
00001000
00000000
00000000
00000000
,
00001001
00000000
00001000
00000100
00010000
00000000
00001000
00000000
01001000
00000000
01000000
00010000
00000000
00010000
00100000
00000000
,
01000000
00100000
00010000
00001000
00000100
00000000
00000000
00001100
,
00000000
00001010
00000000
00000010
00000100
00001000
00020000
00000000
,
00031000
01000000
00100000
10000000
01000000
00000000
00000000
01100000
,
00000000
00000000
11000000
00000000
00000000
00000000
01000000
00000000
00100000
00000000
00010000
00000000
00001000
00010000
00001000
00010000
,
00001000
00010000
00010010
00000000
00000010
00000100
00000101
00000000
,
00000001
00001000
00001100
00000000
00010100
00000000
00011000
00000000
,
00001000
01000000
01010000
00000000
00100000
10000000
10100000
00100000
,
10000000
01000000
00100000
00010000
00001000
00000100
00000010
00000001
,
00001000
00000010
00000100
00000000
00000010
00000000
00010000
00001000
00000000
00010000
00000100
00000000
00001000
00000010
00000000
00000010
,
00000000
00000000
00000100
00000000
00000000
00000001
00000000
00001000
00000100
00001000
00000010
00000000
00000100
00000000
00000001
00000000
,
00000000
00000000
00000010
00000000
00000000
00000100
00000000
00000100
00000000
00001000
00000010
00000000
00010000
00001000
00000000
00100000
,
00000000
00010000
00100000
00000000
01000000
00100000
00000000
01000000
10000000
00000000
00100000
00000000
10000000
00000000
00000000
00000000
,
00010000
01000000
00100000
00000000
01000000
00000000
00010000
00100000
00000000
00001000
00010000
00000000
00000100
00000000
00001000
00000000
,
00000000
00000010
00000100
00000000
00001000
00000000
00000100
00000001
00000000
00000010
00000100
00000000
00000010
00000001
00001000
00000000
,
00000010
00001000
00000100
00000000
00000000
00001000
00000000
00000100
00000000
00010000
00001000
00000000
01000000
00000000
00010000
00000000
,
00110000
00000000
01000000
10000000
00100000
00000000
10100000
00000000
01010000
00000000
00000000
00100000
00001000
00000000
00001000
00000000
,
00010000
00000100
00000000
00000100
00001000
00000000
00000010
00000100
00000000
00000100
00000000
00000100
00000001
00000000
00000010
00000000
,
00000100
00001000
00000000
00001000
00000010
00000000
00000010
00010000
00000000
00010000
00000000
00010000
00002000
00000000
00000000
00000000
,
01003000
00010000
00000000
00010000
00100000
00000000
00100000
01000000
00000000
01000000
00000000
01000000
10000000
00000000
00010000
00000000
,
01000000
00001000
00000000
00001000
00010000
00000000
00010000
00000100
00001000
00000010
00000100
00000010
00001000
00000000
00000000
00000000
,
00000001
00000100
00000000
00000010
00001000
00000000
00000100
00001000
00000000
00000100
00010000
00000000
00001000
00000000
01000000
00001000
,
00000000
00010000
00001000
00000000
00010000
00000000
00000100
00001000
00000000
00000010
00000000
00000010
00000100
00000000
00000001
00000000
,
00001000
00000100
00000000
00010000
00001000
00000000
01000000
00001000
00000000
00010000
00000000
00001000
01000000
00000000
00100000
00000000
,
10000000
01000000
00100000
00000000
00110000
00000000
00100000
01000000
10000000
00000000
01000000
00000000
00010000
00000000
00001000
00000000
,
00020000
00030000
00000000
00000000
;
