#TITLE:Tropical April;
#SUBTITLE:;
#ARTIST:Risk Junk;
#TITLETRANSLIT:;
#SUBTITLETRANSLIT:;
#ARTISTTRANSLIT:;
#GENRE:;
#CREDIT:;
#MUSIC:Tropical April.ogg;
#BANNER:;
#BACKGROUND:Tropical April-bg.png;
#CDTITLE:;
#SAMPLESTART:31.932;
#SAMPLELENGTH:18.159;
#SELECTABLE:YES;
#OFFSET:0.046;
#BPMS:0.000=182.000;
#STOPS:;
#BGCHANGES:;
#FGCHANGES:;

//--------------- dance-single - Pandemonium X ----------------
#NOTES:
     dance-single:
     Pandemonium X:
     Beginner:
     4:
     0,0,0,0,0:
0000
0000
0000
0000
,
0000
0000
0000
0000
,
0000
0000
0000
0000
,
0000
0000
0000
0000
,
0000
0000
0000
0000
,
0000
0000
0000
0000
,
0000
0000
0000
0000
,
0000
0000
0000
0000
,
0000
0000
0000
0000
,
0000
0000
0000
0000
,
0001
0000
0000
0000
,
1000
0000
0100
0000
,
1000
0000
0000
0000
,
0001
0000
0000
0000
,
0100
0000
0000
0000
,
0010
0000
1000
0000
,
0001
0000
0000
0001
,
0000
0000
0000
0000
,
1000
0000
0000
1000
,
0000
0000
0000
0000
,
0010
0000
0000
0010
,
0000
0000
0100
0100
,
0010
0000
0100
0000
,
1001
0000
0000
0000
,
0000
0000
0000
0000
,
0001
0000
0000
0000
,
0000
0000
1000
0000
,
0100
0000
0000
0000
,
1000
0000
0010
0000
,
0100
0000
0000
0000
,
0010
0000
0000
0000
,
0100
0000
0000
0100
,
0000
0000
0000
0000
,
0001
0000
0000
0000
,
0010
0000
0000
0000
,
0001
0000
0000
0000
,
1000
0000
0000
0000
,
0010
0000
0000
0100
,
0000
0000
0010
0010
,
1000
0000
0000
0001
,
0000
1000
0100
0010
,
0001
0000
0000
0000
,
0000
0010
0010
0000
,
0001
0000
0000
0000
,
1000
0000
0001
0000
,
0100
0000
0000
0000
,
0010
0000
0000
0000
,
1000
0000
0000
1000
,
0000
0000
1000
0001
,
0100
0000
0000
0000
,
0010
0000
0000
0000
,
1000
0000
0100
0000
,
1000
0000
0000
0000
,
0010
0010
0000
0100
,
0100
0000
0001
0001
,
0001
0000
0000
1000
,
0000
0000
0000
0000
,
0010
0000
0000
0000
,
0200
0000
0000
0300
,
0001
0000
1000
0000
,
0100
0000
0010
0000
,
0001
0000
1000
0000
,
0020
0000
0000
0030
,
0100
0000
0010
0000
,
1000
0000
0001
0000
,
1000
0000
0000
0000
,
0001
0000
0000
0000
,
0010
0000
0100
0000
,
1000
0000
0001
0000
2000
0000
0000
3000
,
0100
0000
0000
0000
,
0010
0000
0000
0000
,
0001
0000
0000
1000
,
0000
0000
0000
0110
,
0001
0000
0000
0000
,
0000
1000
1000
0001
,
0001
0000
0000
0000
,
0100
0000
0010
0000
,
0100
0000
0000
0010
,
0010
0000
1000
0000
,
1001
0000
0000
0110
,
0000
0000
0000
0000
,
0001
0000
0000
0000
,
1000
0000
0100
0000
,
1000
0000
0000
0000
,
0010
0000
0100
0000
,
0010
0010
0000
0100
,
0100
0000
0001
0001
,
1000
0000
0000
0001
,
0000
0000
0000
0000
,
0001
0000
1000
0000
,
0010
1001
0000
0000
;

//--------------- dance-single - Pandemonium X ----------------
#NOTES:
     dance-single:
     Pandemonium X:
     Easy:
     7:
     0,0,0,0,0:
0000
0000
0000
0000
,
0000
0000
0000
0000
,
0000
0000
0000
0000
,
0000
0000
0000
0000
,
0000
0000
0000
0000
,
0000
0000
0000
0000
,
0000
0000
0000
0000
,
0000
0000
0000
0000
,
0000
0000
0000
0000
,
0000
0000
0000
0000
,
0001
1000
0000
0001
,
0010
0000
0001
0000
,
1000
0000
0000
0000
0100
0000
0000
1000
,
0000
0010
0100
0100
,
0001
0010
0000
0100
,
0010
0000
0100
1000
,
0001
0000
0000
1000
0000
0000
0010
0000
,
0000
0100
0000
0000
0000
0000
0000
0000
,
0010
0000
0000
0100
0000
0000
0000
0001
,
0000
1000
0000
0000
,
0100
0100
1000
1000
,
0010
0010
0100
0100
,
0001
0100
1000
0100
,
0202
0000
0000
0000
,
0303
0001
1000
0100
,
0010
0000
0000
0200
0000
0000
0000
0000
,
0300
1000
0010
1000
,
0002
0000
0000
0000
0000
0000
0013
0100
,
0000
0100
0010
0000
0001
0000
0100
0000
,
0001
2000
3000
0100
,
2000
3000
0020
0030
,
0100
0000
0000
0001
0000
0000
0010
0000
,
0000
0100
0000
0000
0010
0000
0001
0000
,
1000
0010
0100
0001
,
0010
0100
0010
0001
,
1000
0000
0000
0000
0001
0000
0000
0010
,
0000
0100
0010
0001
,
1000
0000
0000
0001
0000
0000
1000
0000
,
0000
0100
0000
0000
0010
0000
0100
0000
,
2000
0000
0000
0000
0000
3001
0100
0002
,
0000
0013
0100
0010
,
0001
0000
0000
2000
0000
0000
0000
0000
,
3000
0010
0100
0001
,
0020
0000
0000
0000
0000
0000
0030
0200
,
0000
1300
0001
0000
0100
0000
0001
0000
,
0010
0100
0000
0010
,
0001
0000
1000
0000
,
0001
0000
0000
0100
0000
0000
0010
0000
,
0000
0100
0000
0000
0001
0000
1000
0000
,
0100
1000
0010
1000
,
0001
0010
0001
0100
,
0001
0000
0000
0000
1000
0000
0000
0100
,
0000
1000
0010
0100
,
0001
0010
0000
0100
,
0010
0000
0100
1000
,
0001
0000
0000
1000
0000
0000
0010
0000
,
0000
0100
0000
0000
0000
0000
0000
0000
,
0001
1000
0100
0010
,
0200
0000
0000
0310
,
0001
1000
0010
0100
,
0001
0100
0010
1000
,
0100
0010
0100
1000
,
0002
0000
0000
1003
,
0200
1300
0200
0310
,
0200
1300
0200
0310
,
0001
0100
0001
0100
,
0010
1000
0010
1000
,
0100
0010
0001
0010
,
0100
0000
1000
0000
2002
0000
0000
3003
,
0001
1000
0010
1000
,
0001
0010
0001
1000
,
0010
0000
0000
0100
0000
0000
0001
0000
,
0000
1000
0100
1001
,
0001
0000
0000
0200
0000
0000
0000
0000
,
0300
0010
1000
0100
,
2000
0000
0000
0000
0000
0000
3001
1000
,
0000
1000
0100
0000
0010
0000
0100
0000
,
1000
0001
0000
0100
,
0001
0000
0010
0000
,
0100
0000
0000
0010
0000
0000
0001
0000
,
0000
1000
0000
0000
0010
0000
0100
0000
,
0001
1000
0010
1000
,
0100
0010
0001
0100
,
0001
0000
0000
0000
1000
0000
0000
0100
,
0000
0010
0100
1000
,
0010
0100
0000
0010
,
1000
0000
1000
0001
,
0010
0000
0000
0100
0000
0000
1000
0000
,
0000
0010
0000
0000
0000
0000
0000
0000
,
0100
0001
0010
0100
,
1000
0001
1001
0000
0000
0000
0000
0000
;

//--------------- dance-single - Pandemonium X ----------------
#NOTES:
     dance-single:
     Pandemonium X:
     Medium:
     11:
     0,0,0,0,0:
0000
0000
0000
0000
,
0000
0000
0000
0000
,
0000
0000
0000
0000
,
0000
0000
0000
0000
,
0000
0000
0000
0000
,
0000
0000
0000
0000
,
0000
0000
0000
0000
,
0000
0000
0000
0000
,
0000
0000
0000
0000
,
0000
1000
0100
0010
,
0100
1000
0000
0010
,
0100
0000
0001
0000
,
0010
0000
0000
0100
0010
0000
0010
0100
,
0000
1000
0001
0100
,
0002
0023
0030
0200
,
0320
0000
0032
2003
,
3001
0100
0000
0001
1000
0000
0001
0010
,
0000
0001
1000
0000
0000
0000
0000
0000
,
1000
0010
0000
1000
0001
0000
1000
0100
,
0000
1000
0001
0000
0000
0000
0000
0000
,
0001
0100
0000
0100
0010
0000
0010
1000
,
0000
1000
0100
0000
0100
0010
0001
0000
,
0020
0230
2300
3010
,
0202
0000
0000
0000
,
0303
0100
0001
0010
,
0100
0000
0010
0002
0000
0000
0000
0000
,
0003
0000
0010
0100
0010
0000
0100
1000
,
0200
0000
0000
0000
0000
0000
1300
0020
,
0000
0130
1000
0100
0001
1000
0001
0010
,
0100
2000
3000
0100
,
0200
0000
0320
0000
,
0130
1000
0000
0001
0100
0000
0010
0100
,
0000
0010
1000
0010
0100
0001
0020
0000
,
0031
0010
0100
0020
,
0031
1000
0100
1000
,
0002
0000
0003
0100
0010
0000
1000
0100
,
0000
0100
0010
0000
0100
0000
1000
0000
,
0001
1000
0000
0100
0010
0000
0100
1000
,
0000
0100
0000
0010
0001
0100
0001
1000
,
0020
0000
0000
0000
0000
0130
0001
0020
,
0000
0100
0100
0130
,
1001
0000
1000
0020
0000
0000
0000
0000
,
0030
0000
0100
0001
0200
0000
0301
0010
,
0002
0000
0000
0000
0000
0000
0103
0002
,
0000
1003
0100
0010
0100
1000
0001
0000
,
0200
0302
0003
0010
,
0200
0000
2300
0000
,
3001
1000
0000
0100
0010
0000
0100
1000
,
0000
0100
0010
0001
0100
0010
2000
0000
,
3001
0100
0001
0010
,
0100
0010
0001
0100
,
0010
0000
0000
1000
0100
0000
1000
0010
,
0000
0100
0010
1000
,
0002
0013
0000
0200
,
0320
0000
0130
1000
,
0001
0100
0000
0010
1000
0000
0100
0010
,
0000
0100
1000
0000
0000
0000
0000
0000
,
0001
0000
1000
0000
0100
0000
0010
0100
,
2000
0000
0000
3200
,
1300
0010
0001
0010
,
1000
0010
0001
0010
,
0100
0000
0001
0000
0010
0000
0100
0010
,
0002
0000
0000
0023
,
0130
0010
0001
0000
0010
0100
1000
0000
,
0100
0010
0001
0000
0010
0100
1000
0000
,
0001
0100
1000
0100
,
0001
0010
0100
1000
,
0200
2300
3020
0230
,
0302
0023
0200
0330
,
0001
0010
0001
1000
,
0010
1000
0001
0010
,
0001
0100
0000
0010
1000
0000
0100
0010
,
0000
0100
1000
1001
,
0001
0000
0100
0020
0000
0000
0000
0000
,
0030
0000
0100
0001
0100
0000
0010
1000
,
0002
0000
0000
0000
0000
0000
1003
0001
,
0000
0010
0100
0010
0001
1000
0001
0000
,
2000
3200
0300
0020
,
0230
0000
2300
0000
,
3100
0010
0000
0100
1000
0000
0100
0010
,
0000
0010
0001
0100
0010
1000
0002
0000
,
1003
0010
0001
0010
,
0100
1000
0100
0001
,
0020
0000
0000
0130
0010
0000
0100
1000
,
0000
0100
0010
0001
,
0200
0302
0003
0020
,
0230
0000
0320
0032
,
1003
0001
0000
1000
0010
0000
1000
0100
,
0000
1000
0001
0000
0000
0000
0000
0000
,
0001
0100
0010
1000
,
0100
1100
0011
0000
0000
0000
0000
0000
;

//--------------- dance-single - Pandemonium X ----------------
#NOTES:
     dance-single:
     Pandemonium X:
     Hard:
     15:
     0,0,0,0,0:
0000
0000
0000
0000
,
0000
0000
0000
0000
,
0000
0000
0000
0000
,
0000
0000
0000
0000
,
0000
0000
0000
0000
,
0000
0000
0000
0000
,
0000
0000
0000
0000
,
0000
0000
0000
0000
,
0000
0000
0000
0000
,
0000
0000
0000
0000
0001
0010
0000
0000
0010
0100
0000
0000
0100
0000
0000
0000
,
0010
0001
0000
0100
,
0010
0000
0000
0000
0000
0000
0000
0000
1000
0000
0000
0000
0000
0000
0000
0001
,
0010
0000
0000
0100
0100
0000
0100
0010
,
0000
0100
0100
1000
,
0020
0230
0300
0002
,
0023
0000
0000
0030
0000
0000
0200
0000
0000
0320
0000
0030
,
0011
0101
0000
1010
1100
0000
0101
0011
,
0000
1010
1100
0000
0001
0010
0100
1000
,
1100
1010
0000
0101
0011
0000
1100
1010
,
0000
0000
0000
0101
0000
0000
0011
0000
0000
0000
0000
0000
1000
0000
0100
0000
1000
0000
0001
0000
0100
0000
0010
0000
,
1000
1000
0010
0100
0100
0001
0010
0010
,
0100
0010
0010
0001
1000
0100
0010
0001
,
0010
0001
0010
0100
0010
0001
1000
0010
0100
0001
0010
0001
,
0200
0000
0000
0000
,
0300
0020
0230
0302
,
1003
0000
1000
0002
0100
0000
1000
0000
,
0103
0000
0010
1000
0020
0000
0130
0001
,
0020
0000
0100
0000
0001
0000
0130
0020
,
0000
0130
1000
0100
1000
0010
1000
0100
,
2000
3002
0013
0002
,
0203
0310
2000
3100
,
1100
0011
0000
1010
0101
0000
0011
1100
,
0000
1000
0001
0100
0010
1000
0200
0000
,
0310
0001
0100
0010
0100
0001
0020
0000
,
0130
0010
0100
1000
0001
0100
0001
1000
,
0020
0000
0000
0100
0100
0000
1000
2030
,
0000
3001
0010
0001
1000
0010
1000
0010
,
0100
0001
0000
0100
1000
0100
0001
0010
,
0000
1000
0010
0001
0100
1000
0100
0001
,
2000
0000
0100
0000
0010
3010
0100
0002
,
0000
0010
0100
1003
,
0001
0000
1000
0010
0100
0000
0001
0000
,
0010
0000
1000
0010
0001
0000
0100
0010
,
1000
0000
0100
0000
0010
0000
0001
0200
,
0000
0301
0100
0001
0010
0100
1000
0001
,
0200
0320
1030
0002
,
0023
0100
0032
1003
,
1001
0101
0000
1001
1100
0000
1001
1010
,
0000
1000
0001
0010
0100
0010
0002
0000
,
0103
0010
1000
0010
0100
0010
2000
0000
,
3100
0010
0001
0010
0100
0010
0001
1000
,
0020
0000
0000
0130
0001
0000
0010
0100
,
0000
0010
0001
0100
0001
0100
0001
1000
,
0200
0320
0030
0200
,
2300
0000
3002
0103
,
1001
0110
0000
0110
0101
0000
0011
0110
,
0000
1100
1010
0000
0000
0000
0000
0000
,
0001
0100
0001
2000
0000
3100
0010
0001
,
0020
0001
0100
0032
,
1003
0001
0010
0010
0100
1000
1000
0100
,
0010
0010
0000
0001
0001
0010
0100
1000
,
0001
0100
0010
2000
0000
3100
0010
0001
,
0200
0010
0001
0320
,
0130
0000
0010
1000
0001
0000
0010
0000
0100
0000
0010
0001
1000
0000
0001
0000
,
0010
0000
0100
0010
0001
0000
0010
0000
0100
0000
1000
0100
0010
0000
0100
0000
,
1000
0000
0100
0000
1000
0000
0010
0000
0100
0000
0001
0000
0010
0100
1000
0001
,
0100
0000
0010
0000
1000
0000
0001
0000
0010
0000
0001
0000
0100
0001
0010
0100
,
1000
0100
0010
0001
0010
0000
0100
0000
1000
0010
1000
0010
1000
0000
0001
0000
,
0100
0010
1000
0001
0010
0001
0100
0002
2000
0000
0000
0000
0000
0000
3003
0000
,
0001
0100
0001
0010
0001
0000
1000
0010
1000
0100
1000
0000
0001
1000
0001
0000
,
1000
0010
1000
0100
1000
0000
0001
1000
0001
0100
0001
0000
1000
0100
0010
0001
,
1000
0101
0000
0011
1100
0000
0101
1010
,
0000
0000
0000
0000
0020
0000
0000
0000
0200
0000
0000
0330
1001
0000
0000
0000
,
0001
0000
1000
0002
0010
0000
1000
0000
,
0013
0000
0100
1000
0200
0000
0310
0001
,
0200
0000
0010
0000
0001
0000
0310
0200
,
0000
0310
1000
0010
1000
0100
1000
0010
,
2000
3002
0103
0002
,
0023
0130
2000
3010
,
1010
0101
0000
1100
0011
0000
0101
1010
,
0000
1000
0001
0010
0100
1000
0020
0000
,
0130
0001
0010
0100
0010
0001
0200
0000
,
0310
0100
0010
1000
0001
0010
0001
1000
,
0200
0000
0000
0010
0010
0000
1000
2300
,
0000
3001
0100
0001
1000
0100
1000
0100
,
0020
0032
0000
0203
,
0320
0000
0000
0000
0230
0000
0002
0303
,
1010
0101
0000
0011
1100
0000
1100
0011
,
0000
0101
1001
0000
0000
0000
0000
0000
,
1001
0000
0001
0100
0010
0000
0100
0010
1000
0001
0010
0001
1000
0010
0100
0001
,
0010
1100
0011
0000
0000
0000
0000
0000
;

//--------------- dance-double - Pandemonium X ----------------
#NOTES:
     dance-double:
     Pandemonium X:
     Easy:
     8:
     0,0,0,0,0:
00000000
00000000
00000000
00000000
,
00000000
00000000
00000000
00000000
,
00000000
00000000
00000000
00000000
,
00000000
00000000
00000000
00000000
,
00000000
00000000
00000000
00000000
,
00000000
00000000
00000000
00000000
,
00000000
00000000
00000000
00000000
,
00000000
00000000
00000000
00000000
,
00000000
00000000
00000000
00000000
,
00000000
00000000
00000000
00000000
,
00010000
00000010
00000000
00000100
,
00000001
00000000
00000010
00000000
,
00000100
00000000
00000000
00000000
00010000
00000000
00000000
00001000
,
00000000
01000000
00010000
00100000
,
01000000
01000000
00000000
10000000
,
10000000
00000000
00010000
10000000
,
01100000
00000000
00000000
10010000
00000000
00000000
01100000
00000000
,
00000000
10010000
00000000
00000000
00000000
00000000
00000000
00000000
,
00110000
00000000
00000000
11000000
00000000
00000000
00110000
00000000
,
00000000
11000000
00000000
00000000
00000000
00000000
00000000
00000000
,
00010000
00100000
00001000
00010000
,
00000010
00000100
00000001
00000010
,
00001000
00000100
00000001
00000100
,
00022000
00000000
00000000
00000000
,
00033000
00010000
00000100
00001000
,
00000010
00000000
00000000
00000200
00000000
00000000
00000000
00000000
,
00000300
00000001
00000100
00000010
,
00002000
00000000
00000000
00000000
00000000
00000000
00000100
00003200
,
00000000
00010300
00001000
01000000
,
00100000
20000000
30000000
01000000
,
00200000
00300000
02000000
03000000
,
10010000
00000000
00000000
01010000
00000000
00000000
00110000
00000000
,
00000000
00100000
00001000
00010000
,
00000010
00001000
00000010
00000100
,
00000001
00000010
00000100
00000010
,
00000002
00000000
00000000
00000000
00001003
00000000
00000000
00000100
,
00000000
00010000
00001000
01000000
,
00100000
00000000
00000000
01000000
00000000
00000000
00010000
00000000
,
00000000
00100000
00000000
00000000
00001000
00000000
00010000
00000000
,
00000200
00000000
00000000
00000000
00000300
00001000
00000010
00000200
,
00000000
00000001
00000010
00000301
,
00001001
00000000
00000000
00002000
00000000
00000000
00000000
00000000
,
00003000
00000100
00010000
00001000
,
02000000
00000000
00000000
00000000
00000000
00000000
03010000
10000000
,
00000000
01000000
00100000
01000000
,
10000000
00100000
00000000
01000000
,
00001000
00000000
00010000
00000000
,
00001100
00000000
00000000
00000011
00000000
00000000
00001001
00000000
,
00000000
00000001
00000000
00000001
00000000
00000001
00001000
00000000
,
00000010
00000100
00000001
00000010
,
00000100
00010000
00001000
01000000
,
00010000
00000000
00000000
00000000
00100000
00000000
00000000
01000000
,
00000000
10000000
01000000
10000000
,
00100000
01000000
00000000
00001000
,
00010000
00000000
00000100
00001000
,
00001010
00000000
00000000
00000101
00000000
00000000
00001010
00000000
,
00000000
00001001
00000000
00000000
00000000
00000000
00000000
00000000
,
00000001
00000100
00000010
00001000
,
00000200
00000000
00000000
00002300
,
00003100
00010000
00001000
01000000
,
00001000
00010000
00000100
00010000
,
00001000
01000000
00010000
00100000
,
02000000
00000000
00000000
23000000
,
30100000
01000000
00100000
00000000
01000000
00010000
01000000
00000000
,
00010000
00100000
00010000
00000000
00100000
00001000
00100000
00000000
,
00001000
00010000
00000100
00002000
,
00003010
00000100
00000001
00000020
,
00000230
00000310
00000002
00000103
,
00000020
00000000
00020030
00000000
00002000
00000000
00000000
00033000
,
00010000
00000000
00000100
00000000
00000000
00001000
00000000
00000000
,
00000010
00000000
00000100
00000000
00000000
00000001
00000000
00000000
,
00000011
00000000
00000000
00001100
00000000
00000000
00002001
00000000
,
00000000
00000000
00000000
00003010
,
00000101
00000000
00000001
00002000
00000000
00000000
00000000
00000000
,
00003000
00000100
00010000
00001000
,
02000000
00000000
00000000
00000000
00000000
00000000
03100000
10000000
,
00000000
01000000
00100000
00000000
01000000
00000000
10000000
00000000
,
00020000
00230000
00000000
02300000
,
23000000
00000000
30020000
00030000
,
01010000
00000000
00000000
10100000
00000000
00000000
10010000
00000000
,
00000000
10000000
00010000
00110000
,
00100000
00001000
00010000
00000100
,
00001000
00000010
00000100
00000001
,
00000010
00000000
00000000
00000000
00000100
00000000
00000000
00010000
,
00000000
00001000
01000000
00100000
,
10000000
01000000
00000000
00100000
,
00010000
00000000
00001000
00010000
,
00010100
00000000
00000000
00001010
00000000
00000000
00001001
00000000
,
00000000
00000011
00000000
00000000
00000000
00000000
00000000
00000000
,
00000001
00000010
00000100
00001000
,
00000100
00010000
00011000
00000000
00000000
00000000
00000000
00000000
;

//--------------- dance-double - Pandemonium X ----------------
#NOTES:
     dance-double:
     Pandemonium X:
     Medium:
     12:
     0,0,0,0,0:
00000000
00000000
00000000
00000000
,
00000000
00000000
00000000
00000000
,
00000000
00000000
00000000
00000000
,
00000000
00000000
00000000
00000000
,
00000000
00000000
00000000
00000000
,
00000000
00000000
00000000
00000000
,
00000000
00000000
00000000
00000000
,
00000000
00000000
00000000
00000000
,
00000000
00000000
00000000
00000000
,
00000000
00010000
00000100
00001000
,
00000010
00000001
00000000
00000010
,
00000100
00000000
00000001
00000000
,
00001000
00000000
00000000
00000100
00010000
00000000
00010000
00001000
,
00000000
00010000
00001000
01000000
,
00020000
00230000
00000000
02300000
,
23000000
00000000
30020000
02030000
,
03001000
00010000
00000000
00001000
00010000
00000000
00001000
00010000
,
00000000
00001000
00010000
00000000
00000000
00000000
00000000
00000000
,
00010000
00001000
00000000
00010000
00001000
00000000
00010000
00001000
,
00000000
00010000
00001000
00000000
00000000
00000000
00000000
00000000
,
00010000
00000100
00000000
00000100
00001000
00000000
00001000
00000010
,
00000000
00000010
00000100
00000000
00000100
00000010
00000100
00000001
,
00001000
00000000
00000100
00010000
00000000
00010000
00001000
00000000
00001000
01000000
00000000
01000000
,
00200000
00000000
00000000
00000000
,
00300000
02000000
03020000
20030000
,
32000000
00000000
00100000
00200000
00000000
00000000
00000000
00000000
,
03300000
00000000
00001000
00010000
00001000
00000000
00010000
00000100
,
00002000
00000000
00000000
00000000
00000000
00000000
00003010
00000020
,
00000000
00000130
00001000
00000100
00000010
00001000
00000100
00000000
,
00000020
00000032
00000003
00000200
,
00000320
00000000
00002030
00000000
,
00003100
00010000
00000000
00010000
00001000
00000000
00001000
01000000
,
00000000
01000000
00100000
10000000
01000000
00100000
00020000
00000000
,
10030000
00000000
01000000
00000000
10000000
00100000
10000000
00000000
,
00100000
00000000
01000000
00000000
00010000
01000000
00010000
00100000
,
00002000
00000000
00000000
00013000
00020000
00000000
00030100
00000200
,
00000000
00001300
00000010
00000000
00000100
00000000
00000001
00000000
,
00001000
00000100
00000000
00000010
00000001
00000000
00000100
00000010
,
00000000
00001000
00000000
00000100
00010000
00001000
01000000
00010000
,
20000000
00000000
00000000
00000000
00000000
31000000
00100000
00020000
,
00000000
00100000
00100000
00130000
,
01000000
00000000
10000000
00020000
00000000
00000000
00000000
00000000
,
00030000
00000000
01000000
00010000
00200000
00000000
00301000
00010000
,
00000200
00000000
00000000
00000000
00000000
00000000
00010000
00010300
,
00000000
00010000
00000100
00001000
00000010
00000100
00000001
00000000
,
00002000
00003200
00000300
00000020
,
00000032
00000000
00002003
00000000
,
00003100
00010000
00000000
00010000
00001000
00000000
00001000
01000000
,
00000000
01000000
00100000
10000000
01000000
00100000
00020000
00000000
,
01030000
00000000
00010000
00000000
00100000
00001000
00100000
00000000
,
00001000
00000000
00010000
00000000
00000010
00001000
00000010
00000000
,
00000200
00000000
00000000
00000301
00001000
00000000
00000100
00000010
,
00000000
00000010
00000100
00001000
00000100
00001000
00000010
00001000
,
00000002
00002003
00003000
00000200
,
00020300
00000000
00032000
02003000
,
03100000
01000000
00000000
01000000
00010000
00000000
00010000
00100000
,
00000000
00100000
00001000
00000000
00000000
00000000
00000000
00000000
,
00010000
00000000
00000100
00000000
00001000
00000000
00000010
00000100
,
00000002
00000000
00000000
00000023
,
00000130
00001000
00000100
00001000
,
00000100
00001000
00000100
00001000
,
00000010
00000000
00010000
00000000
00001000
00000000
01000000
00010000
,
00200000
00000000
00000000
01300000
,
10000000
01000000
20000000
00000000
31000000
00100000
02000000
00000000
,
03100000
00010000
00200000
00000000
00301000
00010000
00002000
00000000
,
00013000
00000000
00000100
00000000
00001000
00000000
00000010
00000100
,
00000001
00000000
00000010
00000000
00000100
00000000
00000010
00000001
,
00002000
00003200
00020300
00032000
,
02003000
00000000
03200000
00000000
02000000
00000000
00000000
03300000
,
00010000
01000000
00010000
00000000
10000000
00100000
10000000
00000000
,
00010000
00100000
00010000
00000000
00100000
00001000
00100000
00000000
,
00001000
00010000
00000000
00010000
00000010
00000000
00000010
00000100
,
00000000
00000000
00000000
00001001
,
00000001
00000000
00001000
00002000
00000000
00000000
00000000
00000000
,
00000000
00003000
00000100
00010000
00010000
00000000
00001000
00010000
,
00002000
00000000
00000000
00000000
00000000
00000000
01000000
02003000
,
00000000
03100000
00010000
00100000
10000000
01000000
00100000
00000000
,
00002000
00023000
00000000
00030200
,
00002300
00000000
00000020
00003030
,
00000010
00010000
00000000
00010000
00001000
00000000
00001000
01000000
,
00000000
01000000
00100000
10000000
01000000
00100000
02000000
00000000
,
03100000
00000000
00010000
00000000
00100000
00001000
00010000
00000000
,
00000100
00000000
00001000
00000000
00000010
00000100
00000001
00000010
,
00000200
00000000
00000000
00001000
00002300
00000000
00000010
00003020
,
00000000
00000130
00000001
00001000
00000001
00001000
00000100
00000010
,
00000200
00020300
00030000
00002000
,
02003000
00000000
03200000
20300000
,
30010000
00100000
00000000
00001000
00010000
00000000
00000100
00001000
,
00000000
00000010
00000100
00000000
00000000
00000000
00000000
00000000
,
00000010
00001000
00000100
00010000
00001000
01000000
00010000
00100000
,
01000000
01100000
10010000
00000000
00000000
00000000
00000000
00000000
;

//--------------- dance-double - Pandemonium X ----------------
#NOTES:
     dance-double:
     Pandemonium X:
     Hard:
     15:
     0,0,0,0,0:
00000000
00000000
00000000
00000000
,
00000000
00000000
00000000
00000000
,
00000000
00000000
00000000
00000000
,
00000000
00000000
00000000
00000000
,
00000000
00000000
00000000
00000000
,
00000000
00000000
00000000
00000000
,
00000000
00000000
00000000
00000000
,
00000000
00000000
00000000
00000000
,
00000000
00000000
00000000
00000000
,
00000000
00000000
00000000
00000000
00100000
00010000
00000000
00000000
00001000
00010000
00000000
00000000
00001010
00000000
00000000
00000000
,
00000001
00001100
00000000
00000100
,
00011000
00000000
01001000
00000000
,
01100000
00000000
00000000
10000000
01000000
00000000
01000000
00010000
,
00000000
00010000
00100000
00001000
,
00020000
00030200
00000000
00020300
,
00032000
00000000
02003000
03200000
,
10300000
00010000
00000000
00010000
00001000
00000000
00001000
00000001
,
00000000
00000001
00001001
00000000
00000000
00000000
00000000
00000000
,
00000001
00001000
00000000
00001000
00010000
00000000
00010000
10000000
,
00000000
10000000
10010000
00000000
00000000
00000000
00000000
00000000
,
10000000
00010000
00000000
00010000
00001000
00000000
00001000
00000001
,
00000000
00000001
00001000
00000000
00000010
00000001
00000010
00001000
,
00000100
00010000
00001000
00010000
00000100
00010000
00001000
00000100
00010000
00001000
00100000
00010000
,
02000000
00000000
00000000
00000000
,
03000000
00200000
02300000
03002000
,
00013000
00000000
00001000
00010000
00000020
00000000
00000100
00000000
,
00001000
00000030
00000100
00000100
00000002
00000000
00000013
00000100
,
00002000
00000000
00000100
00000000
00000010
00000000
00003100
00020000
,
00000000
00031000
01000000
00100000
10000000
01000000
00100000
00001000
,
00020000
00030100
00001000
00000020
,
00000230
00000001
00000320
00001030
,
00000001
00001000
00000000
00001000
00010000
00000000
00010000
10000000
,
00000000
10000000
01000000
01000000
10000000
00100000
02000000
00000000
,
03001000
00010000
00000010
00000100
00000001
00000010
00000002
00000000
,
00001003
00000000
00000010
00000000
00000100
00000000
00000010
00000000
00001000
00000000
00000100
00000000
00010000
00000000
00001000
00010000
,
00002000
00000000
00000000
01000000
01003000
00100000
01000000
00010000
,
00000000
00100000
10000000
00100000
00010000
00001000
00000100
00000010
,
00000001
00000010
00000000
00000100
00000010
00000001
00000100
00000010
,
00000000
00000100
00000010
00000001
00000010
00001000
00000100
00010000
,
00002000
00000000
00000000
00000000
00000000
00013000
00001000
02001000
,
00000000
00100000
00010000
03100000
,
10010000
00000000
10000000
00100000
02000000
00000000
00010000
00000000
,
03100000
00000000
01000000
00001000
00010000
00000000
00010000
00000100
,
00002000
00000000
00000100
00000000
00000010
00000000
00003100
00000020
,
00000000
00000031
00001000
00000010
00000001
00000100
00000001
00000000
,
00002000
00003010
00000100
00000002
,
00002003
00003100
00020000
00031000
,
00001000
00010000
00000000
00010000
10000000
00000000
10000000
00010000
,
00000000
00100000
00001000
00010000
00000010
00000001
00000020
00000000
,
00000130
00001000
00000100
00000001
00000010
00000100
00002000
00000000
,
00003100
00000000
00010000
00000000
00001000
00000000
01000000
00000000
00010000
00000000
00100000
00000000
01000000
00000000
00100000
00010000
,
00200000
00000000
00000000
01000000
01000000
00000000
00010000
00320000
,
00000000
10030000
00100000
01000000
00010000
00100000
01000000
10000000
,
00010000
00110000
00000000
00101000
,
00011000
00000000
00001100
00001001
,
00000001
00001000
00000000
00001000
00010000
00000000
00010000
10000000
,
00000000
10000000
10010000
00000000
00000000
00000000
00000000
00000000
,
10000000
00100000
01000000
00020000
00000000
00130000
00001000
00010000
,
00000020
00000000
00000000
00000130
,
00001000
00000100
00000001
00000010
00000100
00001000
00000100
00010000
,
00001000
01000000
00100000
10000000
01000000
00100000
01000000
00100000
,
00010000
00100000
00010000
00200000
00000000
00301000
00010000
00010000
,
00000020
00000000
00000000
00000130
,
00000001
00000000
00000010
00000100
00001000
00000001
00001000
00000001
00000000
00000000
00001000
00000010
00000100
00000001
00000100
00000001
,
00000000
00000000
00001000
00000010
00001000
00000100
00001000
00000100
00000000
00000000
00010000
00001000
01000000
00001000
01000000
00001000
,
00100000
00000000
10000000
00000000
00100000
00000000
00010000
00000000
01000000
00000000
10000000
00000000
01000000
00100000
10000000
00010000
,
00100000
00000000
00001000
00000000
00010000
00000000
00000010
00000000
00010000
00000000
00001000
00000000
00010000
00000100
00001000
00000010
,
00000100
00000010
00000001
00000010
00001000
00000001
00000010
00000100
00001000
00000100
00010000
00001000
01000000
00100000
10000000
00010000
,
00100000
10000000
00100000
00010000
01000000
00001000
00010000
00000200
00020000
00000000
00000000
00000000
00000000
00000000
00030300
00000000
,
00001000
01000000
00001000
01000000
00100000
00000000
10000000
00010000
10000000
00010000
00100000
00000000
00001000
00010000
00000100
00000000
,
00001000
00000010
00001000
00000010
00000100
00000000
00000001
00000010
00000001
00000010
00000100
00000000
00001000
00000100
00001000
00000100
,
00010000
00001000
00000000
00001000
00000001
00000000
00000001
00001000
,
00000000
00000000
00000000
00100010
,
00011000
00000000
00001000
02000000
00100000
00000000
00010000
00000000
,
03100000
00000000
01000000
00010000
00020000
00000000
10030000
01000000
,
00200000
00000000
00010000
00000000
01300000
00000000
00100000
00002000
,
00000000
00013000
00000100
00001000
00000010
00000100
00000002
00000000
,
00000023
00000230
00001300
00000020
,
00020030
00031000
02000000
03100000
,
10000000
00010000
00000000
00010000
00001000
00000000
00001000
00000001
,
00000000
00001000
00000100
00000001
00000100
00000010
00000002
00000000
,
00000013
00001000
00000010
00000001
00000100
00000010
00020000
00000000
,
00031000
00000000
00010000
00000000
00001000
00000000
00100000
00000000
00010000
00000000
10000000
00000000
01000000
00000000
10000000
01000000
,
20000000
00000000
00000000
00010000
30010000
00100000
01000000
20000000
,
00000000
30010000
00100000
00001000
00100000
00001000
00010000
00000100
,
00020000
00000200
00030300
00002000
,
00003020
00000000
00000230
00000010
,
00000301
00001000
00000000
00001000
00010000
00000000
00010000
10000000
,
00000000
10000000
10010000
00000000
00000000
00000000
00000000
00000000
,
10000000
00000000
00010000
00100000
00001000
00000000
00010000
00000010
00000100
00000000
00000001
00000010
00000100
00000000
00001100
00000000
,
00011000
00110000
10010000
00000000
00000000
00000000
00000000
00000000
;
