#TITLE:THE TIME MACHINE;
#SUBTITLE:;
#ARTIST:Yuta Imai;
#TITLETRANSLIT:;
#SUBTITLETRANSLIT:;
#ARTISTTRANSLIT:;
#GENRE:;
#CREDIT:;
#MUSIC:THE TIME MACHINE.ogg;
#BANNER:THE TIME MACHINE-banner.png;
#BACKGROUND:THE TIME MACHINE-bg.png;
#CDTITLE:;
#SAMPLESTART:26.354;
#SAMPLELENGTH:12.387;
#SELECTABLE:YES;
#OFFSET:-0.033;
#BPMS:0.000=155.000
,97.000=77.500
,98.000=155.000
,135.000=77.500
,136.000=155.000
,143.000=310.000
,144.000=155.000
,158.000=77.500
,166.000=155.000
,265.000=77.500
;
#STOPS:64.000=1.161
,128.000=0.387
,143.000=0.194
,182.000=2.710
,203.000=1.161
,236.000=1.161
;
#ORIGIN:;
#TAGS:;
#PREVIEWVID:;
#JACKET:THE TIME MACHINE-jacket.png;
#CDIMAGE:;
#DISCIMAGE:;
#BGCHANGES:;
#FGCHANGES:;

//--------------- dance-single - Pandemonium X ----------------
#NOTES:
     dance-single:
     Pandemonium X:
     Beginner:
     5:
     0.181947,0.365637,0.161326,0.033963,0.008491,150,131,19,4,0,0,0,0,0,0.181947,0.365637,0.161326,0.033963,0.008491,150,131,19,4,0,0,0,0,0:
0000
0000
0000
0000
,
0000
0000
0000
0000
,
0000
0000
0000
0000
,
0000
0000
0000
0000
,
0000
0000
0000
0000
,
0000
0000
0000
0000
,
0000
0000
0000
0000
,
0000
0000
0000
0000
,
0000
0000
1001
0000
,
0110
0000
0000
0000
,
0000
0000
0000
0100
,
0001
0000
0000
0000
,
0000
0000
0010
0100
,
1000
0000
0001
0000
,
0100
0000
0010
0000
,
0100
0010
1000
0001
,
1001
1000
0100
0010
,
0000
0000
0100
1000
,
0000
0010
0100
0001
,
0000
0000
0010
0100
,
0000
0010
0001
1000
,
0000
0000
0010
0100
,
0000
0000
0001
0000
0000
0001
0000
0000
,
1000
0000
0000
1000
0000
0000
1000
0000
,
0000
0000
1001
0000
,
0000
0001
0010
0000
,
0001
1000
0100
0000
,
0000
0010
0100
0000
,
0010
0001
0100
0000
,
0000
0010
1000
0000
,
0001
0000
0000
0001
0000
0000
1000
0000
,
0000
1000
0000
0000
0010
0000
0000
0000
,
0000
0100
0000
0100
,
0000
0010
0000
2000
,
3001
0000
0001
0000
,
1000
0000
0110
0000
,
0001
0000
0001
0000
,
1000
0000
1000
0000
,
0010
0000
0100
0000
,
0001
0000
1001
0000
,
0000
0000
0000
0000
0000
0000
0000
0000
0000
0010
0000
0000
0000
0000
0000
0100
,
0000
0000
0001
0000
,
0000
0000
1000
0000
,
0000
0000
0010
0000
,
0000
0000
0100
0000
,
0001
0000
1001
1000
,
0000
0001
0000
0100
,
0000
0110
0000
1001
,
0000
0001
0000
1001
,
0000
1000
0000
1001
,
0000
0110
0000
1001
,
1001
0000
0020
0000
,
0000
0000
0000
0030
,
1000
1000
1000
0000
,
0001
0001
0001
0000
,
0100
0100
0100
0000
,
0010
0010
0010
0000
,
1000
1000
0001
0000
,
0001
0001
1000
0000
,
0010
0000
0100
0000
0000
0100
0000
0000
,
0100
0010
0010
0100
,
0000
0001
0001
0010
,
0000
1001
0001
0100
,
0010
1001
1000
0010
,
0100
1001
0010
1001
,
0100
2002
0000
0000
,
0000
3003
0000
0000
;

//--------------- dance-single - Pandemonium X ----------------
#NOTES:
     dance-single:
     Pandemonium X:
     Easy:
     7:
     0.255938,0.393763,0.20378,0.050945,0.012736,211,187,24,6,0,0,0,0,0,0.255938,0.393763,0.20378,0.050945,0.012736,211,187,24,6,0,0,0,0,0:
0000
0000
0000
0000
,
0000
0000
0000
0000
,
0000
0000
0000
0000
,
0000
0000
0000
0000
,
0000
0000
0000
0000
,
0001
0000
0000
0000
,
0100
0000
0000
0000
,
0010
0000
0000
0000
,
1000
0000
0101
0000
,
1001
0000
0000
0000
,
0000
0000
0000
0000
0000
0000
0001
0100
,
0001
0000
0000
0000
,
0000
0000
0000
1000
0010
0000
0010
0000
,
1001
0001
1000
1000
,
1001
1000
0001
0001
,
0101
0100
0110
0010
,
1001
0001
0100
1000
,
0100
0001
0100
1000
,
0100
0001
0000
0000
1000
0000
0001
0000
,
0010
1000
0010
0001
,
0010
0100
0000
0000
0010
0000
0001
0000
,
0100
1000
0100
0001
,
0100
0000
0010
0000
0000
0100
0000
0000
,
0001
0000
0000
1000
0000
0000
0100
0000
,
0000
0010
1001
0001
,
1000
0000
0010
0000
1000
0000
0100
0010
,
0000
0100
1000
0001
,
0100
0000
0010
0000
1000
0000
0001
0010
,
0000
0100
0010
0001
,
0100
0000
0001
0000
1000
0000
0100
0010
,
0100
0000
0000
1000
0000
0000
0010
0000
,
0000
0100
0000
0000
0010
0000
0000
0000
,
0000
1001
0000
0101
,
0000
1001
0000
0200
,
1300
0000
1010
0000
,
0101
0000
0010
1001
,
0001
0000
0100
0000
,
0010
0000
1000
0000
,
0100
0000
0010
0000
,
0001
0000
1001
0000
,
0000
0000
0000
0000
0000
0000
0000
0000
0000
1000
0000
0000
0001
0000
0000
0100
,
0000
0000
0010
0000
0000
0000
0100
0001
1000
0000
0000
0000
0000
0000
0000
0000
,
0001
0000
0010
0000
,
0100
0000
1000
0000
,
0010
0000
0100
0000
,
0001
0000
1001
1000
,
0000
0001
0000
0100
,
0000
0000
2002
0000
0000
3003
0001
0000
,
0001
1000
1000
0010
,
0010
0100
0100
0001
,
0100
0010
1000
1001
,
0110
0000
2002
0000
,
0000
0000
0000
3003
,
0001
0001
1000
1000
,
0010
0010
0100
0001
,
0010
0010
0100
0100
,
1000
1000
0001
0001
,
1000
0001
0100
0010
,
1001
0000
0110
0000
,
1001
0000
0001
0000
0000
0001
0000
0000
,
0001
0000
1000
0010
1000
0000
0001
0000
,
0010
0100
0010
0001
,
1000
0000
0001
0000
1000
0010
1000
0010
,
1000
0000
1001
0000
0001
0100
0001
0100
,
0001
1000
0001
0100
,
0010
2000
0000
0000
,
0000
3001
0000
0000
;

//--------------- dance-single - Pandemonium X ----------------
#NOTES:
     dance-single:
     Pandemonium X:
     Medium:
     10:
     0.38694,0.456807,0.280198,0.10189,0.182553,319,286,33,12,0,0,0,0,0,0.38694,0.456807,0.280198,0.10189,0.182553,319,286,33,12,0,0,0,0,0:
0000
0000
0000
0000
,
0000
0000
0000
0000
,
0000
0000
0000
0000
,
0000
0000
0000
0000
,
0000
0000
0000
0000
,
2000
0000
0000
0000
,
3002
0000
0000
0000
,
0103
0000
0000
0010
0000
0000
1000
0000
,
0001
0000
0000
0000
0220
0000
0000
0330
,
1000
0001
0010
0001
,
1000
0000
0010
0000
1000
0000
0001
1000
,
0110
0001
1000
0100
,
0010
0000
0000
0000
0001
0000
0000
0000
0010
0000
0000
0010
0000
0000
0100
0000
,
1100
0000
0100
0000
1000
0100
1000
0000
,
0001
0000
0100
0000
0001
0100
0001
0000
,
0000
0000
1000
0000
0001
0000
0100
0000
0010
0000
0000
0010
0000
0000
0010
0000
,
1000
0000
0000
0000
0000
0000
0001
0000
0010
0000
0100
0000
0010
0000
0000
0010
,
0000
0000
0001
0000
0000
0001
0000
0000
1000
0000
0000
1000
0000
0000
0001
0000
,
0100
0000
0001
0000
0000
0000
1000
0000
0010
0000
0100
0000
0001
0000
0000
0001
,
0000
0000
0010
0000
0000
0010
0000
0000
0100
0000
0000
0100
0000
0000
0010
0000
,
0100
0000
1000
0000
0000
0000
0100
0000
1000
0000
0010
0000
0100
0000
0000
0100
,
0000
0000
0001
0000
0000
0001
0000
0000
0010
0000
0000
0010
0000
0000
0100
0000
,
0010
0000
0001
0000
0010
0000
0000
0010
0000
0000
0001
0000
0000
0001
0000
0000
,
1000
0000
0000
1000
0000
0000
1000
0000
0000
1000
0000
0000
1000
0000
0000
1000
,
0000
0000
1000
0000
0000
0000
0000
0000
0101
0000
0000
0001
0000
0000
0100
0000
,
0000
0010
0000
0000
1000
0000
0000
0100
0000
0000
0010
0000
0100
0000
1000
0000
,
0000
0000
0100
0000
1000
0000
0010
0000
0100
0000
0000
0001
0000
0000
0010
0000
,
0000
0100
0000
0000
0010
0000
0000
0001
0000
0000
1000
0000
0001
0000
0100
0000
,
0000
0000
0001
0000
1000
0000
0010
0000
1000
0000
0000
0001
0000
0000
0010
0000
,
0000
0001
0000
0000
1000
0000
0000
0010
0000
0000
1000
0000
0001
0000
0010
0000
,
0110
0000
0000
0100
0000
0000
1100
0000
0000
1000
0000
0000
1010
0000
0000
0110
,
0000
0000
0010
0000
0000
0010
0000
0000
0010
0000
0000
0010
0000
0000
0100
0000
,
0000
1010
1000
1001
,
0001
0000
0000
0000
0011
0000
0000
0000
0100
0000
0000
0000
0020
0000
0000
0030
,
0011
0001
0101
0100
,
0110
1000
2002
3003
,
0110
0010
1010
1000
,
1100
0100
0110
0010
,
0011
0000
0000
0000
0001
0000
0000
1000
0000
0000
0001
0000
0000
0100
0000
0000
,
0010
0000
0000
1000
0000
0000
0100
0000
0011
0000
0000
0000
0000
0000
0000
0000
,
0000
0000
0000
0000
0000
0000
0000
0000
0000
0001
0000
1000
0001
0000
0001
0100
,
0000
0000
0010
0000
0000
0000
0100
0010
1000
0000
0000
0000
0001
0000
0000
0000
,
0010
0001
1000
0010
,
1000
0001
1000
0100
,
1000
0001
0100
0001
,
0010
0100
1001
1000
,
1000
0001
0001
1000
,
1000
0000
0220
0000
0000
0330
0001
0010
,
0001
0000
1000
0100
1000
0000
0010
1000
,
0010
0000
0100
0001
0100
0000
0001
1000
,
0010
1000
0001
0010
0100
1000
1001
0000
,
0110
0000
2002
0000
,
0000
0000
0000
3003
,
0001
0100
0010
1000
,
0100
0000
0010
0001
0010
1000
0010
0001
,
1000
0001
0100
0010
,
1000
0000
0010
0000
0100
0000
0001
0010
,
0100
0000
0010
0000
0001
0000
1000
0001
,
0100
0000
0000
0100
0000
0000
0010
0000
0110
0000
0000
0000
0000
0000
0000
0000
,
1001
0000
1000
0000
0000
1000
0000
0000
,
1000
0000
0001
0001
0001
0000
0100
0000
,
0010
0000
1000
0000
0010
0100
0001
0000
,
1000
0000
1001
0000
0001
0100
1000
0100
,
0001
0000
1001
0000
0001
0010
1000
0010
,
0001
0000
0000
0000
1001
0000
0000
0001
0000
0000
1000
0000
0000
0010
0000
0000
,
1010
0000
0000
0000
1001
0000
1000
0000
0000
0010
0000
0000
0100
0000
0000
0001
,
0000
0010
0200
0000
0000
0000
0000
0000
,
0000
0300
0000
0000
;

//--------------- dance-single - Pandemonium X ----------------
#NOTES:
     dance-single:
     Pandemonium X:
     Hard:
     13:
     0.572525,0.654219,0.40756,0.186798,0.50945,472,424,48,22,0,0,2,0,0,0.572525,0.654219,0.40756,0.186798,0.50945,472,424,48,22,0,0,2,0,0:
0000
0000
0000
0000
,
0000
0000
0000
0000
,
0000
0000
0000
0000
,
0000
0000
0000
0000
,
0000
0000
0000
0000
,
0002
0000
0000
0000
,
2003
0000
0000
0000
0000
0000
0000
0000
0000
0000
0000
0000
0000
0000
3010
0100
,
0001
0000
0000
0010
0000
0000
0100
0000
,
1000
0000
0022
0033
,
1100
0100
1000
0010
,
0100
0000
0000
0000
0001
0000
0000
0000
0010
0000
0000
0000
0100
1000
0001
1000
,
0001
1000
0010
0100
,
0010
0000
0000
0000
1000
0000
0001
1000
0001
0000
1000
0100
0000
0100
0010
0000
,
0100
0010
0001
0001
1000
0010
0100
0100
,
0010
1000
0100
0100
0010
0001
0010
0010
,
0100
1000
0100
0000
0010
0001
0010
0000
0001
0100
0001
0000
1000
0010
1000
0000
,
1001
0000
0000
0000
0001
0000
1000
0000
0010
0000
0100
0000
0001
0000
0010
0001
,
0000
0010
0100
0000
0010
0001
0000
0010
0100
0000
0010
0001
0000
0010
0100
0000
,
0001
0000
1000
0000
0000
0000
0001
0000
0100
0000
0010
0000
1000
0000
0010
1000
,
0000
0010
0100
0000
0010
1000
0000
0010
0100
0000
0010
1000
0000
0010
0100
0000
,
0001
0000
1000
0000
0000
0000
0100
0000
0010
0000
0100
0000
1000
0000
0010
1000
,
0000
0010
0100
0000
0010
1000
0000
0010
0100
0000
0010
1000
0000
0010
0100
0000
,
0001
0000
0010
0000
0100
0010
0000
0001
0010
0000
0100
1000
0000
0100
0010
0000
,
0100
1000
0000
0010
0100
0000
0001
1000
0000
0001
0100
0000
0010
1000
0000
0100
,
0010
0000
0001
0000
2000
0000
0000
0000
3001
0000
0100
0001
0000
0100
0010
0000
,
0100
0001
0000
0100
0010
0000
0100
0001
0000
0100
0010
0000
1000
0000
0100
0000
,
0000
0000
0010
0000
0100
0000
1000
0000
0001
0000
0010
0001
0000
0010
0100
0000
,
0010
0001
0000
0010
0100
0000
0010
0001
0000
0010
0100
0000
1000
0000
0001
1000
,
0001
0000
1000
0000
0010
0000
0001
0000
0010
0000
0100
0010
0000
1000
0010
0000
,
0100
0010
0000
1000
0010
0000
0100
0010
0000
1000
0010
0000
0100
0000
0001
0000
,
0010
0000
0100
1000
0000
0000
1000
0000
0001
0100
0000
0000
0010
0000
1000
0100
,
0000
0000
0010
0000
0100
1000
0000
0001
0010
0000
0100
1000
0000
0001
1000
0000
,
0010
0201
0310
2010
,
3100
0000
0000
0000
0000
0000
0021
0000
0000
0000
0000
0000
0130
0000
0000
0000
0000
0000
0010
0100
0010
0100
1000
0001
,
0200
0310
1002
0013
,
2001
3100
2002
3003
,
0001
0000
1000
0000
0100
0010
0000
0000
0100
0000
1000
0000
0001
0100
0000
0000
,
0010
0000
1000
0000
0001
0010
0000
0000
0100
0000
1000
0100
0000
0100
0010
0000
,
0010
0001
0000
0001
1000
0000
1000
0010
0000
0010
0100
0000
0100
0010
0000
0010
,
0100
0000
0100
0010
0000
0010
0100
0000
1001
0000
0000
0000
0000
0000
0000
0000
,
0000
0000
0000
0000
0000
0000
0000
0000
0000
1000
0000
0001
0100
0000
0010
1000
,
0000
0100
0010
0001
0000
0010
0100
0100
1000
0000
0000
0000
0100
0000
0000
0000
,
1000
0010
0100
0000
0001
0000
0010
0000
,
0100
0010
0001
0000
1000
0000
0001
0000
,
0100
0010
1000
0000
0001
0000
0100
0000
,
0010
0000
0000
0000
1000
0000
0000
0000
2002
3003
0000
0000
0000
0000
0001
0000
,
0000
1000
0000
0000
0010
0000
0000
0100
0000
0000
0001
0000
0000
0000
1000
0000
,
0000
0001
0000
0000
0220
0000
0000
0000
0000
0000
0330
0000
1000
0001
0100
0000
,
0010
1000
0000
0000
0100
0010
0001
0000
1000
0100
0000
0000
1000
0010
0100
0000
,
0001
1000
0000
0000
0001
0010
0100
0000
0010
0001
0000
0000
1000
0100
1000
0000
,
0001
0010
0001
0000
0100
0001
0100
0000
0010
1000
0010
0000
0000
0000
0000
0000
,
0110
0000
0000
0000
4000
0004
0000
0000
,
0000
0000
0000
3003
,
0110
1010
0101
0011
,
0110
0000
0000
0000
1100
0000
1000
0000
0010
1000
0010
0000
0100
0000
0001
1000
,
0100
0011
1100
1001
,
0101
0000
0011
0000
0110
0000
1100
1000
,
1010
0000
0110
0000
0101
0000
0011
0010
,
0110
0000
0000
1100
0000
0000
0011
0000
2002
0000
0000
0000
0000
0000
3003
0000
,
0110
0000
0000
0000
0100
0000
0001
0100
0001
0000
1000
0000
0010
0100
0010
0000
,
1000
0000
1001
1001
1001
0000
1010
0000
,
1001
0000
0000
0000
0101
0000
0000
0000
0011
0000
0010
0100
1000
0000
1000
0000
,
0002
0000
0103
0000
0010
1000
0001
0001
,
0001
0000
1000
0001
1000
0000
0000
0000
0100
0000
0010
0000
0100
0010
0000
0010
,
0100
0000
0100
1000
0010
0000
0000
0110
0000
0000
0101
0000
0000
1010
0000
0000
,
1001
0000
0000
0000
0110
0000
1000
0000
0010
1000
0000
0001
0010
0000
0100
0010
,
0000
0001
1000
0000
2002
0000
0000
0000
0000
0000
0000
0000
0000
0000
0000
0000
,
3003
0000
0000
0000
;

//--------------- dance-single - Pandemonium X ----------------
#NOTES:
     dance-single:
     Pandemonium X:
     Challenge:
     16:
     0.738703,0.970715,0.254725,0.110381,0.942483,609,579,30,13,0,0,1,0,0,0.738703,0.970715,0.254725,0.110381,0.942483,609,579,30,13,0,0,1,0,0:
0000
0000
0000
0000
,
0000
0000
0000
0000
,
0000
0000
0000
0000
,
0000
0000
0000
0000
,
0000
0000
0000
0000
,
0001
0001
1000
0100
0001
0100
0010
0001
,
1000
0000
1000
0000
0010
0000
0100
0000
1000
0000
0100
0000
0010
0000
0100
0001
,
0010
0000
0000
0100
0000
0000
1000
0000
,
0001
0000
0000
0000
0220
0000
0000
0330
,
1000
0010
0100
0001
,
0010
0000
0000
0000
1000
0000
0000
0000
0010
0000
0000
0000
0001
0100
0010
0100
,
0001
0100
0010
1000
,
0001
0000
0000
0000
0010
0000
0100
1000
0010
0000
0100
0001
0000
0010
0100
0000
,
1000
0000
0010
0000
0100
0000
0010
0000
1000
0000
0001
0010
0000
0010
0100
0000
,
0010
0000
0001
0000
0100
0000
0010
0000
0100
0000
0001
0100
0000
0100
0010
0000
,
0100
0010
0100
0010
1000
0001
1000
0001
0010
0001
0010
0100
1000
0010
0100
0001
,
1000
0000
0000
0000
0001
0000
1000
0000
0100
0000
1000
0000
0001
0000
1000
0010
,
0000
0010
0001
0000
0001
0010
0000
0010
1000
0000
1000
0010
0000
0000
0100
0000
,
0010
0000
1000
0000
0000
0000
1000
0000
0100
0000
0010
0000
0001
0000
0001
0100
,
0000
0100
1000
0000
1000
0100
0000
0100
0001
0000
0001
0100
0000
0000
0010
0000
,
1000
0000
0001
0000
0000
0000
1000
0000
0100
0000
0010
0000
0001
0000
1000
0010
,
0000
0010
0001
0000
0001
0010
0000
0010
1000
0000
1000
0010
0000
0000
0100
0000
,
0001
0000
1000
0000
0001
0000
0001
1000
0000
0000
1000
0000
1000
0001
0000
0000
,
0001
0000
0001
1000
0000
1000
0010
0000
0010
0100
0000
0100
0001
0000
0001
0010
,
0000
0000
0010
0000
0100
0000
0000
0000
1000
0000
1000
0100
0010
0000
0001
1000
1001
0000
0000
0000
1000
0000
0010
0000
0000
0000
0010
0000
0001
0000
0000
0000
,
0001
0010
0000
0010
1000
0000
1000
0001
0000
0000
1000
0000
0010
0000
0010
0000
,
0000
0000
0100
0000
0010
0000
1000
0000
0001
0000
0001
0100
0000
0100
1000
0000
,
1000
0100
0000
0100
0001
0000
1000
0001
0000
0000
1000
0000
0001
0000
0100
0000
,
0000
0000
0010
0000
0100
0000
0001
0000
1000
0000
1000
0010
0000
0010
0001
0000
,
0001
0010
0000
0010
1000
0000
1000
0001
0000
0000
0001
0000
0010
0000
0100
0000
,
1100
0000
0000
0000
0000
0000
0010
0000
0000
0001
0000
0000
0000
0000
0000
0000
0000
0000
0101
0000
0000
0000
0000
0000
0010
0000
0000
1000
0000
0000
0000
0000
0000
0000
0000
0000
0001
0000
1000
0000
0001
0000
1000
0000
0000
0010
0000
0000
,
0000
0100
0010
0000
1000
0001
0000
0100
0010
0000
1000
0001
0000
0100
0001
0000
,
0000
0000
0000
0000
0011
0000
0001
0000
0100
0010
0000
0100
0101
0000
0001
0000
,
0010
0000
0000
0100
0000
0000
0000
0000
0000
0010
0000
0000
0110
0000
0000
0000
0000
0000
0100
0000
0000
0000
0000
0000
1000
0000
0000
0010
0000
0000
0000
0000
0000
0010
0000
0000
0100
0000
1000
0000
0100
0000
0010
0000
1000
0000
0001
0000
,
1000
0000
0001
0000
0100
0010
0000
0100
0101
0000
0001
0000
1000
0100
0000
0010
,
0011
0000
0010
0100
0000
0100
1000
0000
1001
0000
0000
0000
0120
0030
0000
0000
,
1000
0001
1000
0000
0100
0010
0000
0100
1000
0010
1000
0000
0010
0100
0000
0001
,
0010
0001
1000
0000
0001
0100
0000
0010
1000
0000
1000
0100
0000
0100
0010
0000
,
0010
0001
0000
0001
0010
0000
0010
0100
0000
0000
0010
0000
0001
0010
0000
0100
,
1000
0000
0001
0010
0000
0100
1000
0000
1001
0000
0000
0000
0000
0000
0000
0000
,
0000
0000
0000
0000
0000
0000
0000
0000
0000
0000
0000
0000
0000
0000
0000
0000
0000
0000
0000
0000
0000
0000
0000
0000
0000
0000
0000
0001
0000
0000
0100
0010
0100
0010
0000
0000
1000
0000
0000
0000
0000
0000
0000
0000
0000
0001
0000
0000
,
0000
0000
0000
0000
0000
1000
0001
0000
0000
0000
0000
0000
0000
0000
0100
0010
0000
0000
1000
0000
0000
0100
0000
0000
0010
0000
0000
0000
0000
0000
0001
0000
0000
0000
0000
0000
0100
0000
0000
0000
0000
0000
0010
0000
0000
1000
0000
0000
,
0000
0100
0010
0000
0100
0000
1000
0000
0001
0000
0010
0000
0100
0000
0010
0001
,
0000
0100
0010
0000
1000
0001
0000
1000
0001
0000
0001
0000
1000
0000
0010
0100
,
0000
0001
0010
0000
0100
0000
0010
0000
0100
0000
1000
0010
0100
0000
0100
0000
,
0100
0001
0010
0000
0100
0000
1000
0000
2004
3003
0000
0000
1000
0000
0000
0000
,
0010
0100
0001
0010
,
0001
0000
0000
0000
0220
0000
0000
0000
0000
0000
0330
0000
1000
0100
1000
0000
,
0001
0010
0000
0000
0001
0100
0001
0000
1000
0010
0000
0000
1000
0001
1000
0000
,
0010
0100
0000
0000
0010
0100
0010
0000
1000
0001
0000
0000
0001
0100
0001
0000
,
1000
0010
1000
0000
0001
0100
0010
1000
0100
0010
0100
1000
0001
0000
0000
0000
,
0110
0000
0000
0000
0000
0000
0000
0000
0000
0000
0000
0000
1000
0000
0000
0001
0000
0000
1000
0000
0001
0000
1000
0000
,
0001
0000
0000
1000
0000
0000
0001
0000
0000
1000
0000
0000
0001
0000
0000
1000
0000
0000
0001
0000
0000
1000
0000
0000
0001
0000
1000
0000
0001
0000
1000
0000
0001
0000
1000
0000
0020
0000
0000
0230
0000
0000
0302
0000
0000
2003
0000
0000
,
3100
0000
0010
0000
0001
0100
0000
0010
1000
0000
0100
0010
0000
0100
1000
0000
,
0001
0000
0000
0000
0000
0000
1000
0000
0000
0000
0000
0000
0010
0000
0000
0100
0000
0000
0000
0000
0000
0001
0000
0000
0010
0000
0000
0000
0000
0000
0100
0000
0000
0010
0000
0000
0000
0000
0000
0001
0000
0000
1000
0000
0001
0000
1000
0000
,
0001
0000
1000
0000
0010
0100
0000
0010
1000
0000
0010
0100
0000
0001
0010
0000
,
0100
0000
1000
0000
0001
0010
0000
0001
0100
0000
0001
0010
0000
0100
0010
0000
,
0011
0000
0000
0000
0000
0000
0001
0000
0000
0100
0000
0000
0000
0000
0000
0010
0000
0000
1000
0000
0000
0000
0000
0000
0100
0000
0000
0010
0000
0000
0000
0000
0000
0100
0000
0000
1000
0000
0000
0000
0000
0000
0001
0000
1000
0000
0001
0000
,
1000
0000
0000
0101
0000
0000
0011
0000
0010
0100
1000
0100
0010
0100
1000
0001
,
0100
0000
0000
0000
0010
0000
0010
0100
0001
0000
0001
0000
0001
0010
0100
0000
,
0022
0033
0000
0000
1100
0000
1010
0000
1100
0100
0000
1000
0010
0000
0100
0010
,
0000
1000
0001
0000
0010
0000
0001
0000
0100
0010
0000
1000
0100
0000
0010
0100
,
0000
1000
0001
0000
0101
0000
0000
0000
0101
0000
0110
0000
1010
0000
1100
0000
,
1001
0000
0000
0000
0000
0000
0001
0000
0100
0000
0001
0000
0100
0000
0000
0000
0000
0000
0000
0000
0000
0000
0000
0000
1010
0000
0000
0000
0000
0000
0101
0000
0000
0000
0000
0000
0001
0000
0000
0010
0000
0000
0000
0000
0000
0010
0000
0000
,
0001
0000
0000
0000
0000
0000
1000
0000
0010
0000
1000
0000
0010
0000
0000
0100
0000
0000
0010
0000
0000
1000
0000
0000
0010
0000
0000
1000
0000
0000
0001
0000
0000
1000
0000
0000
0001
0000
0000
0010
0000
0000
0001
0000
0000
0010
0000
0000
,
0100
0000
0000
0000
0000
0000
1000
0000
0100
0000
1000
0000
0001
0000
0000
0100
0000
0000
0010
0000
0000
0100
0000
0000
0001
0000
0000
0010
0000
0000
0100
0000
0000
1000
0000
0000
0100
0000
0000
0010
0000
0000
0100
0000
0000
1000
0000
0000
,
0001
0000
0000
0000
0000
0000
0000
0000
0000
0000
0000
0000
0100
0000
0000
0000
0000
0000
0000
0000
0000
0000
0000
0000
0001
0000
0000
0000
0000
0000
0000
0000
0000
0000
0000
0000
1000
0000
0000
0000
0000
0000
0000
0000
0000
0000
0000
0000
0001
0000
0000
0000
0000
0000
0000
0000
0000
0000
0000
0000
0001
0000
0000
0000
0000
0000
0000
0000
0000
0000
0000
0000
0001
0000
0000
0000
0000
0000
0000
0000
0000
0000
0000
0000
0001
0000
0000
0000
0000
0000
0000
0000
0000
0000
0000
0000
0000
0000
0000
0000
0000
0000
0001
0000
0000
0000
0000
0000
0000
0000
0000
0000
0000
0000
0000
0000
0000
0000
0000
0001
0000
0000
0000
0000
0000
0000
0000
0000
0000
0000
0000
0000
0000
0000
0000
0000
0001
0000
0000
0000
0000
0000
0000
0000
0000
0000
0000
0000
0000
0000
0000
0000
0000
0000
0000
0000
0001
0000
0000
0000
0000
0000
0000
0000
0000
0000
0000
0000
0000
0000
0000
0000
0000
0000
0000
0000
0000
0001
0000
0000
0000
0000
0000
0000
0000
0000
0000
0000
0000
0000
0000
0000
,
0000
0000
0000
0001
0000
0000
0000
0000
0000
0000
0000
0000
0000
0002
0000
0000
0003
0000
0000
0000
0000
0000
0000
0000
0000
0000
0000
0000
0000
0000
0000
0000
0000
0000
0000
0000
0000
0000
0000
0000
0000
0000
0000
0000
0000
0000
0000
0000
0000
0000
0000
0000
0000
0000
0000
0000
0000
0000
0000
0000
0000
0000
0000
0000
;

//--------------- dance-double - Pandemonium X ----------------
#NOTES:
     dance-double:
     Pandemonium X:
     Easy:
     7:
     0.249873,0.365637,0.186798,0.067927,0.0467,206,184,22,8,0,0,0,0,0,0.249873,0.365637,0.186798,0.067927,0.0467,206,184,22,8,0,0,0,0,0:
00000000
00000000
00000000
00000000
,
00000000
00000000
00000000
00000000
,
00000000
00000000
00000000
00000000
,
00000000
00000000
00000000
00000000
,
00000000
00000000
00000000
00000000
,
10000000
00000000
00000000
00000000
,
01000000
00000000
00000000
00000000
,
00100000
00000000
00000000
00010000
00000000
00000000
01000000
00000000
,
00001000
00000000
00022000
00000000
,
00033000
00000000
00000000
00000000
,
00000000
00000000
00000000
00000000
00000000
00000000
00000100
00010000
,
00000100
00000000
00000000
00000000
,
00000000
00000000
00000000
00000000
00000000
00000000
00001000
00000000
00000010
00000000
00000000
00000010
00000000
00000000
00000010
00000000
,
00000100
00000001
00001000
00000100
,
00010000
00001000
01000000
00100000
,
10000000
00000000
00000000
00000000
01000000
00000000
00000000
00000000
00100000
00000000
00000000
00001000
00000000
00000000
00010000
00000000
,
00011000
00010000
00000100
00001100
,
00000000
00000000
00000100
00010100
,
00000000
00010000
00001000
01001000
,
00000000
00000000
01000000
01100000
,
01000000
00010000
10000000
00000000
01000000
00000000
00110000
00000000
,
00000000
00000000
00100000
00101000
,
00000000
00000000
00010000
00000000
00000000
00000100
00000000
00000000
,
00001000
00000000
00000000
00000010
00000000
00000000
00000100
00000000
,
00000001
00002000
00003100
00000000
,
00000000
00010000
00011000
00000000
,
00001000
01000000
01100000
00000000
,
00000000
00000000
01000000
00000000
10010000
00000000
10000000
01000000
,
10000000
00010000
00110000
00000000
,
00000000
00100000
00101000
00000000
,
00010000
00000000
00000000
00000100
00000000
00000000
00001000
00000000
00000000
00000010
00000000
00000000
00000100
00000000
00000000
00000002
,
00000000
00000000
00000000
00000000
,
00000003
00001000
00000000
00000010
,
00000000
00000000
00010000
00000000
00000000
00000000
00001000
01000000
,
00100000
00000000
00000000
00000000
00000000
00000000
00000000
00000000
10000000
00000000
00000000
00000000
00000000
00000000
00000000
01000000
,
00000000
00000000
00110000
00011000
,
00001010
00000000
00000100
00000000
,
00000001
00000000
00001000
00000000
,
00000100
00000000
00000000
00000000
00000000
00000000
00000000
00000000
00000000
00000000
00010000
00000000
00000000
00001000
00000000
00000000
,
00010000
00000000
00000000
00001000
00000000
00000000
00010000
00000000
00000000
00000000
00000000
00000000
00000000
00000000
00000000
00000000
,
00000000
00000000
00000000
00000000
00000000
00000000
00000000
00000000
00000000
00000100
00000000
00000000
00010000
00000000
00000000
00001000
,
00000000
00000000
01000000
00000000
00000000
00000000
00100000
10000000
00010000
00000000
00000000
00000000
10000000
00000000
00000000
00000000
,
00000000
00010000
00000000
00100000
,
00000000
00001000
00000000
00010000
,
00000000
00000000
00000100
00000000
00001000
00000000
00000000
00001000
,
00000000
00001000
00001001
00000001
,
00000000
00000100
00000000
00000010
,
00000000
00020020
00030000
00000130
,
00000010
00001000
00000100
00010000
,
00001000
01000000
00001000
01000000
,
00100000
10000000
00010000
01100000
,
00110000
00000000
00002000
00000000
,
00000000
00000000
00000000
00003000
,
00010000
00000100
00001000
00000010
,
00000100
00000001
00000010
00001000
,
00000010
00000001
00001000
00000100
,
00010000
00001000
01000000
00100000
,
10000000
00010000
00100000
01000000
,
10000000
00010000
00100000
00001000
,
00011000
00000000
00000100
00000000
00000000
00000100
00000000
00000000
,
00000100
00000000
00001000
00000010
00001000
00000000
00000010
00000000
,
00000100
00000001
00000010
00000100
,
00001000
00000000
00000100
00000000
00010000
00001000
00010000
00001000
,
00010000
00000000
00001000
00000000
01000000
00100000
01000000
00100000
,
01000000
00100000
10000000
00010000
,
00100000
00102000
00000000
00000000
,
00000000
00013000
00000000
00000000
;

//--------------- dance-double - Pandemonium X ----------------
#NOTES:
     dance-double:
     Pandemonium X:
     Medium:
     10:
     0.382088,0.456807,0.254725,0.152835,0.191044,315,285,30,18,0,0,0,0,0,0.382088,0.456807,0.254725,0.152835,0.191044,315,285,30,18,0,0,0,0,0:
00000000
00000000
00000000
00000000
,
00000000
00000000
00000000
00000000
,
00000000
00000000
00000000
00000000
,
00000000
00000000
00000000
00000000
,
00000000
00000000
00000000
00000000
,
10000000
00000000
00000000
00000000
,
01000000
00000000
00000000
00000000
,
00010000
00000000
00000000
00001000
00000000
00000000
00000010
00000000
,
00000001
00000000
00002002
00000000
,
00003003
00000000
00000000
00000000
,
00000000
00000000
00000000
00000000
00000000
00000000
00000001
00000100
,
00001000
00000000
00000000
00000000
,
00000000
00000000
00000000
00000000
00000000
00000000
00001000
00000000
00000100
00000000
00000010
00001000
00000000
00001000
00000100
00000000
,
00010000
00000000
00001000
00000000
01000000
00100000
01000000
00000000
,
10000000
00000000
00010000
00000000
00100000
00001000
00100000
00000000
,
00001000
00000000
00010000
00000000
00000100
00000000
00001000
00000000
00000010
00000000
00000000
00000100
00000000
00000000
00000001
00000000
,
00001001
00000000
00000000
00000000
00000000
00000000
00000001
00000000
00000010
00000000
00000001
00000000
00001000
00000000
00000000
00001000
,
00000000
00000000
00000100
00000000
00000000
00000100
00000000
00000000
00010000
00000000
00000000
00010000
00000000
00000000
00001000
00000000
,
01000000
00000000
00100000
00000000
00000000
00000000
01000000
00000000
00010000
00000000
10000000
00000000
01000000
00000000
00000000
01000000
,
00000000
00000000
00100000
00000000
00000000
00100000
00000000
00000000
00001000
00000000
00000000
00001000
00000000
00000000
00010000
00000000
,
00000100
00000000
00001000
00000000
00000000
00000000
00000010
00000000
00000100
00000000
00000001
00000000
00000010
00000000
00000000
00000010
,
00000000
00000000
00000100
00000000
00000000
00000100
00000000
00000000
00010000
00000000
00000000
00010000
00000000
00000000
00001000
00000000
,
00100000
00000000
00010000
00000000
01000000
00000000
00000000
01001000
00000000
00000000
00001000
00000000
00000000
00011000
00000000
00000000
,
00010000
00000000
00000000
00010100
00000000
00000000
00001000
00000000
00000000
00001000
00000000
00000000
00001000
00000000
00000000
00001000
,
00000000
00000000
00001000
00000000
00000000
00000000
00000000
00000000
00000101
00000000
00000000
00000001
00000000
00000000
00000010
00000000
,
00000000
00001000
00000000
00000000
00000010
00000000
00000000
00000100
00000000
00000000
00000010
00000000
00000001
00000000
00001000
00000000
,
00000000
00000000
00000010
00000000
00010000
00000000
00001000
00000000
01000000
00000000
00000000
01000000
00000000
00000000
00010000
00000000
,
00000000
00100000
00000000
00000000
10000000
00000000
00000000
00100000
00000000
00000000
01000000
00000000
00100000
00000000
00010000
00000000
,
00000000
00000000
00100000
00000000
00001000
00000000
00010000
00000000
00000100
00000000
00000000
00001000
00000000
00000000
00000100
00000000
,
00000000
00010000
00000000
00000000
00001000
00000000
00000000
01000000
00000000
00000000
00100000
00000000
10000000
00000000
00010000
00000000
,
00110000
00000000
00000000
00100000
00000000
00000000
00101000
00000000
00000000
00010000
00000000
00000000
00011000
00000000
00000000
00010100
,
00000000
00000000
00001000
00000000
00000000
00001000
00000000
00000000
00001000
00000000
00000000
00001000
00000000
00000000
00000010
00000000
,
00000100
00000120
00001030
00001200
,
00010300
00000000
00012000
00000000
01003000
00000000
00100000
10000000
,
21000000
30100000
01020000
00130000
,
00102000
00013000
00011000
00000000
,
00020100
00031000
00012000
01003000
,
00021000
00030010
00000210
00000301
,
00000010
00000000
00000000
00000000
00000100
00000000
00000000
00001000
00000000
00000000
00000100
00000000
00000000
00010000
00000000
00000000
,
00001000
00000000
00000000
01000000
00000000
00000000
00100000
00000000
10010000
00000000
00000000
00000000
00000000
00000000
00000000
00000000
,
00000000
00000000
00000000
00000000
00000000
00000000
00000000
00000000
00000000
00100000
00000000
00001000
00010000
00000000
00010000
00000100
,
00000000
00000100
00001000
00000000
00000000
00000000
00001000
00000100
00000010
00000000
00000000
00000000
00000100
00000000
00000000
00000000
,
00000010
00000001
00000010
00000000
00000001
00000000
00000100
00000000
,
00000010
00001000
00000010
00000000
00001000
00000000
00000100
00000000
,
00010000
00000100
00010000
00000000
00001000
00000000
00000000
01000000
,
00000000
00100000
10010000
10000000
,
10000000
01000000
01000000
00100000
,
00100000
00000000
00022000
00000000
00033000
00000000
00000100
00001000
,
00000100
00000000
00001000
00000010
00001000
00000000
00000001
00000100
,
00000001
00000000
00000010
00000001
00000010
00000000
00000001
00000100
,
00000010
00010000
00000100
00010000
00001000
00100000
00101000
00000000
,
00210000
00000000
00002000
00000000
,
00000000
00000000
00000000
00303000
,
00100000
00010000
01000000
00100000
,
10000000
00000000
00010000
00100000
01000000
01000000
00100000
00010000
,
10000000
00010000
00100000
00001000
,
00010000
00000000
00000100
00000000
00001000
00000000
00000010
00000100
,
00000001
00000000
00000010
00000000
00000100
00000000
00001000
00000100
,
00010000
00000000
00000000
00001000
00000000
00000000
01000000
00000000
00000000
00100000
00000000
00000000
10000000
00000000
01000000
00000000
,
00100000
00000000
00110000
00000000
00000000
00001010
00000000
00000000
,
00011000
00000000
00010000
00000100
00001000
00000000
00000010
00000000
,
00000100
00000000
00000001
00000000
00000010
00000000
00000100
00001000
,
00000020
00000000
00001030
00000000
00000100
00010000
00001000
01000000
,
00100000
00000000
01100000
00000000
01000000
00010000
00100000
00001000
,
00010000
00000000
00000000
00000000
00000100
00000000
00001000
00000000
00000000
00000010
00000000
00000000
00000100
00000000
00000000
00000001
,
00000000
00000000
00000010
00000000
00000000
00000000
00000001
00000000
00000000
00000100
00000000
00000000
00000010
00000000
00000000
00010000
,
00000000
00001000
00020000
00000000
00000000
00000000
00000000
00000000
,
00000000
00030000
00000000
00000000
;

//--------------- dance-double - Pandemonium X ----------------
#NOTES:
     dance-double:
     Pandemonium X:
     Hard:
     14:
     0.622257,0.742312,0.670776,0.127363,0.437278,513,434,79,15,0,0,2,0,0,0.622257,0.742312,0.670776,0.127363,0.437278,513,434,79,15,0,0,2,0,0:
00000000
00000000
00000000
00000000
,
00000000
00000000
00000000
00000000
,
00000000
00000000
00000000
00000000
,
00000000
00000000
00000000
00000000
,
00000000
00000000
00000000
00000000
,
10000000
00000000
00000000
00000000
,
01000000
00000000
00000000
00000000
,
00010000
00000000
00000000
00000100
00000000
00000000
00000010
00000000
,
00000001
00000000
00000000
00000000
00002020
00000000
00000000
00003000
,
00000130
00000010
00001000
00000100
,
00000010
00000000
00000000
00000000
00000001
00000000
00000000
00000000
00001000
00000000
00000000
00000000
00000010
00010000
00001000
00100000
,
00001000
00010000
00100000
10000000
,
00100000
00000000
00000000
00000000
01000000
00000000
00100000
00001000
00010000
00000000
00000100
00001000
00000000
00000010
00000100
00000000
,
00000101
00000100
00000010
00000010
00001000
00000100
00010000
00001000
,
01000000
00100000
10000000
00010000
00100000
00001000
00010000
00000100
,
00010000
00000000
00001000
00000000
00100000
00000000
01000000
00000000
10000000
00000000
10000000
01000000
00000000
00100000
00010000
00000000
,
00011000
00000000
00000000
00000000
00010000
00000000
00000100
00000000
00001000
00000000
00000010
00000000
00000100
00000000
00000001
00000100
,
00000000
00000010
00001000
00000000
00000001
00000100
00000000
00000010
00001000
00000000
00000001
00000100
00000000
00000000
00000001
00000000
,
00001000
00000000
00000100
00000000
00000000
00000000
00010000
00000000
00001000
00000000
01000000
00000000
00100000
00000000
10000000
00010000
,
00000000
10000000
00010000
00000000
10000000
00100000
00000000
10000000
01000000
00000000
10000000
00100000
00000000
00000000
10000000
00000000
,
01000000
00000000
00100000
00000000
00000000
00000000
00001000
00000000
00010000
00000000
00000100
00000000
00001000
00000000
00000001
00000010
,
00000000
00000001
00000100
00000000
00000001
00000010
00000000
00000001
00001000
00000000
00000001
00000100
00000000
00000000
00000001
00000000
,
00000010
00000000
00000100
00000000
00001000
00000000
00000100
00010000
00000000
00000000
00001000
00000000
01000000
00100000
00000000
00000000
,
10000000
00000000
00010000
00100000
00000000
00000000
01000000
00000000
10000000
00010000
00000000
00010000
01000000
00000000
01000000
00001000
,
00000000
00001000
00010000
00000000
00000100
00001000
00000010
00000100
00000101
00000000
00000001
00000100
00000000
00000001
00001000
00000000
,
00000001
00000010
00000000
00000001
00001000
00000000
00000001
00000010
00000000
00000000
00000001
00000000
00000010
00000000
00001000
00000000
,
00000000
00000000
00000010
00000000
00000100
00000000
00001000
00000000
00000100
00000000
00010000
00000100
00000000
00010000
00001000
00000000
,
00010000
00000100
00000000
00010000
00001000
00000000
00010000
00000010
00000000
00000000
00000100
00000000
00001000
00000000
00000100
00000000
,
00000000
00000000
00000001
00000000
00000100
00000000
00000010
00000000
00001000
00000000
00000100
00010000
00000000
00001000
00100000
00000000
,
00001000
00010000
00000000
00001000
01000000
00000000
00100000
10000000
00000000
01000000
00100000
00000000
00001000
00000000
00010000
00000000
,
00010100
00000000
00000100
00010000
00000000
00000000
00011000
00000000
00001000
00010000
00000000
00000000
00101000
00000000
00100000
00001000
,
00000000
00001000
00010000
00000000
00010000
00000100
00000000
00000100
00010000
00000000
00010000
00001000
00000000
00001000
00100000
00000000
,
01000000
00000000
01100000
10000000
00010000
00100000
00101000
00010000
,
00000100
00000000
00000000
00001000
00000000
00000000
00001001
00000000
00000000
00000001
00000000
00000000
00000010
00000000
00000000
00000100
00000000
00000000
00001000
00000100
00010000
00000100
00001000
00000100
,
00000110
00000010
00000001
00000100
00001010
00000010
00010000
00001000
,
00010100
00001000
00010000
00001000
01001000
00000000
20200000
30300000
,
01010000
00100000
10000000
00010000
00110000
00100000
00001000
00010000
,
00010100
00001000
00000010
00000100
00000101
00000010
00001000
00000001
,
00000011
00000000
00000010
00000000
00000100
00000000
00001000
00000010
00000000
00000000
00000100
00000000
00000010
00001000
00000000
00001000
,
00000100
00000000
00000100
00010000
00000000
00010000
00001000
00000000
01001000
00000000
00000000
00000000
00000000
00000000
00000000
00000000
,
00000000
00000000
00000000
00000000
00000000
00000000
00000000
00000000
00000000
00000000
00000000
00000000
00000000
00000000
00000000
00000000
00000000
00000000
01000000
00000000
00100000
01000000
00100000
00000000
10000000
00000000
00000000
10000000
00000000
00000000
10000000
00000000
,
00000000
00000000
01000000
00100000
01000000
00000000
00000000
01000000
00000000
00000000
00100000
00000000
00001000
00000000
00010000
00000000
00000010
00000000
00000000
00000000
00000100
00000000
00000000
00000000
00000101
00000000
00000000
00000000
00000001
00000000
00000010
00000000
,
00000000
00000100
00001000
00000000
00001100
00000000
00000100
00000000
00010000
00000000
00001000
00000000
00011000
00000000
00001000
01000000
,
00000000
00100000
10000000
00000000
01000000
00100000
00000000
00001000
00010000
00000000
00000010
00000000
00000110
00000000
00000100
00000010
,
00000000
00000100
00000001
00000000
00000011
00000000
00000010
00000000
00000100
00000000
00001000
00000100
00000000
00000000
00010000
00000000
,
00001000
01000000
00000000
00000000
00100000
00000000
00001000
00000000
00022000
00033000
00000000
00000000
00010000
00000000
00000000
00000000
,
00001000
00010000
00001000
00010000
,
00001000
00000000
00200020
00000000
00000000
00300030
00010000
00001000
,
02000000
00000000
03100000
10000000
02000000
00000000
03100000
00001000
,
00020000
00000000
00030100
00001000
00000020
00000000
00000130
00001000
,
00000100
00000001
00000010
00001000
00000010
00000001
00001100
00000000
,
00011000
00000000
00000000
00000000
00004000
00040000
00000000
00000000
,
00000000
00000000
00000000
00033000
,
00110000
11000000
10100000
01010000
,
00110000
00000000
00000000
00000000
01100000
00000000
11000000
00000000
10000000
00100000
01000000
00000000
01010000
00000000
00010000
00100000
,
00001000
00011000
00001100
00000110
,
00000011
00000000
00000101
00000000
00001010
00000000
00001100
00010100
,
00011000
00000000
00000000
00000000
00010100
00000000
00000000
00000000
00011000
00000000
00000000
00000000
01001000
00000000
00000000
00100000
,
01000000
00000000
00000000
10100000
00000000
00000000
01010000
00000000
00011000
00000000
00000000
00010000
00000010
00000100
00000001
00000000
,
00001000
00000000
00000000
00000000
00000100
00000000
00000100
00000010
00000001
00000000
00000001
00000000
00000001
00000010
00000100
00000000
,
00002000
00003000
00000000
00000000
00001010
00000000
00010010
00000000
00010100
00000000
00000000
00000000
00011000
00000000
00000000
00000000
,
00110000
00000000
00000000
00000000
11000000
00000000
00000000
00000000
10100000
00000000
00010000
01000000
00100000
00000000
10100000
00000000
,
10020000
00000000
00130000
00000000
00101000
00011000
00010010
00000110
,
00000101
00000000
00001001
00000000
00001010
00010100
00011000
01001000
,
01100000
00000000
00000000
00000000
01100000
00000000
00000000
01010000
00000000
00000000
00011000
00000000
00000000
00010100
00000000
00000000
,
00011000
00000000
00000000
00000000
00011000
00000000
00001000
00010000
00000100
00010000
00001000
01000000
00001000
00010000
00000100
00010000
,
00001000
00010000
00000100
00000000
00002000
00000000
00000000
00000000
00000000
00000000
00000000
00000000
00000000
00000000
00000000
00000000
,
00000000
00003000
00000000
00000000
;

//--------------- dance-double - Pandemonium X ----------------
#NOTES:
     dance-double:
     Pandemonium X:
     Challenge:
     15:
     0.697462,0.827193,0.466996,0.059436,0.793893,575,520,55,7,0,0,6,0,0,0.697462,0.827193,0.466996,0.059436,0.793893,575,520,55,7,0,0,6,0,0:
00000000
00000000
00000000
00000000
,
00000000
00000000
00000000
00000000
,
00000000
00000000
00000000
00000000
,
00000000
00000000
00000000
00000000
,
00000000
00000000
00000000
00000000
,
11000000
01000000
10000000
00100000
00010000
00100000
01000000
00010000
,
00100000
00000000
00100000
00000000
00001000
00000000
00010000
00000000
00000100
00000000
00000100
00000000
00001000
00000000
00000010
00000100
,
00000001
00000000
00000000
00001100
00000000
00000000
00010100
00000000
,
00011000
00000000
00000000
00000000
00000000
00000000
00000000
00000000
02200000
00000000
00000000
00000000
00000000
03300000
00000000
00000000
,
11000000
10000000
00100000
00010000
,
00100000
00000000
00000000
00000000
01000000
00000000
00000000
00000000
00010000
00000000
00000000
00000000
00100000
00001000
00010000
00000010
,
00001000
00000010
00000100
00001000
,
00000100
00000000
00000000
00000000
00000001
00000000
00000100
00000010
00001000
00000000
00000010
00010000
00000000
00010000
00001000
00000000
,
01000000
00000000
00100000
00000000
00100000
00000000
00100000
00000000
10000000
00000000
00010000
00100000
00000000
00001000
00010000
00000000
,
00000100
00001000
00000000
00000100
00000010
00000000
00000001
00000100
00000000
00000100
00000010
00000000
00001000
00000000
00000100
00000000
,
00010000
00000000
00001000
00000000
00100000
00000000
01000000
00000000
10000000
00100000
01000000
00010000
00100000
00001000
00010000
00000100
,
00001000
00000000
00000000
00000000
00000011
00000000
00000001
00000000
00000100
00000000
00000001
00000000
00001000
00000000
00000001
00000010
,
00000000
00000010
00001000
00000000
00001000
00000010
00000000
00000010
00000001
00000000
00000001
00001000
00000000
00000000
00000100
00000000
,
00010000
00000000
00001000
00000000
00000000
00000000
00010000
00000000
00001000
00000000
01000000
00000000
00100000
00000000
10000000
01000000
,
00000000
01000000
00010000
00000000
00010000
01000000
00000000
01000000
10000000
00000000
10000000
00010000
00000000
00000000
01000000
00000000
,
00010000
00000000
00100000
00000000
00000000
00000000
00001000
00000000
00010000
00000000
00000010
00000000
00000100
00000000
00001000
00000010
,
00000000
00000010
00000001
00000000
00000001
00000010
00000000
00000010
00001000
00000000
00000001
00001000
00000000
00000000
00000100
00000000
,
00000010
00000000
00000001
00000000
00000101
00000000
00000010
00001000
00000000
00000000
00001100
00000000
00000100
00010000
00000000
00000000
,
00011000
00000000
00000000
00001000
01000000
00000000
00100000
10000000
00000000
00010000
01000000
00000000
00010000
00100000
00000000
00001000
,
00010000
00000000
00000000
00000000
00000100
00000000
00001000
00000000
00000010
00000000
00010000
00001000
00010000
00000000
00001000
00000000
00100000
00000000
00000000
00000000
01000000
00000000
01000000
00000000
00000000
00000000
10000000
00000000
10000000
00000000
00000000
00000000
,
00100000
00100000
00000000
01000000
01000000
00000000
00010000
00010000
00000000
00000000
10000000
00000000
00010000
00000000
00100000
00000000
,
00000000
00000000
00001000
00000000
00010000
00000000
00000010
00000000
00000100
00000000
00000001
00000001
00000000
00000010
00000010
00000000
,
00000100
00000100
00000000
00000010
00000010
00000000
00000100
00000100
00000000
00000000
00001000
00000000
00000100
00000000
00000010
00000000
,
00000000
00000000
00000100
00000000
00010000
00000000
00001000
00000000
01000000
00000000
00100000
00100000
00000000
10000000
10000000
00000000
,
01000000
01000000
00000000
00100000
00100000
00000000
00010000
00010000
00000000
10000000
10000000
00000000
00010000
00000000
00100000
00000000
,
00101000
00000000
00000000
00000000
00000000
00000000
00010000
00000000
00000000
00000100
00000000
00000000
00000000
00000000
00000000
00000000
00000000
00000000
00001100
00000000
00000000
00000000
00000000
00000000
00000100
00000000
00000000
00010000
00000000
00000000
00000000
00000000
00000000
00000000
00000000
00000000
00001000
00000000
01000000
00000000
00001000
00000000
02000000
00000000
00000000
00000000
00000000
00000000
,
00000000
00000000
00000000
00000000
,
03040000
00030000
00000000
00000000
11000000
10000000
00010000
00000000
01000000
00010000
00000000
00100000
01000000
00010000
00100000
00000000
,
00001000
00000000
00000000
00000000
00000000
00000000
00010000
00000000
00000000
00000000
00000000
00000000
00000000
00000000
00000000
00000000
00000000
00000000
00000100
00000000
00000000
00000000
00000000
00000000
00001000
00000000
00000000
00000000
00000000
00000000
00000010
00000000
00000000
00000000
00000000
00000000
00000100
00000000
00000000
00000000
00000000
00000000
00000000
00000000
00000000
00000000
00000000
00000000
00000001
00000000
00000000
00000000
00000000
00000000
00000010
00000000
00000000
00000000
00000000
00000000
00000000
00000000
00000000
00000000
00000000
00000000
00000000
00000100
00000000
00000000
00000000
00000000
00001000
00000000
00000000
00000000
00000100
00000000
00000000
00000000
00010000
00000000
00000000
00000000
00001000
00000000
00000000
00000000
01000000
00000000
00000000
00000000
00100000
00000000
00000000
00000000
,
10000000
00100000
01000000
00000000
00010000
00100000
00000000
00001000
00010000
00000010
00000100
00000000
00000001
00000010
00000000
00000100
,
00001000
00000010
00010000
00000000
00001000
01000000
00000000
00100000
01100000
00000000
00000000
00000000
20020000
30030000
00000000
00000000
,
00110000
00100000
00001000
00000000
00010000
00000100
00000000
00001000
00000010
00000100
00000001
00000000
00000010
00000100
00000000
00000010
,
00000001
00000100
00000010
00000000
00001000
00000100
00000000
00000010
00000001
00000000
00000001
00000100
00000000
00000100
00000010
00000000
,
00000010
00010000
00000000
00010000
00001000
00000000
00001000
01000000
00000000
00000000
01100000
00000000
00000000
10100000
00000000
00000000
,
01010000
00000000
00000000
00110000
00000000
00000000
00101000
00000000
00011000
00000000
00000000
00000000
00000000
00000000
00000000
00000000
,
00000000
00000000
00000000
00000000
00000000
00000000
00000000
00000000
00000000
00000000
00000000
00000000
00000000
00000000
00000000
00000000
00000000
00000000
00010000
00000000
00001000
00010000
00001000
00010000
00001000
00000000
00000000
00001000
00000000
00000000
00010000
00000000
,
00000000
00010000
00000000
00000000
00001000
00000000
00000000
01000000
00000000
00000000
00000000
00000000
00100000
00000000
10000000
00000000
01000000
00000000
00000000
00000000
00100000
00000000
00000000
00000000
00110000
00000000
00000000
00000000
00100000
00000000
00001000
00000000
,
00000000
00010000
00000010
00000000
00000100
00000010
00000000
00000010
00000100
00000000
00000001
00000000
00000011
00000000
00000010
00000001
,
00000000
00001000
00000100
00000000
00010000
00010000
00000000
00010000
00001000
00000000
00010000
00000000
00001000
01000000
00000000
00100000
,
10000000
00000000
01000000
00000000
01100000
00000000
01000000
00000000
11000000
00000000
01000000
00100000
00010000
00000000
00110000
00000000
,
00100000
00001000
00010000
00000000
00011000
00000000
00001000
00000000
00040000
00030000
00000000
00000000
00001000
00000000
00000000
00000000
,
00010000
00001000
00010000
00001000
,
00010000
00000000
00000000
00000000
02000200
00000000
00000000
00000000
03000300
00000000
00000000
00000000
00010000
00001000
00100000
00000000
,
00100000
01000000
00000000
00000000
00100000
00001000
00010000
00000000
00010000
00000100
00000000
00000000
00001000
00000010
00000100
00000000
,
00000100
00000001
00000000
00000000
00000010
00000100
00000010
00000000
00000010
00000001
00000000
00000000
00001000
00000100
00001000
00000000
,
00000100
00010000
00000100
00000000
00010000
00001000
01000000
00100000
10000000
01000000
00100000
00010000
10000000
00000000
00000000
00000000
,
00110000
00000000
00000000
00000000
00004000
00400000
00000000
00000000
,
00000000
00000000
00000000
00000000
00000000
00000000
00000000
00000000
00000000
00000000
00303000
00000000
00010000
01000000
00001000
00010000
,
00000100
00000000
00001000
00000000
00000010
00000100
00000000
00000001
00000010
00000000
00000100
00010000
00000000
00001000
01000000
00000000
,
01100000
00000000
00000000
00000000
00000000
00000000
00100000
00000000
00000000
00000000
00000000
00000000
10000000
00000000
00000000
00010000
00000000
00000000
00000000
00000000
00000000
00100000
00000000
00000000
00001000
00000000
00000000
00010000
00000000
00000000
00001000
00000000
00000000
00000000
00000000
00000000
00010100
00000000
00000000
00000000
00000000
00000000
00000100
00000000
00001000
00000000
00000100
00000000
,
00001000
00000000
00000001
00000000
00000100
00000001
00000000
00000001
00000010
00000000
00000010
00000100
00000000
00000100
00001000
00000000
,
00010100
00000000
00010000
00000000
00001000
01000000
00000000
01000000
00100000
00000000
00100000
10000000
00000000
10000000
00010000
00000000
,
00110000
00000000
00100000
00000000
00001000
00010000
00000000
00010000
00000100
00000000
00000100
00010000
00000000
00010000
00001000
00000000
,
00101000
00000000
00000000
00110000
00000000
00000000
11000000
00000000
00000000
10100000
00000000
00000000
01000000
00100000
10000000
00000000
,
00010000
00000000
00000000
00000000
10000000
00000000
10000000
01000000
00010000
00000000
00010000
00000000
00010000
01000000
10000000
00000000
,
10010000
00000000
00110000
00101000
00011000
00000000
00010100
00000000
,
00001100
00000000
00000000
00000000
00000000
00000000
00000000
00000000
00000000
00000000
00000000
00000000
00000110
00000000
00000000
00000000
00000000
00000000
00000000
00000000
00000000
00000000
00000000
00000000
00000011
00000000
00000000
00000000
00000000
00000000
00001000
00000000
00000100
00000000
00001000
00000000
00000100
00000000
00000000
00000000
00000000
00000000
00000010
00000000
00000000
00000001
00000000
00000000
,
00000000
00000001
00000100
00000000
00000110
00000000
00000000
00000000
00001010
00000000
00011000
00000000
01001000
00000000
10100000
00000000
,
01010000
00000000
00000000
00000000
10010000
00000000
00000000
00000000
00110000
00000000
00101000
00000000
00010000
00000100
00000000
00001000
,
00000010
00000000
00000000
00000000
00000100
00000010
00000100
00000010
00001000
00000010
00001000
00000010
00001000
00000100
00001000
00000100
,
00010000
00000100
00010000
00000100
00001000
00000000
00000100
00000000
00010000
00001000
00000000
01000000
00100000
00000000
10000000
01000000
,
00000000
00100000
00010000
00000000
00004000
00040000
00000000
00000000
00000000
00000000
00000000
00000000
00000000
00000000
00000000
00000000
,
00000000
00000000
00000000
00033000
00000000
00000000
00000000
00000000
00000000
00000000
00000000
00000000
00000000
00000000
00000000
00000000
;
