#TITLE:合体せよ!ストロングイェーガー!!;
#SUBTITLE:;
#ARTIST:L.E.D.;
#TITLETRANSLIT:The Strong Jaeger;
#SUBTITLETRANSLIT:;
#ARTISTTRANSLIT:;
#GENRE:;
#CREDIT:;
#MUSIC:The Strong Jaeger.ogg;
#BANNER:;
#BACKGROUND:The Strong Jaeger-bg.png;
#CDTITLE:;
#SAMPLESTART:13.954;
#SAMPLELENGTH:12.397;
#SELECTABLE:YES;
#OFFSET:0.394;
#BPMS:0.000=154.980;
#STOPS:33.000=1.160
,94.000=1.160
,251.000=1.160
;
#ORIGIN:;
#TAGS:;
#PREVIEWVID:;
#JACKET:The Strong Jaeger-jacket.png;
#CDIMAGE:;
#DISCIMAGE:;
#BGCHANGES:;
#FGCHANGES:;

//--------------- dance-single - Pandemonium X ----------------
#NOTES:
     dance-single:
     Pandemonium X:
     Beginner:
     5:
     0,0,0,0,0:
0000
0000
0000
0000
,
0000
0000
0000
0000
,
0000
0000
0000
0000
,
0000
0000
0000
0000
,
0000
0000
0000
0000
,
0000
0001
0000
0000
,
0000
1000
0000
0000
,
0000
0001
0000
1000
,
0000
0110
0001
0000
,
0000
1000
0100
0000
,
0000
0010
0100
0000
,
0000
0010
0001
0001
,
0001
0000
1001
1000
,
0001
0000
0100
0000
,
0001
0000
1000
0100
,
1000
0000
0020
0000
,
0000
0130
1001
0000
,
0001
0000
0020
0000
,
0000
0000
0130
0000
,
0010
0000
0200
0000
,
0000
0000
1300
0000
,
0001
0000
2000
0000
,
0000
0000
3001
0000
,
1000
0000
0110
1001
,
0000
0000
0000
0000
,
0000
0000
0000
0110
,
0000
0000
0000
0000
,
0000
0000
0000
1000
,
0000
0001
0000
0100
,
0000
0010
0000
1010
,
0000
0101
0000
1010
,
0101
1010
0000
0001
,
0000
1000
0000
0100
,
0000
0010
0100
1000
,
0000
0010
0000
0100
,
0000
0001
0010
0100
,
0000
0010
0000
0001
,
0000
1000
0001
0100
,
0000
0010
0000
1000
,
0000
0001
1000
0020
,
0000
0000
0030
0200
,
0000
0000
0300
0010
,
0000
1000
0000
0100
,
0000
0010
0001
2000
,
0000
0000
3000
0002
,
0000
0000
0003
0100
,
0000
0010
0000
1000
,
0010
0100
0001
2000
,
0000
0000
0000
3000
,
0000
0000
0000
0002
,
0000
0000
0000
0003
,
0000
0000
0000
0100
,
0000
0000
0000
0010
,
0000
0000
0000
0100
,
0000
0010
0000
0100
,
0010
0100
0000
1001
,
0001
1000
0000
0100
,
1000
0010
0000
0100
,
0010
1000
0000
0001
,
0010
0100
0010
0001
,
0100
0010
0000
0100
,
0001
1000
0000
0100
,
0010
0001
0000
1100
,
0001
0000
1000
0010
,
1000
0000
0010
0100
,
0002
0000
0000
0003
,
2000
0000
0000
3000
,
0100
0000
1000
0010
,
0100
0000
0001
0010
,
0200
0000
0000
0300
,
0020
0000
0000
0030
,
1001
0000
0000
0000
;

//--------------- dance-single - Pandemonium X ----------------
#NOTES:
     dance-single:
     Pandemonium X:
     Easy:
     6:
     0,0,0,0,0:
0000
0000
0000
0000
,
0000
0000
0000
0000
,
0000
0000
0000
0000
,
0000
0000
0000
0000
,
0000
0000
0000
0000
,
0000
0110
0000
0000
,
0000
1001
0000
0000
,
0000
0110
0000
1001
,
0000
0000
1000
0001
,
0010
0000
0001
1000
,
0100
0100
1000
0001
,
0010
0100
1000
1000
,
1000
0001
1000
0010
,
0100
0000
0010
0100
,
0001
0000
0010
0100
,
1000
0000
0001
1000
,
0000
1000
0001
0100
,
0001
0010
0200
0000
,
0000
0000
0310
0001
,
1000
0010
0200
0000
,
0000
0000
0310
1000
,
0001
1000
0002
0000
,
0000
0000
0013
0100
,
1000
0001
0110
0001
,
0000
1000
0000
0100
,
0000
0010
0000
0011
,
0000
0001
0000
0100
,
0000
0010
0000
1000
,
0000
0001
0000
0010
,
0000
0001
0000
1000
,
0000
0010
0000
0100
,
0010
1000
0001
1000
,
0100
1000
0001
0100
,
0001
1000
1001
1000
,
0001
0010
0001
1000
,
0010
1000
1001
0001
,
0100
0010
1000
0001
,
0010
0100
1100
0100
,
1000
0100
0010
0001
,
0100
0010
0110
0202
,
0000
0000
0303
2020
,
0000
0000
3030
1000
,
0000
0001
0000
0010
,
0000
0100
0010
0022
,
0000
0000
0033
2200
,
0000
0000
3300
0001
,
0000
1000
0000
0010
,
0100
0001
1000
1001
,
0000
0000
0000
0000
,
0000
0000
0000
0000
0000
0110
0000
0000
,
0000
0000
0000
0000
,
0000
0000
0000
0101
,
0000
0000
0000
1010
,
0000
0000
0000
0101
,
0000
1010
0000
0101
,
1010
1100
0011
1001
,
0001
1000
0001
1000
,
0001
0010
0010
0001
,
1000
0001
1000
1000
,
0100
1000
0010
0100
,
0100
0001
0010
0100
,
0100
1000
0100
1000
,
0001
0100
0010
1001
,
0001
1000
0010
1000
,
0100
0001
0100
1000
,
0020
0000
0000
0000
,
0230
0000
0000
0000
,
0310
1000
0001
0010
,
0001
1000
0100
0010
,
0002
0000
0000
0000
,
2003
0000
0000
3000
,
0110
0000
0000
0000
;

//--------------- dance-single - Pandemonium X ----------------
#NOTES:
     dance-single:
     Pandemonium X:
     Medium:
     12:
     0.501087,0.603003,0.246297,0.033972,0.314241,413,384,29,4,0,0,0,0,0,0.501087,0.603003,0.246297,0.033972,0.314241,413,384,29,4,0,0,0,0,0:
0000
0000
0000
0000
,
0000
0000
0000
0000
,
0000
0000
0000
0000
,
0000
0000
0000
0000
,
0000
0000
0000
0000
,
0000
0000
0000
0000
1000
0000
0000
0001
0000
0000
0010
0000
0000
0001
0000
0000
,
1000
0000
1000
0000
0001
0000
0000
0100
0000
0000
0001
0000
0000
1000
0000
0000
,
0001
0000
0010
0000
0001
0000
0000
0001
0000
0000
1000
0000
0000
1000
0000
0000
,
0010
0000
0100
0000
1001
0000
0000
0000
0001
0000
0000
0100
0000
0000
0001
0000
,
0010
0100
0000
0000
0010
0000
0001
0000
1000
0000
0000
0001
0000
0000
1000
0000
,
0000
0000
0100
0000
0001
0000
0100
0000
1000
0000
0000
0010
0000
0000
0100
0000
,
0001
1000
0000
0000
0001
0000
0100
0000
0110
0000
0000
0101
0000
0000
1010
0000
,
0000
0000
0001
0000
1000
0000
1000
0000
0100
0000
0000
0010
0000
0000
0100
0000
,
1000
0001
0000
0000
0100
0000
0001
0000
0010
0000
0000
0001
0000
0000
0100
0000
,
0000
0000
0010
0000
0001
0000
0010
0000
1000
0000
0000
0001
0000
0000
0010
0000
,
0100
1000
0000
0000
0001
0000
1000
0000
0110
0000
0000
0000
1000
0000
0001
0000
,
0000
0000
1000
0000
1001
0000
0110
0000
1001
0000
0000
1000
0000
0000
0100
0000
,
1000
0000
0010
0100
0001
0010
1000
0010
,
0100
0000
1000
0000
0010
0000
0100
0000
0001
0000
0000
1000
0000
0000
0001
0000
,
0100
0000
0010
1000
0100
0001
0100
1000
,
0010
0000
0100
0000
1000
0000
0100
0000
0010
0000
0000
1000
0000
0000
0001
0000
,
0010
0000
0100
0010
0001
0010
1000
0010
,
0100
1000
0001
0100
0010
0001
0010
1000
,
0001
1000
0100
0010
1001
0000
0000
0001
,
0000
0001
0000
0000
0001
0000
0000
0001
0000
0000
0001
0000
1000
0000
0000
1000
,
0000
0000
1000
0000
0001
0000
0000
0001
0000
0000
1001
0000
0110
0000
0100
0000
,
0000
0100
0000
0000
0100
0000
0000
0100
0000
0000
0100
0000
0010
0000
0000
0010
,
0000
0000
0010
0000
0100
0000
0000
0010
0000
0000
0100
0000
1001
0000
0000
0000
,
0001
1000
0010
1000
,
0100
0000
0001
0000
0100
1000
0010
0100
,
0010
0000
1000
0001
1000
0000
0001
0100
,
0010
0000
1000
0000
0001
0000
0000
0001
0010
0000
0100
0000
1000
0000
0100
0000
,
0000
0100
0000
0000
1000
0000
0000
0010
0000
0000
0100
0000
0001
0000
0000
0001
,
0000
0000
0100
0000
0010
0000
0000
0010
0000
0000
1000
0001
0000
0000
1000
0000
,
0000
0001
0000
0000
0010
0000
0000
0010
0000
0000
0100
0000
0010
0000
0000
0010
,
0000
0000
0001
0000
1000
0000
0000
0010
0000
0000
1000
0000
0000
0000
0001
0000
,
0000
1000
0000
0000
0010
0000
0000
0100
0000
0000
0001
0000
0010
0000
0000
0010
,
0000
0000
0100
0000
1000
0000
0000
1000
0000
0000
1000
0010
0000
0000
0100
0000
,
0000
0010
0000
0000
1000
0000
0000
0001
0000
0000
0010
0000
0100
0000
0000
0100
,
0000
0000
0010
0000
0001
0000
0000
0001
0000
0000
1000
0000
0002
0000
0000
0000
,
0100
0000
0010
0000
1003
0001
2000
0000
,
0100
0000
0010
0000
3001
1000
0100
1000
,
0000
0010
0000
0000
0100
0000
0000
0001
0000
0000
0010
0000
0100
0000
0000
0010
,
0000
0000
0001
0000
1000
0000
0000
0010
0000
0000
0100
0000
0020
0000
0000
0000
,
1000
0001
0130
0200
,
1000
0000
0010
0000
0301
0000
1000
0100
,
1000
0000
0001
0100
0001
0000
1000
0100
,
0010
0000
0001
0000
0010
0000
0000
0001
0100
0000
0010
0000
1001
0000
0000
0000
,
0000
0000
0000
0000
,
0000
0000
0000
0000
0000
0110
0000
0110
,
0000
0000
0000
0000
,
0000
0000
0000
0000
0000
0000
0000
0000
0000
0000
0001
1000
0001
0000
0000
0000
,
0000
0000
0000
0000
0000
1001
0000
1001
,
0000
0000
0000
0000
0000
0000
0000
0000
0000
0000
1000
0001
1000
0000
0000
0000
,
0000
0000
0000
0000
1001
0000
0000
0000
0000
0000
0000
0000
0110
0000
0000
0110
,
0000
0000
1001
0000
0000
1001
0000
0000
0110
0000
1001
0000
0101
0000
0000
0100
,
0000
0000
0001
0000
0000
1000
0000
0000
0100
0000
0100
0000
0010
0000
0000
0100
,
0000
0000
1000
0000
0000
0100
1000
0000
0010
0000
0100
0000
0010
0000
0000
0100
,
0000
0000
0001
0000
0000
1000
0000
0000
0001
0000
0001
0000
0010
0000
0000
0100
,
0000
0000
1000
0000
0000
0000
0100
0000
1000
0000
1000
0000
0001
0000
0000
0100
,
0000
0000
0001
0000
0000
0010
0000
0000
0100
0000
0010
0000
0001
0000
0000
1000
,
0000
0000
0010
0000
0000
0000
1000
0000
0010
0000
0100
0000
0010
0000
0000
1000
,
0000
0000
0001
0000
0000
0010
0000
0000
0100
0000
1000
0000
1001
0000
0000
0000
,
0001
0000
0000
0001
0000
0000
1000
0000
0000
1000
0000
0000
0010
0000
0100
0000
,
0010
0000
0000
0010
0000
0000
0010
0000
0000
0000
0100
0000
0010
0000
1000
0000
,
0001
1000
1010
1000
0001
0001
0010
0100
,
1000
0100
0011
0001
1000
1000
0001
1000
,
0100
0000
0000
1000
0000
0000
0010
0000
0000
0100
0000
0000
0001
0000
0010
0000
,
0100
0000
0000
0010
0000
0000
0001
0000
0000
0000
1000
0000
0001
0000
0100
0000
,
0001
0010
0011
0010
0100
0100
1000
0001
,
1000
0010
1010
0010
0100
0100
0010
1000
,
1001
0000
0000
0000
;

//--------------- dance-single - Pandemonium X ----------------
#NOTES:
     dance-single:
     Pandemonium X:
     Hard:
     16:
     0.744958,0.904505,0.246297,0.025479,0.86204,614,585,29,3,33,0,0,0,0,0.744958,0.904505,0.246297,0.025479,0.86204,614,585,29,3,33,0,0,0,0:
0000
0000
0000
0000
,
0000
0000
0000
0000
,
0000
0000
0000
0000
,
0000
0000
0000
0000
,
0000
0000
0000
0000
,
0000
0000
0000
0000
2100
0000
0000
0010
0000
0000
0100
0000
0000
0010
0000
0000
,
0100
0000
3100
0000
1002
0000
0000
0010
0000
0000
0100
0000
0000
0010
0000
0000
,
1003
0001
1000
0010
0100
0000
0000
0010
0000
0000
1000
0001
0010
0000
1000
0000
,
0010
0000
0000
0000
0000
0000
0001
0000
0000
0000
0000
0000
0200
0300
0000
0000
0000
0000
0000
0000
0000
0000
0000
0000
0010
0000
0000
0000
0000
0000
1000
0000
0000
0001
0000
0000
0000
0000
0000
0010
0000
0000
0001
0000
0000
0000
0000
0000
,
0010
0100
0000
0000
0010
0000
0010
0000
0001
0000
1000
0010
0000
0100
0001
0000
,
1000
0001
0010
0001
1000
0000
0001
0000
1000
0000
0010
0100
0000
0010
1000
0000
,
0001
0010
0000
0000
0100
0000
1000
0000
1001
0000
0000
1010
0000
0000
0101
0000
,
0000
0100
0010
0000
1000
0000
0001
0000
0010
0000
0001
0010
0000
0001
1000
0000
,
0010
0100
0000
0000
0010
0000
1000
0000
0100
0000
0010
0100
0000
0010
0001
0000
,
0100
0010
1000
0010
1000
0000
0100
0000
0010
0000
0010
0001
0000
0100
0010
0000
,
1000
0001
0000
0000
1000
0000
0001
0000
1000
0000
0001
0100
1000
0000
0100
0000
,
0001
0010
1000
0000
0011
0000
1100
0000
1001
0000
1000
0010
0000
0100
0001
0000
,
0010
0100
0000
0000
0010
0000
0001
0000
1000
0010
1000
0100
0000
0010
0001
0100
,
0010
1000
0010
1000
0001
0100
0001
0100
0010
0000
1000
0001
0000
0010
0100
0000
,
0010
0001
0000
0000
1000
0000
0100
0000
0010
0100
0010
0001
0000
0010
0100
1000
,
0001
0100
0001
0100
0010
1000
0010
1000
0001
0000
1000
0100
0000
0010
0100
0000
,
1000
0001
0000
0000
0100
0000
0010
0000
1000
0001
1000
0100
0000
0010
0100
1000
,
0001
0100
0001
0100
0010
1000
0010
1000
0001
0000
0010
0000
0100
0000
1000
0000
,
0100
1000
0010
0100
0001
0010
0100
1000
0001
0000
0000
0000
0000
0000
1000
0000
,
0000
0010
0000
0000
0100
0000
0000
0010
0000
0000
1000
0000
0010
0000
0000
0100
,
0000
0000
0001
0000
0010
0000
0000
0100
0000
0000
1100
0000
0011
0000
0001
0000
,
0000
0010
0000
0000
0001
0000
0000
0100
0000
0000
0010
0000
1000
0000
0000
0001
,
0000
0000
0010
0000
0100
0000
0000
1000
0000
0000
0100
0000
1100
0000
0100
0000
,
0000
1000
0000
0000
0010
0000
0000
0100
0000
0000
0001
0000
0010
0000
0000
0100
,
0000
0000
0010
0000
0001
0000
0000
0100
0000
0000
0010
1000
0001
0000
0010
0000
,
0100
1000
0001
0100
0001
1000
0001
0010
,
0100
0000
0010
0000
0001
0000
0000
0001
1000
0000
0100
0000
0010
0000
0001
0100
,
0001
0000
0100
0000
0010
0000
1000
0001
1000
0000
0100
0000
0010
0000
0001
0010
,
0001
0000
0010
0000
0100
0000
1000
0010
0000
0100
0001
1000
0001
0000
1000
0010
,
1000
0000
0010
0000
1000
0000
0001
0010
0001
0000
0010
0000
0100
0000
0010
0100
,
0010
0000
0100
0000
1000
0000
0000
0001
1000
0000
0010
0000
0100
0000
0010
1000
,
0010
0000
0100
0000
0001
0000
0010
0100
0010
0000
0001
0000
1000
0000
0100
1000
,
0100
0000
1000
0000
0001
0000
1000
0010
0000
1000
0100
0010
0100
0000
0010
0001
,
0010
0000
0001
0000
0100
0000
0010
1000
0010
0000
0100
0000
0001
0000
1000
0100
,
1000
0000
0100
0000
1000
0000
0001
0100
0000
0010
1000
0000
0001
1000
0001
1000
,
0001
1000
0001
1000
0001
1000
0001
1000
0001
0000
0110
0000
1000
0001
1000
0001
,
1000
0001
1000
0001
1000
0001
1000
0001
1000
0000
1001
0000
0000
0000
0011
0000
,
0010
0001
0100
0000
0010
0000
0100
0010
1000
0000
0001
0000
1000
0000
0100
1000
,
0010
0000
0100
0000
0001
0000
1000
0100
0000
0010
0100
0000
0010
0001
0010
0001
,
0010
0001
0010
0001
0010
0001
0010
0001
0010
0000
1100
0000
1000
0010
1000
0010
,
1000
0010
1000
0010
1000
0010
1000
0010
1000
0000
0101
0000
1001
0000
1000
0001
,
0010
0000
0100
0000
0110
0000
0100
1000
0010
0000
0100
0000
1001
0000
1000
0010
,
0100
0000
0010
0000
1001
0000
0001
0100
0000
0010
1000
0000
1001
0000
1000
0000
,
1000
0000
1000
0100
0010
0000
0000
0010
0000
0000
0010
0000
0000
0000
0000
0000
,
0000
0000
0000
0000
0000
1001
0110
0001
,
0001
0000
0001
0100
0010
0000
0010
0100
0000
0100
0010
0000
0000
0000
0000
0000
,
0000
0000
0000
0000
0000
0000
0000
0000
0000
0000
1000
0001
1000
0000
0100
0010
,
0000
0100
0010
0000
0010
0001
0000
0010
0001
0000
0001
0000
0011
0000
0001
0100
,
0000
0100
0010
0000
0010
1000
0000
0010
0100
0000
0100
0010
1000
0000
1000
0001
,
0000
0010
0001
0000
0001
0100
0000
0100
0010
0000
1000
0000
1001
0000
0000
1010
,
0000
0000
0101
0000
0000
0011
0000
0000
0110
0000
1100
0000
1001
0000
1000
0010
,
0000
0000
0100
0000
0001
0010
0000
0000
0100
0000
0100
0000
1000
0000
0100
1000
,
0000
0000
0001
0000
0000
0100
0001
0010
0001
0000
1000
0000
0001
0000
1000
0010
,
0000
0000
0100
0000
0010
1000
0000
0000
0100
0000
0010
0000
0011
0000
0000
1100
,
0000
0000
1010
0000
0000
0100
0010
0000
0100
0000
0001
0000
0010
0000
0010
0100
,
0000
0000
1000
0000
1000
0001
0000
0000
1000
0000
0001
0000
0100
0000
0100
0001
,
0000
0000
0010
0000
0000
0100
0010
0001
0010
0000
0001
0000
1000
0000
0010
1000
,
0000
0001
0010
0000
0100
1000
0000
0001
0100
0000
0100
0000
1001
0000
0000
0000
,
0001
0000
0000
0010
0000
0000
0001
0000
0000
1000
0000
0000
0010
0000
0100
0000
,
0010
0000
0000
1000
0000
0000
0001
0000
0000
0010
0100
1000
0001
0000
1001
0000
,
0100
0010
0100
0001
0000
1000
0001
0010
0100
1000
0100
1000
0001
1000
0001
0000
,
0001
0100
0001
0010
0000
0100
0010
0001
1000
0010
1000
0010
0100
0010
0100
0010
,
0100
0000
0000
0001
0000
0000
0010
0000
0000
0100
0000
0000
0010
0000
0001
0000
,
1000
0000
0000
0010
0000
0000
0100
0000
0000
0001
1000
0001
0010
0000
0100
0000
,
1000
0100
1000
0010
0000
0100
0010
1000
0001
0010
0001
0010
0100
1000
0100
0000
,
1000
0010
1000
0100
0000
0010
0100
1000
0001
1000
0001
1000
0010
0100
0010
0000
,
1001
0000
0000
0000
;

//--------------- dance-double - Pandemonium X ----------------
#NOTES:
     dance-double:
     Pandemonium X:
     Easy:
     8:
     0,0,0,0,0:
00000000
00000000
00000000
00000000
,
00000000
00000000
00000000
00000000
,
00000000
00000000
00000000
00000000
,
00000000
00000000
00000000
00000000
,
00000000
00000000
00000000
00000000
,
00000000
00011000
00000000
00000000
,
00000000
00011000
00000000
00000000
,
00000000
00010000
00011000
00000000
00000000
00001000
00011000
00000000
,
00011000
00000000
00000100
00001000
,
00000010
00000100
00000001
00001000
,
00000100
00010000
00001000
01000000
,
00100000
10000000
01000000
01000000
,
01000000
00000000
00100000
00010000
00100000
00000000
00001000
00000000
,
00010000
00000100
00001000
00000010
,
00000100
00000001
00000010
00000100
,
00001000
00000100
00021000
00000000
,
00000000
00000000
00001000
00031000
00011000
00000000
00001000
00000000
,
01000000
00100000
20000000
32000000
,
03200000
00320000
00130000
00001000
,
00010000
00000100
00002000
00003200
,
00000320
00000032
00001003
00000010
,
00000100
00000001
00000002
00000023
,
00000230
00002300
00003100
00000100
,
00010100
00010000
00011000
00101000
,
00000000
00000000
00000000
00000000
,
00000000
00000000
00000000
00000000
00000000
00100000
10010000
00000000
,
00000000
00000000
00000000
00000000
,
00000000
00000000
00000000
10100000
,
10000000
00010000
00100000
00001000
,
00010000
00000000
00000100
00000000
00001000
00000010
00000110
00000000
,
00000100
00000101
00000001
00000011
,
00000110
00001100
00010100
00011000
,
00001000
01000000
00100000
10000000
,
00010000
00000000
00100000
00000000
01000000
10000000
00100000
00000000
,
01000000
00010000
00100000
00001000
,
00010000
00000000
00000100
00000000
00001000
00001000
00000001
00000000
,
00000100
00000010
00001000
00000001
,
00000010
00000000
00000100
00000000
00001000
00000010
00000100
00000000
,
00000001
00001000
00000100
00010000
,
00001000
00000000
01000000
00000000
00100000
01000000
20020000
00000000
,
00000000
00000000
00000000
00000000
00000000
30030000
02200000
00000000
,
00000000
00000000
00000000
00000000
00000000
03300000
10000000
00000000
,
00010000
00100000
00001000
00010000
,
00000100
00001000
00000010
00002002
,
00000000
00000000
00003003
00000220
,
00000000
00000000
00000330
00001001
,
00000010
00001001
00000100
00000101
,
00001010
00001100
00010100
00011000
,
00000000
00000000
00000000
00000000
,
00000000
00000000
00000000
00000000
00000000
00001000
00000000
00001000
,
00000000
00000000
00000000
00000000
,
00000000
00000000
00000000
00000000
00000000
00010000
00001000
00000000
,
00000000
00000000
00000000
00000000
00000000
00001000
00000000
00001000
,
00000000
00000000
00000000
00000000
00000000
00010000
00001000
00000000
,
00000000
00010000
00001000
00000000
00000000
00010000
00001000
00000000
,
00010000
00001000
00010000
00000100
,
00001000
00000000
00000010
00000000
00000100
00000001
00000100
00000000
,
00000001
00000010
00000100
00001000
,
00000100
00000000
00010000
00000000
00001000
01000000
00001000
00000000
,
01000000
00000000
00100000
00000000
10000000
01000000
00100000
00000000
,
01000000
00000000
10000000
00000000
00010000
00100000
00010000
00000000
,
00100000
00001000
00010000
00000100
,
00001000
00000000
00000010
00000000
00000100
00000010
00001001
00000000
,
00000001
00000000
00000100
00000000
00000010
00000000
00001000
00000100
,
00010000
00001000
01000000
00100000
,
20000000
32000000
03200000
00320000
,
00032000
00003200
00000320
00000032
,
00001003
00000000
00000001
00000000
00000100
00000000
00000010
00001000
,
00000100
00010000
00001000
01000000
,
00200000
02300000
03020000
20030000
,
30020000
00230000
00302000
00023000
,
00031000
00000000
00000000
00000000
;

//--------------- dance-double - Pandemonium X ----------------
#NOTES:
     dance-double:
     Pandemonium X:
     Medium:
     13:
     0,0,0,0,0:
00000000
00000000
00000000
00000000
,
00000000
00000000
00000000
00000000
,
00000000
00000000
00000000
00000000
,
00000000
00000000
00000000
00000000
,
00000000
00000000
00000000
00000000
,
00000000
00000000
00000000
00000000
00100000
00000000
00000000
00100000
00000000
00000000
00001000
00000000
00000000
00001000
00000000
00000000
,
00010000
00000000
00000010
00000000
00000100
00000000
00000000
00000100
00000000
00000000
00000010
00000000
00000000
00000010
00000000
00000000
,
00000100
00000000
00000001
00000000
00001000
00000000
00000000
00001000
00000000
00000000
00000100
00000000
00000000
00000100
00000000
00000000
,
00010000
00000000
00001000
00000000
00011000
00000000
00000000
00000000
01000000
00000000
00000000
00010000
00000000
00000000
00100000
00000000
,
01000000
00100000
00000000
00000000
01000000
00000000
10000000
00000000
00010000
00000000
00000000
00010000
00000000
00000000
01000000
00000000
,
00100000
00000000
00010000
00000000
00100000
00000000
10000000
00000000
00010000
00000000
00000000
00100000
00000000
00000000
00001000
00000000
,
00010000
00000010
00000000
00000000
00000100
00000000
00000010
00000000
00001010
00000000
00000000
00000101
00000000
00000000
00001010
00000000
,
00000000
00000000
00000001
00000000
00000010
00000000
00000010
00000000
00000100
00000000
00000000
00000100
00000000
00000000
00001000
00000000
,
00000010
00000100
00000000
00000000
00000010
00000000
00000100
00000000
00000001
00000000
00000000
00001000
00000000
00000000
00000100
00000000
,
00001000
00000000
00000100
00000000
00000001
00000000
00000100
00000000
00001000
00000000
00000000
00000100
00000000
00000000
00010000
00000000
,
00001000
01000000
00000000
00000000
00100000
00000000
10000000
00000000
01000000
00000000
00000000
00000000
01000000
00000000
10000000
00000000
,
00000000
00000000
10000000
00000000
01100000
00000000
00100000
00000000
10010000
00000000
00000000
10000000
00000000
00000000
01000000
00000000
,
10000000
00100000
00000000
00000000
01000000
00000000
00010000
00000000
00100000
00000000
00001000
00010000
00000000
00010000
00000100
00000000
,
00001000
00000000
00000010
00000000
00000100
00000000
00000001
00000000
00001000
00000000
00000000
00000100
00000000
00000000
00010000
00000000
,
00001000
01000000
00000000
00000000
00100000
00000000
10000000
00000000
00010000
00000000
00100000
01000000
00000000
01000000
00100000
00000000
,
00010000
00000000
01000000
00000000
10000000
00000000
01000000
00000000
00010000
00000000
00000000
00100000
00000000
00000000
00001000
00000000
,
00010000
00000010
00000000
00000000
00000100
00000000
00000100
00000000
00000001
00000000
00000010
00000100
00000000
00000100
00000010
00000000
,
00000001
00001000
00000100
00010000
00011000
00001000
01000000
00000000
,
01100000
00100000
10000000
00000000
01010000
00000000
00000000
10000000
,
00000000
10000000
00000000
00000000
00010000
00000000
00000000
00010000
00000000
00000000
00100000
00000000
00100000
00000000
00000000
00001000
,
00000000
00000000
00010000
00000000
00010000
00000000
00000000
00000100
00000000
00000000
00001100
00000000
00001100
00000000
00001000
00000000
,
00000000
00001000
00000000
00000000
00000010
00000000
00000000
00000010
00000000
00000000
00000100
00000000
00000100
00000000
00000000
00000001
,
00000000
00000000
00000010
00000000
00000010
00000000
00000000
00000100
00000000
00000000
00001000
00000000
00000100
00000000
00000000
00000000
,
00010000
00001000
01000000
00100000
,
10000000
00000000
01000000
00000000
00010000
00000000
01000000
10000000
,
00100000
00000000
01000000
00010000
00100000
00000000
00100000
00001000
,
00010000
00000000
00000100
00000000
00001000
00000000
00000000
00000010
00000100
00000000
00000001
00000000
00001000
00000000
00000100
00000000
,
00000000
00010000
00000000
00000000
00001000
00000000
00000000
01000000
00000000
00000000
00100000
00000000
10000000
00000000
00000000
01000000
,
00000000
00000000
00100000
00000000
00010000
00000000
00000000
00100000
00000000
00000000
00001000
00010000
00000000
00000000
00001000
00000000
,
00000000
00010000
00000000
00000000
00000100
00000000
00000000
00001000
00000000
00000000
00000010
00000000
00000100
00000000
00000000
00000001
,
00000000
00000000
00000010
00000000
00000100
00000000
00000000
00000010
00000000
00000000
00000001
00000000
00000000
00000000
00001000
00000000
,
00000000
00000100
00000000
00000000
00010000
00000000
00000000
00001000
00000000
00000000
01000000
00000000
00100000
00000000
00000000
10000000
,
00000000
00000000
00010000
00000000
00100000
00000000
00000000
00010000
00000000
00000000
10000000
01000000
00000000
00000000
00100000
00000000
,
00000000
00010000
00000000
00000000
00100000
00000000
00000000
00001000
00000000
00000000
00010000
00000000
00001000
00000000
00000000
00100000
,
00000000
00000000
00001000
00000000
00010000
00000000
00000000
00000100
00000000
00000000
00001000
00000000
00002020
00000000
00000000
00000000
,
00000000
00000000
00000000
00000000
00000000
00003030
00000202
00000000
,
00000000
00000000
00000000
00000000
00000000
00000303
00000000
00000001
,
00000000
00001000
00000000
00000000
00000100
00000000
00000000
00010000
00000000
00000000
00001000
00000000
01000000
00000000
00000000
00100000
,
00000000
00000000
10000000
00000000
00010000
00000000
00000000
00100000
00000000
00000000
01000000
00000000
22000000
00000000
00000000
00000000
,
00000000
00000000
33000000
00220000
,
00000000
00000000
00000000
00000000
00330000
00000000
01010000
01000000
,
00100000
00000000
10010000
00010000
00100000
00000000
00101000
00000000
,
00011000
00000000
00000000
00000000
00001100
00000000
00000000
00001000
00000010
00000000
00000100
00000000
00000101
00000000
00000000
00000000
,
00000000
00000000
00000000
00000000
,
00000000
00000000
00000000
00000000
00000000
00000110
00000000
00000110
,
00000000
00000000
00000000
00000000
,
00000000
00000000
00000000
00000000
00000000
00000000
00000000
00000000
00000000
00000000
00000010
00001000
00000010
00000000
00000000
00000000
,
00000000
00000000
00000000
00000000
00000000
00010100
00000000
00010100
,
00000000
00000000
00000000
00000000
00000000
00000000
00000000
00000000
00000000
00000000
00010000
00001000
00010000
00000000
00000000
00000000
,
00000000
00000000
00011000
00000000
00000000
00101000
00000000
00101000
,
00000000
00000000
00001000
00000000
00000000
00000000
01000000
00000000
00100000
00000000
10000000
00000000
01000000
00000000
00000000
01000000
,
00000000
00000000
00100000
00000000
00000000
00100000
00000000
00000000
00001000
00000000
00010000
00000000
00000100
00000000
00000000
00000100
,
00000000
00000000
00001000
00000000
00000000
00000000
00000010
00000000
00000001
00000000
00000010
00000000
00001000
00000000
00000000
00001000
,
00000000
00000000
00000010
00000000
00000000
00000010
00000000
00000000
00000100
00000000
00000001
00000000
00001000
00000000
00000000
00000100
,
00000000
00000000
00010000
00000000
00000000
00000000
00001000
00000000
01000000
00000000
01000000
00000000
01100000
00000000
00000000
00100000
,
00000000
00000000
10000000
00000000
00000000
00010000
00000000
00000000
00100000
00000000
00001000
00000000
00010000
00000000
00000000
00000100
,
00000000
00000000
00001000
00000000
00000000
00000000
00000010
00000000
00000100
00000000
00000001
00000000
00000010
00000000
00000000
00000100
,
00000000
00000000
00001000
00000000
00000000
00000100
00000000
00000000
00010000
00000000
00001000
00000000
00011000
00000000
00000000
00000000
,
00101000
00000000
00000000
00100000
00000000
00000000
00010000
00000000
00000000
10000000
00000000
00000000
00100000
00000000
01000000
00000000
,
00001000
00000000
00000000
00010000
00000000
00000000
00000100
00000000
00000000
00001000
00000100
00000000
00001000
00000000
00000001
00000000
,
00000100
00000000
00000100
00000010
00000000
00000010
00001000
00000000
00000100
00000000
00001000
00000000
00000100
00000000
00001000
00000000
,
00000100
00000000
00000100
00010000
00000000
00010000
00001000
00000000
00010000
00000000
00000100
00000000
00010000
00000000
00001000
00000000
,
00011000
00000000
00000000
00001000
00000000
00000000
01000000
00000000
00000000
00100000
00000000
00000000
10000000
00000000
01000000
00000000
,
00100000
00000000
00000000
01000000
00000000
00000000
10000000
00000000
00000000
00010000
00100000
00000000
01000000
00000000
00100000
00000000
,
00010000
00000000
00100000
00001000
00000000
00001000
00010000
00000000
00000100
00000000
00001000
00000000
00000010
00000000
00000100
00000000
,
00000001
00000000
00000001
00000010
00000000
00000010
00000100
00000000
00001000
00000000
00000100
00000000
00010000
00001000
00010000
00000000
,
00011000
00000000
00000000
00000000
;

//--------------- dance-double - Pandemonium X ----------------
#NOTES:
     dance-double:
     Pandemonium X:
     Hard:
     15:
     0,0,0,0,0:
00000000
00000000
00000000
00000000
,
00000000
00000000
00000000
00000000
,
00000000
00000000
00000000
00000000
,
00000000
00000000
00000000
00000000
,
00000000
00000000
00000000
00000000
,
00000000
00000000
00000000
00000000
11000000
00000000
00000000
01010000
00000000
00000000
11000000
00000000
00000000
10010000
00000000
00000000
,
00100000
00000000
00100000
00000000
00110000
00000000
00000000
00101000
00000000
00000000
00011000
00000000
00000000
00001100
00000000
00000000
,
00001000
00000010
00000100
00000010
00001000
00000000
00000000
00000110
00000000
00000000
00000101
00000000
00000000
00000011
00000000
00000000
,
00001001
00000000
00000110
00000000
00001001
00000000
00000000
00000000
00000001
00000000
00000100
00000010
00000000
00000010
00001000
00000000
,
00001000
00000100
00000000
00000000
00010000
00000000
00010000
00000000
00001000
00000000
01000000
00100000
00000000
00100000
10000000
00000000
,
00010000
00100000
00010000
00100000
00010000
00000000
10000000
00000000
01000000
00000000
10000000
01000000
00000000
01000000
00100000
00000000
,
00100000
00001000
00000000
00000000
00010000
00000000
00000100
00000000
00001100
00000000
00000000
00000110
00000000
00000000
00011000
00000000
,
00000000
00001000
01000000
00000000
00100000
00000000
00100000
00000000
10010000
00000000
00010000
10000000
00000000
10000000
00010000
00000000
,
00010000
00100000
00000000
00000000
00100000
00000000
00001000
00000000
00010000
00000000
00000100
00001000
00000000
00001000
00000010
00000000
,
00000100
00000001
00000100
00000001
00000100
00000000
00000001
00000000
00000010
00000000
00000001
00000100
00000000
00000100
00000010
00000000
,
00000010
00001000
00000000
00001000
00000100
00000000
00010000
00000000
00001000
00000000
01000000
00010000
01000000
00000000
00001000
00000000
,
00010000
00000100
00010000
00000000
00011000
00000000
00011000
00000000
00010100
00000000
00010000
00000100
00000000
00001000
00000010
00000000
,
00000100
00000001
00000000
00000001
00000010
00000000
00000100
00000000
00000010
00000001
00000010
00000100
00000000
00000010
00000100
00001000
,
00000100
00010000
00000100
00010000
00001000
00010000
00001000
00010000
00001000
00000000
01000000
00100000
00000000
10000000
00010000
00000000
,
00100000
01000000
00000000
00100000
00010000
00000000
00010000
00000000
10000000
01000000
10000000
00100000
00000000
01000000
00010000
00100000
,
00001000
00010000
00001000
00010000
00000100
00010000
00000100
00010000
00000100
00000000
00001000
00000010
00000000
00000100
00000001
00000000
,
00000010
00000100
00000000
00000010
00000001
00000000
00001000
00000000
00000010
00001000
00000010
00000100
00000000
00000010
00001000
00000100
,
00010000
00001000
00010000
00001000
01000000
00001000
01000000
00001000
01000000
00000000
00100000
10000000
00000000
00010000
00100000
00000000
,
01000000
10000000
00000000
10000000
01000000
00000000
00100000
00000000
00011000
00000000
00000000
00000000
00000000
00000000
00010000
00000000
,
00000000
00010000
00000000
00000000
00000100
00000000
00000000
00000100
00000000
00000000
00001000
00000000
00001000
00000000
00000000
00001000
,
00000000
00000000
00000010
00000000
00000010
00000000
00000000
00000010
00000000
00000000
00000110
00000000
00000101
00000000
00000001
00000000
,
00000000
00000001
00000000
00000000
00000001
00000000
00000000
00000001
00000000
00000000
00001000
00000000
00001000
00000000
00000000
00001000
,
00000000
00000000
00000100
00000000
00000100
00000000
00000000
00000100
00000000
00000000
00000100
00000000
00001100
00000000
00000000
00000000
,
00001000
00000100
00010000
00001000
,
01000000
00000000
00100000
00000000
10000000
00000000
00010000
00100000
,
01000000
10000000
00010000
00100000
00001000
00010000
00000100
00001000
,
00000010
00000000
00000100
00000000
00000001
00000000
00000000
00000001
00000010
00000000
00000100
00000000
00001100
00000000
00000100
00010000
,
00001000
00000000
00010000
00000000
00001000
00000000
01000000
00100000
10000000
00000000
01000000
00000000
00010000
00000000
01000000
00100000
,
00010000
00000000
00100000
00000000
00001000
00000000
00010000
00001000
00000000
00001000
00010000
00000010
00000100
00000000
00000010
00001000
,
00000001
00000000
00000010
00000000
00000100
00000000
00000010
00000100
00001000
00000000
00000100
00000000
00010000
00000000
00001000
01000000
,
00100000
00000000
10000000
00000000
00010000
00000000
10000000
01000000
00000000
00100000
00010000
00000000
10000000
00000000
00010000
00100000
,
00001000
00000000
00010000
00000000
00000100
00000000
00001000
00000010
00000100
00000000
00000001
00000000
00000010
00000000
00001000
00000010
,
00000001
00000000
00000100
00000000
00000010
00000000
00001000
00000100
00000000
00010000
00001000
01000000
00100000
00000000
01000000
00010000
,
00100000
00000000
01000000
00000000
10000000
00000000
01000000
10000000
00100000
00000000
01000000
00000000
00010000
00000000
00100000
00001000
,
00010000
00000000
00000100
00000000
00001000
00000000
00000010
00000100
00000000
00000100
00000001
00000000
00004000
00000400
00000000
00000000
,
00000000
00000000
00000000
00000000
00000000
00000000
00000000
00000000
00003300
00000000
00000000
00000000
00040000
00004000
00000000
00000000
,
00000000
00000000
00000000
00000000
00000000
00033000
00000000
00001000
,
01000000
00100000
10000000
00000000
00010000
00000000
00100000
01000000
10000000
00000000
01000000
00000000
10000000
00000000
00010000
00100000
,
00001000
00000000
00010000
00000000
00000100
00000000
00001000
00000100
00000000
00000010
00000001
00000000
00004000
00000040
00000000
00000000
,
00000000
00000000
00000000
00000000
00000000
00000000
00000000
00000000
00003030
00000000
00000000
00000000
00040000
00004000
00000000
00000000
,
00000000
00000000
00000000
00000000
00000000
00000000
00000000
00000000
00000000
00000000
00033000
00000000
00000100
00000000
00001000
00000010
,
00000100
00000000
00000010
00000000
00010000
00000000
00001000
01000000
00100000
00000000
10000000
00000000
00010000
00000000
00100000
00001000
,
00010000
00000000
00100000
00000000
00010000
00000000
00100000
01000000
00000000
01000000
10000000
00000000
10010000
00000000
10000000
00000000
,
00010000
00000000
00100000
00001000
00010000
00000000
00001000
01000000
00000000
00001000
00010000
00000000
00000000
00000000
00000000
00000000
,
00000000
00000000
00000000
00000000
00000000
00010100
00001000
00001010
,
00000010
00000000
00000100
00000001
00000010
00000000
00000100
00001000
00000000
00000100
00010000
00000000
00000000
00000000
00000000
00000000
,
00000000
00000000
00000000
00000000
00000000
00000000
00000000
00000000
00000000
00000000
00010000
00001000
00011000
00000000
00000000
00000000
,
00000000
00000000
00000000
00000000
00000000
00100010
00000000
00100010
,
00000000
00000000
00000000
00000000
00000000
00000000
00000000
00000000
00000000
00000000
00001000
00010000
00011000
00000000
00000000
00000000
,
00000000
00000000
00000000
00000000
00011000
00000000
00000000
00000000
00000000
00000000
00001000
00010000
00001000
00000000
00010000
00000000
,
00001000
00000000
00010000
00000000
00001000
00000000
00000000
00010000
00001000
00000000
01000000
00000000
01100000
00000000
00000000
01010000
,
00000000
00000000
00110000
00000000
00000000
00101000
00000000
00000000
00010000
00000000
00010000
00000000
00011000
00000000
00000000
00010100
,
00000000
00000000
00001100
00000000
00000000
00001000
00000010
00000100
00000010
00000000
00000100
00000000
00000101
00000000
00000000
00000011
,
00000000
00000000
00000110
00000000
00000000
00001100
00000000
00000000
00001000
00000000
00001000
00000000
00001100
00000000
00000000
00011000
,
00000000
00000000
00010100
00000000
00000000
00010000
00001000
00000000
01000000
00000000
00100000
00000000
10100000
00000000
00000000
01010000
,
00000000
00000000
10100000
00000000
00000000
10010000
00000000
00000000
10000000
00000000
10000000
00000000
11000000
00000000
00000000
00110000
,
00000000
00000000
00011000
00000000
00000000
00010000
00000100
00010000
00001000
00000000
00010000
00000000
00010100
00000000
00000000
00001100
,
00000000
00000000
00000011
00000000
00000000
00000101
00000000
00000000
00001010
00000000
00000101
00000000
00001001
00000000
00000000
00000000
,
00001001
00000000
00000000
00001010
00000000
00000000
00010100
00000000
00000000
00011000
00000000
00000000
00001000
00000000
01000000
00000000
,
01100000
00000000
00000000
01010000
00000000
00000000
10100000
00000000
00000000
10000000
00100000
00000000
01000000
00000000
00010000
00000000
,
10000000
01000000
10000000
00010000
00000000
10000000
00100000
01000000
00010000
01000000
00010000
01000000
00010000
00100000
00010000
00000000
,
00100000
00001000
00100000
00010000
00000000
00100000
00001000
00010000
00000010
00001000
00000010
00000100
00000010
00001000
00000010
00001000
,
00000001
00000000
00000000
00000011
00000000
00000000
00000110
00000000
00000000
00001100
00000000
00000000
00000100
00000000
00010000
00000000
,
00011000
00000000
00000000
01001000
00000000
00000000
01100000
00000000
00000000
01000000
00010000
00000000
10000000
00000000
01000000
00000000
,
00100000
00010000
00100000
00001000
00000000
00010000
00000100
00010000
00001000
00000100
00001000
00000100
00001000
00000100
00001000
00000000
,
00000010
00001000
00000010
00000100
00000000
00000010
00000100
00000001
00001000
00000100
00001000
00000100
00010000
00001000
00010000
00000000
,
00011000
00000000
00000000
00000000
;
