#TITLE:合体せよ!ストロングイェーガー!! (Ryu☆ remix);
#SUBTITLE:;
#ARTIST:L.E.D. / Remixed by Ryu☆;
#TITLETRANSLIT:THE STRONG JAEGER (Ryu☆ Remix);
#SUBTITLETRANSLIT:;
#ARTISTTRANSLIT:;
#GENRE:;
#CREDIT:;
#MUSIC:THE STRONG JAEGER (Ryu Remix).ogg;
#BANNER:;
#BACKGROUND:;
#CDTITLE:;
#SAMPLESTART:2.573;
#SAMPLELENGTH:12.387;
#SELECTABLE:YES;
#OFFSET:0.519;
#BPMS:0.000=155.000;
#STOPS:72.000=1.161
,73.000=1.161
,74.000=1.161
,76.000=0.387
;
#BGCHANGES:;
#FGCHANGES:;

//--------------- dance-single - Pandemonium X ----------------
#NOTES:
     dance-single:
     Pandemonium X:
     Beginner:
     4:
     0,0,0,0,0:
0000
0000
0000
0000
,
0000
0000
0000
0000
,
0001
0000
0000
0000
,
1000
0000
0000
0000
,
0001
0000
0000
0000
,
1000
0000
0000
0000
,
0110
0000
0000
0000
,
0100
0000
0000
0000
,
0010
0000
0000
0000
,
1000
1000
1000
0000
,
0001
0000
0000
0000
,
0010
0000
0000
0000
,
0001
0000
0000
0000
,
1000
0000
0000
0000
,
0010
0000
0000
0000
,
0010
0000
0000
0000
,
0010
0000
0010
0000
,
0010
0010
0010
0010
,
1001
0001
0001
0001
,
0001
0001
1001
0000
,
0000
0000
0000
0000
,
0000
0000
0000
0000
,
0000
0000
0000
0000
,
0000
0000
0110
0000
,
0000
0000
1000
0000
,
0000
0000
0001
0000
,
0000
0000
0010
0000
,
0000
0000
0100
0000
,
0000
0000
1000
0000
,
0000
0000
0010
0000
,
0000
0000
0100
0000
,
0000
0001
0001
0000
,
0000
1000
1000
0000
,
0000
0001
0001
0000
,
0000
1000
1000
0000
,
0000
0001
1000
0000
,
0001
0000
0100
0000
,
0010
0000
1000
1000
,
1000
1000
1000
1000
,
1000
1000
0002
0000
,
0000
0000
0000
0000
,
0000
0000
1003
1000
,
1000
1000
1000
0000
,
0000
0000
1001
0000
,
0001
0000
1000
0010
,
1000
0000
0001
0000
,
0010
0000
0100
0010
,
0100
0000
0010
0000
,
0001
0000
1000
0010
,
1000
0000
0001
0000
,
0001
0000
1000
0000
,
1000
0001
0110
0000
,
1000
0000
0001
0010
,
0001
0000
1000
0000
,
0100
0000
0010
0100
,
0010
0000
1001
0000
,
1000
0000
0001
0010
,
0001
0000
1000
0000
,
0000
0000
0001
0000
,
0000
0000
0110
0000
,
0000
0000
1001
0000
,
0000
0000
0110
0000
,
0000
0000
1001
1000
,
0000
0110
0001
0000
,
0001
0000
0001
0000
,
0001
0000
1000
0000
,
1000
0000
1000
0000
,
1000
0000
0110
0000
,
0010
0000
0010
0000
,
0010
0000
0100
0000
,
0100
0000
0100
0000
,
0010
0000
1001
0000
;

//--------------- dance-single - Pandemonium X ----------------
#NOTES:
     dance-single:
     Pandemonium X:
     Easy:
     7:
     0,0,0,0,0:
0000
0000
0000
0000
,
0000
0000
0000
0000
,
1000
1000
1000
1000
,
1000
0000
1000
0000
1000
0000
1000
0001
,
1000
1000
1000
1000
,
1000
0000
1000
0000
1000
0000
1000
0001
,
1001
0001
0001
0001
,
0001
0000
0001
0000
0001
0000
0001
1000
,
0001
0001
0001
0001
,
1001
0110
1001
0110
,
0001
0100
0001
0010
,
0100
1000
0100
0010
,
0001
0100
0001
0010
,
0100
1000
0100
0010
,
1001
0001
0100
0001
,
1010
1000
0100
1000
,
0011
0001
0101
0100
,
0110
1010
0110
0101
,
1001
1001
1001
1001
,
1001
1001
1001
0000
,
0000
0000
0000
0000
,
0000
0000
0000
0000
,
0000
0000
0000
0000
,
0000
0000
1001
0001
,
1000
0000
0100
0000
0010
0000
0000
0010
,
0000
0010
0000
0100
,
1000
0000
0001
0000
0100
0000
0000
0100
,
0000
0100
0000
0001
,
1000
0000
0001
0000
0010
0000
0000
0010
,
0000
0000
0100
0000
1000
0000
0000
1000
,
0000
0000
0001
0000
0100
0000
0000
0100
,
0000
0110
1001
0000
,
0000
0110
1001
0000
,
0000
0110
1001
0000
,
0000
0110
1001
0000
,
0000
0110
1001
0000
,
1000
0000
0001
0000
,
1000
0000
0001
0001
,
1000
1000
0010
0010
,
0100
0100
2002
0000
,
0000
0000
0000
0000
,
0000
0003
3001
0001
,
0001
0001
2000
0000
,
0000
0000
3100
1000
,
0100
0000
0010
0000
0001
0000
0000
0100
,
0000
0110
0000
0010
,
0100
0000
0001
0000
1000
0000
0000
0100
,
0000
0110
0000
0001
,
0010
0000
0100
0000
0010
0000
0000
0001
,
0000
0000
0110
0000
0010
0000
0000
1000
,
0000
0000
1100
0000
1000
0000
0000
0001
,
0000
0110
1001
0001
,
1000
0000
0010
0000
1000
0000
0000
0100
,
0000
1001
0000
0001
,
1000
0000
0001
0000
0010
0000
0000
0100
,
0000
1001
0000
1000
,
0001
0000
0100
0000
0001
0000
0000
0010
,
0000
0000
1100
0000
1000
0000
0000
0010
,
0000
0000
0100
0000
0001
0000
0000
0010
,
0000
0100
1001
0001
,
1000
0010
1001
0001
,
1000
0010
1001
1000
,
0010
1000
0001
1000
,
0000
0110
0001
0100
,
0010
1000
0100
0010
,
0001
1000
0001
1000
,
0010
0000
1000
0000
0100
0020
0000
0000
,
0000
0000
0130
0010
,
0001
1000
0010
0100
,
0001
0010
0001
1000
,
0100
0000
0010
0000
0000
0001
0000
1000
,
0000
0010
0000
0100
0100
0000
0000
0000
;

//--------------- dance-single - Pandemonium X ----------------
#NOTES:
     dance-single:
     Pandemonium X:
     Medium:
     11:
     0,0,0,0,0:
0000
0000
0000
0000
,
0000
0000
0000
0000
,
0001
0001
0001
0001
,
0001
0000
0001
0000
0001
0000
0001
1000
,
0100
0100
0100
0100
,
0100
0000
0100
0000
0100
0000
0100
0100
,
0010
0010
0010
0010
,
0010
0000
0010
0000
0010
0000
0010
0001
,
1000
1000
1000
1000
,
1001
0110
1001
0110
,
0001
0000
0100
0000
0010
0000
1000
0100
,
0001
0000
0100
0000
1000
0000
0001
0010
,
1000
0000
0010
0000
0100
0000
0001
0010
,
1000
0000
0010
0000
0001
0000
0100
0010
,
1010
0000
0001
0010
0100
0000
0010
0001
,
1001
0000
0100
0010
0001
0000
0010
0001
,
1001
0000
0000
0001
1000
0000
0000
1000
0010
0000
0000
0010
0100
0000
0000
0100
,
0001
0010
0100
1000
0001
0001
1000
1000
,
0110
0110
0110
0110
,
0110
0110
1001
0000
,
0000
0000
0000
0000
,
0000
0000
0000
0000
,
0000
0000
0000
0000
,
0000
0000
1001
0001
,
1000
0000
0100
0000
0010
0000
0001
0100
,
0000
0100
0010
0000
0000
0000
0100
0000
,
0010
0000
1000
0000
0100
0000
1000
0100
,
0000
0100
0010
0000
0000
0000
0100
0000
,
1000
0000
0001
0000
0100
0000
0001
0100
,
0000
0100
0010
0000
0100
0000
0100
0010
,
0000
0010
1000
0000
0001
0000
1000
0100
,
0000
0100
0110
0000
0011
0000
0001
0000
,
1000
0011
1100
1000
,
0001
1010
0101
0001
,
1000
1001
0110
1000
,
0001
0000
1001
0000
0011
0001
0100
0001
,
0000
0100
0010
0100
0000
0010
1000
0010
,
0000
0000
0000
1000
0000
0000
0100
0000
0000
1000
0000
0000
0100
0000
0000
0000
0100
0000
0010
0000
0000
0000
0010
0000
,
0001
0000
0001
0100
0000
0100
0010
0000
0010
1000
0000
1000
,
0001
0000
0001
1000
0000
0000
0220
0000
0000
0000
0000
0000
,
0000
0000
0000
0000
,
0000
0000
0330
0000
1001
1000
0001
1000
,
0001
1000
0001
1000
0001
0200
0000
0000
,
0000
0000
0310
1000
,
0100
0000
0010
0000
0001
0000
0001
1000
,
0000
0100
0010
0000
0000
0000
0100
0000
,
0010
0000
0100
0000
1000
0000
0001
1000
,
0000
0010
0100
0000
0000
0000
0001
0000
,
0010
0000
0100
0000
0010
0000
0010
0001
,
0000
1000
0100
0000
1001
0000
0001
0100
,
0000
0010
1000
0000
1001
0000
0001
0010
,
0000
0010
0100
0100
1100
0000
1000
0000
,
0001
0000
0100
0000
0001
0000
0010
0001
,
0000
0010
1000
0000
0000
0000
0010
0000
,
0100
0000
1000
0000
0001
0000
1000
0010
,
0000
0001
0010
0000
0000
0000
0100
0000
,
0001
0000
0010
0000
1000
0000
0010
0100
,
0000
0010
0001
0000
1000
0000
0001
0100
,
0000
0010
1000
0000
0001
0000
1000
0100
,
0000
0000
0010
0000
0001
0000
0000
0000
1001
0000
0000
1000
0000
0000
0001
0000
,
0000
0010
0000
0000
0100
0000
0010
0000
1001
0000
0000
0001
0000
0000
1000
0000
,
0000
0100
1000
0000
0010
0000
0100
0000
1001
0000
0000
0001
0000
0000
1000
0000
,
0010
0000
0000
0000
1000
0000
0000
0000
0010
0000
0000
0000
0100
0000
0000
0000
0001
0000
0000
0000
0100
0000
0000
0000
0002
0000
0000
0000
0000
0000
0000
0000
0000
1000
0000
0000
0000
0000
0000
1000
0000
0000
0000
0000
0000
0000
0000
0000
,
0000
0000
0000
0000
0013
0000
0000
0000
0000
0000
0100
0000
0000
0100
0000
0000
,
1000
0000
0000
0001
0000
0000
0100
0000
0100
0000
0000
0001
0000
0000
1000
0000
,
0100
0000
0000
0100
0000
0000
1001
0000
0000
0000
0010
0000
0000
0010
0000
0000
,
0001
0000
0000
1000
0000
0000
0010
0000
0010
0000
0000
1000
0000
0000
0001
0000
,
0010
0000
0000
0010
0000
0000
1001
0000
0000
0000
0001
0000
0000
0100
0000
0000
,
0010
0000
0000
0100
0000
0000
0001
0000
0010
0000
0000
0100
0000
0000
0010
0000
,
0001
0000
0000
1000
0000
0000
0001
0100
0000
0000
0010
0000
0000
1000
0000
0000
,
0100
0000
0000
0010
0000
0000
0100
0000
1000
0000
0000
0001
0000
0000
0100
0000
,
0010
0000
0000
1000
0000
0000
0001
0000
1001
0000
0000
0000
0000
0000
0000
0000
;

//--------------- dance-single - Pandemonium X ----------------
#NOTES:
     dance-single:
     Pandemonium X:
     Hard:
     16:
     0,0,0,0,0:
0000
0000
0000
0000
,
0000
0000
0000
0000
,
0001
0001
0001
0001
,
0001
0000
0000
0000
0001
0000
0000
0000
0001
0000
0000
0000
1000
0010
1000
0010
,
1000
1000
1000
1000
,
1000
0000
0000
0000
1000
0000
0000
0000
1000
0000
0000
0000
0001
0100
0001
0100
,
0010
0010
0010
0010
,
0010
0000
0000
0000
0010
0000
0000
0000
0010
0000
0000
0000
1000
0001
1000
0001
,
0100
0100
0100
0100
,
1001
0110
1001
0110
,
0001
0100
0001
1000
0000
0100
0010
0100
1000
0001
1000
0001
1000
0010
1000
0000
,
0010
0100
0001
0100
0000
0010
0100
0010
1000
0100
1000
0100
0010
0001
1000
0000
,
0001
0010
0001
0100
0000
0010
0100
0001
1000
0100
1000
0100
0010
0001
1000
0000
,
0001
0100
0001
0010
0000
0100
0010
0100
1000
0001
1000
0001
1000
0010
0100
0000
,
0001
0100
0000
0010
1000
0001
0010
0000
0100
0010
0000
0100
0010
0001
1000
0000
,
0001
0010
0000
0100
1000
0010
0100
0000
0001
0010
0000
0100
0010
0001
1000
0000
,
0001
0000
1000
0010
0100
0000
0001
0010
0100
0000
1000
0001
0100
0000
0001
0010
,
0100
1000
0100
1000
0100
1000
0100
1000
0100
0010
0001
0100
0010
1000
0001
1000
,
1001
1001
1001
1001
,
1001
1001
0110
0000
,
0000
0000
0000
0000
,
0000
0000
0000
0000
,
0000
0000
0000
0000
,
0000
0000
1001
0001
,
0100
0000
0000
0000
0000
0000
0000
0000
0010
0000
0000
0000
0000
0000
0000
0000
1000
0000
0000
0000
0000
0000
0000
0000
1000
0000
0000
0000
0200
0300
0000
0000
,
0000
0000
0000
0000
0200
0300
0000
0000
0001
0000
0000
0000
0000
0000
0000
0000
0000
0000
0000
0000
0000
0000
0000
0000
0100
0000
0000
0000
0000
0000
0000
0000
,
0001
0000
0000
0000
0000
0000
0000
0000
0010
0000
0000
0000
0000
0000
0000
0000
0001
0000
0000
0000
0000
0000
0000
0000
0001
0000
0000
0000
0200
0300
0000
0000
,
0000
0000
0000
0000
0200
0300
0000
0000
1000
0000
0000
0000
0000
0000
0000
0000
0000
0000
0000
0000
0000
0000
0000
0000
0001
0000
0000
0000
0000
0000
0000
0000
,
0010
0000
0000
0000
0000
0000
0000
0000
0001
0000
0000
0000
0000
0000
0000
0000
1000
0000
0000
0000
0000
0000
0000
0000
1000
0000
0000
0000
0020
0030
0000
0000
,
0000
0000
0000
0000
0020
0030
0000
0000
0001
0000
0000
0000
0000
0000
0000
0000
1000
0000
0000
0000
0000
0000
0000
0000
0001
0000
0000
0000
0020
0030
0000
0000
,
0000
0000
0000
0000
0020
0030
0000
0000
1000
0000
0000
0000
0000
0000
0000
0000
0001
0000
0000
0000
0000
0000
0000
0000
1000
0000
0000
0000
0100
0000
0000
0000
,
0000
0100
0110
0000
1001
0000
1000
0000
,
0001
0110
1001
1000
,
0001
0110
1001
1000
,
0001
0110
1001
1000
,
0001
0000
0000
0000
0110
0000
0000
0000
1000
0010
0000
0100
0001
0010
0000
0100
,
1000
0010
0000
1000
0001
0010
0000
0100
0010
0001
0000
0010
0100
1000
0000
0100
,
1000
0000
0000
0010
0000
0000
0000
0000
0000
0100
0000
0000
0001
0000
0000
0010
0000
0000
0000
0000
0000
0100
0000
0000
1000
0000
0000
0000
0100
0000
0000
0000
0010
0000
0000
0000
0100
0000
0000
0000
1000
0000
0000
0000
0100
0000
0000
0000
,
0010
0001
0010
0100
0010
0001
1000
0100
0010
0100
1000
0001
,
0010
0000
0000
0000
0100
0000
0000
0000
0010
0000
0000
0000
0002
0000
0000
0000
0000
0000
0000
0000
0000
0000
0000
0000
1003
0000
0000
0001
0000
0000
1000
0000
0000
0001
0000
0000
1000
0000
0000
0001
0000
0000
1000
0000
0000
0001
0000
0000
,
1000
0001
1000
0001
1000
0001
1000
0001
1000
0001
1000
0001
1000
0001
1000
0001
,
1000
0001
1000
0001
1000
0010
0100
0001
1000
0000
2100
0000
3001
0000
0102
0000
,
1003
0000
2100
0000
3001
0000
0102
0000
1003
0000
0010
0100
0010
0100
0010
0100
,
0010
0100
0010
0100
0010
0100
0010
0000
1001
0000
0000
0000
0101
0000
0000
0000
,
0011
0000
1100
0000
1001
0001
0100
0110
,
0010
1000
1010
0000
0100
0000
1100
0000
,
0011
0000
0101
0000
1001
0001
0010
0110
,
0010
0001
1001
0000
0100
0000
1001
0000
,
0011
0000
1100
0000
1001
1000
0010
1010
,
0010
0100
0101
0000
1001
0000
0100
0102
,
0000
0013
0011
0000
0110
0000
0100
2100
,
0000
3001
1001
0110
1001
0000
1010
0000
,
1100
0000
0011
0000
1001
1000
0100
0110
,
0100
1000
1001
0000
0100
0000
0101
0000
,
1010
0000
1100
0000
1001
1000
0010
0110
,
0010
1000
1100
0000
0010
0000
1001
0000
,
1100
0000
0011
0000
1001
1000
0100
0120
,
0000
0000
0000
0000
0130
0000
0000
0000
1001
0000
0000
0000
0000
0000
0000
0000
0001
0000
0000
0000
0000
0000
0000
0000
0001
0000
0000
0000
0200
0300
0000
0000
,
0000
0000
0000
0000
0200
0300
0000
0000
1000
0000
0000
0000
0000
0000
0000
0000
0001
0000
0000
0000
1000
0000
0010
0000
1000
0000
0010
0000
1000
0000
0010
0000
,
1000
0010
1000
0010
1000
0010
1000
0000
1001
0000
0002
0000
0103
0000
0001
0010
,
0001
1000
0001
1000
0001
0000
0001
0000
1001
0000
2000
0000
3100
0000
0010
0100
,
1000
0100
1000
0100
0010
0000
0001
0000
1001
0000
0002
0000
0013
0000
0001
1000
,
0010
0100
0001
0010
0100
1000
0001
0001
0002
1000
1000
2000
,
0000
0000
0000
0000
3003
0000
0000
0000
1001
0000
0001
0100
0001
0000
0100
0000
,
0010
0000
1000
0001
1000
0000
0100
0000
0010
0000
0001
0010
0001
0000
0010
0000
,
0100
0000
1000
0010
0000
0100
0001
1000
0001
0000
1000
0010
1000
0000
0010
0000
,
1000
0000
0001
0010
0001
0000
0010
0000
0100
0000
0010
0100
0010
0100
0010
0100
,
0010
0100
0010
0100
0010
0100
0010
0000
1001
0000
0010
1000
0010
0000
0100
0000
,
0001
0000
0010
0100
0010
0000
0001
0000
1000
0000
0100
1000
0100
0000
1000
0000
,
0001
0000
1000
0010
0000
1000
0100
0010
0100
0000
0010
0001
0010
0000
0001
0000
,
0100
0000
0000
0000
0000
0000
0020
0000
0000
1000
0030
0000
0010
0000
0000
0000
0000
0000
0200
0000
0000
0000
0300
0000
0001
0000
0000
0000
0000
0000
1000
0000
0000
0100
0000
0000
1000
0000
0000
0000
0000
0000
0100
0000
0000
0000
0000
0000
,
1000
0000
0001
0100
0000
0010
1000
0000
1001
0000
0000
0000
0000
0000
0000
0000
;

//--------------- dance-double - Pandemonium X ----------------
#NOTES:
     dance-double:
     Pandemonium X:
     Easy:
     7:
     0,0,0,0,0:
00000000
00000000
00000000
00000000
,
00000000
00000000
00000000
00000000
,
00010000
00001000
00010000
00001000
,
00010000
00000000
00001000
00000000
00010000
00000000
00001000
00010000
,
00001000
00010000
00001000
00010000
,
00001000
00000000
00010000
00000000
00001000
00000000
00010000
00010000
,
00001000
00010000
00001000
00010000
,
00001000
00000000
00010000
00000000
00001000
00000000
00010000
00001000
,
00010000
00001000
00010000
00001000
,
00011000
00011000
00011000
00011000
,
00001000
01000000
00100000
10000000
,
01000000
00010000
01000000
00010000
,
00100000
00001000
00010000
00000010
,
00000100
00001000
00000100
00000001
,
00001001
00000001
00000100
00000010
,
00001010
00001000
00000100
00010000
,
00011000
00001000
01001000
01000000
,
01100000
10010000
01100000
10010000
,
01100000
01100000
01100000
01100000
,
01100000
01100000
10010000
00000000
,
00000000
00000000
00000000
00000000
,
00000000
00000000
00000000
00000000
,
00000000
00000000
00000000
00000000
,
00000000
00000000
10010000
10000000
,
00010000
00000000
00100000
00000000
00001000
00000000
00000000
00001000
,
00000000
00001000
00000000
00010000
,
00000100
00000000
00001000
00000000
00000010
00000000
00000000
00000010
,
00000000
00000010
00000000
00000100
,
00000001
00000000
00001000
00000000
00000100
00000000
00000000
00000100
,
00000000
00000000
00010000
00000000
00001000
00000000
00000000
00001000
,
00000000
00000000
01000000
00000000
00100000
00000000
00000000
00100000
,
00000000
10100000
01010000
00000000
,
00000000
00110000
00101000
00000000
,
00000000
00011000
00010100
00000000
,
00000000
00001100
00001010
00000000
,
00000000
00000101
00001001
00000000
,
00000001
00000000
00001000
00000000
,
00000100
00000000
00010000
00010000
,
00010000
00010000
00010000
00010000
,
00010000
00000000
00022000
00000000
,
00000000
00000000
00000000
00000000
,
00000000
00000000
00000000
00033000
00000000
00010000
00000000
00010000
,
00000000
00010000
00000000
00010000
00011000
00000000
00000000
00000000
,
00000000
00000000
01001000
00001000
,
01000000
00100000
10000000
10000000
,
00010000
10010000
00010000
00100000
,
00001000
00010000
00000010
00000010
,
00000100
00001001
00000001
00000010
,
00000100
00001000
00000100
00010000
,
00001000
01000000
00001000
00001000
,
00001000
00011000
00010000
00010000
,
00010000
00011000
00000000
00000100
,
00010000
00001000
01000000
00010000
,
00100000
01100000
00000000
01000000
,
10000000
00010000
01000000
00001000
,
00010000
00010100
00000000
00000100
,
00001000
00000010
00000100
00000001
,
00000010
00000000
00000100
00000000
00001000
00000000
00000000
00001000
,
00000000
00000000
00001000
00000000
00000100
00000000
00000000
00000100
,
00000000
00000100
00010100
00010000
,
00001000
01000000
01010000
00010000
,
00100000
01000000
11000000
10000000
,
00100000
01000000
00010000
00100000
,
00000000
00101000
00010000
00000100
,
00001000
00000010
00000100
00000001
,
00000010
00000100
00001000
00000100
,
00010000
00001000
01000000
00010000
,
00100000
01000000
11000000
01000000
,
10000000
00100000
01000000
00010000
,
00100000
00001000
00010000
00000100
,
00001000
00000000
00000010
00000000
00000000
00000100
00000000
00000010
,
00000000
00010000
00000000
00001000
00011000
00000000
00000000
00000000
;

//--------------- dance-double - Pandemonium X ----------------
#NOTES:
     dance-double:
     Pandemonium X:
     Medium:
     11:
     0,0,0,0,0:
00000000
00000000
00000000
00000000
,
00000000
00000000
00000000
00000000
,
00001000
00001000
00001000
00001000
,
00001000
00000000
00001000
00000000
00001000
00000000
00001000
00001000
,
00010000
00010000
00010000
00010000
,
00010000
00000000
00010000
00000000
00010000
00000000
00010000
00010000
,
00000100
00000100
00000100
00000100
,
00000100
00000000
00000100
00000000
00000100
00000000
00000100
00000100
,
00000010
00000010
00000010
00000010
,
00000011
00001100
00000011
00001100
,
00000001
00000100
00000010
00001000
00000100
00010000
00001000
00001000
,
01000000
00010000
00100000
01000000
10000000
01000000
10000000
10000000
,
00010000
01000000
00010000
00100000
00001000
00010000
00000010
00000010
,
00000100
00000010
00001000
00000100
00010000
00001000
00010000
00010000
,
00011000
00000000
00001000
01000000
00100000
00000000
10000000
01000000
,
00110000
00000000
00010000
01000000
00001000
00000000
00010000
00000100
,
00010100
00011000
01001000
01010000
,
10000000
01000000
00100000
00010000
00001000
00000100
00000010
00000001
,
00001001
00001001
00001001
00001001
,
00001001
00001001
00000110
00000000
,
00000000
00000000
00000000
00000000
,
00000000
00000000
00000000
00000000
,
00000000
00000000
00000000
00000000
,
00000000
00000000
00001001
00000001
,
00000100
00000000
00000010
00000000
00001000
00000000
00000100
00010000
,
00000000
00010000
00001000
00000000
00000000
00000000
00010000
00000000
,
00001000
00000000
01000000
00000000
00010000
00000000
00010000
00100000
,
00000000
00100000
01000000
00000000
00000000
00000000
00100000
00000000
,
00010000
00000000
10000000
00000000
00100000
00000000
01000000
00010000
,
00000000
00010000
00100000
00000000
00001000
00000000
00010000
00000100
,
00000000
00000100
00001000
00000000
00000010
00000000
00000100
00000010
,
00000000
00000010
00001010
00000000
00001100
00000000
00000000
00000000
,
00000000
00010100
00011000
00000000
,
00000000
01001000
01100000
00000000
,
00000000
10100000
01010000
00000000
,
00000000
00000000
00110000
00000000
00101000
00001000
00010000
00001000
,
00000000
00010000
00001000
00010000
00000000
00001000
00010000
00001000
,
00000000
00010000
00001000
00010000
00000200
00000000
00002300
00000000
,
00003020
00000032
00000023
00002030
,
00023000
00031000
00022000
00000000
,
00000000
00000000
00000000
00000000
,
00000000
00000000
00033000
00000000
00000000
00011000
00000000
00110000
,
00000000
01100000
00000000
11000000
00200000
02000000
00000000
00000000
,
00000000
00000000
00000000
03300000
10010000
00000000
00010000
00000000
,
01000000
00000000
00010000
00000000
00100000
00000000
00001000
00010000
,
00000000
00000100
00001000
00000000
00000000
00000000
00000010
00000000
,
00000100
00000000
00000001
00000000
00000010
00000000
00000100
00000010
,
00000000
00000100
00001000
00000000
00000000
00000000
00000100
00000000
,
00010000
00000000
00001000
00000000
01000000
00000000
00010000
00100000
,
00000000
01000000
10000000
00000000
00100000
00000000
10000000
00100000
,
00000000
01000000
00010000
00000000
00100000
00000000
00001000
00010000
,
00000000
00000100
00001100
00000000
00000011
00000000
00000001
00000000
,
00000100
00000000
00000010
00000000
00000100
00000000
00000001
00001000
,
00000000
00000100
00010000
00000000
00000000
00000000
00001000
00000000
,
01000000
00000000
00010000
00000000
00100000
00000000
01000000
10000000
,
00000000
01000000
00100000
00000000
00000000
00000000
01000000
00000000
,
10000000
00000000
00100000
00000000
01000000
00000000
00010000
01000000
,
00000000
00010000
00100000
00000000
00001000
00000000
00010000
00000100
,
00000000
00010000
00001000
00000000
00010000
00000000
00000100
00001000
,
00000000
00000100
00000010
00000000
00000011
00000000
00000001
00000000
,
00000100
00000000
00000010
00001000
00001100
00000000
00000100
00000000
,
00010000
00000000
00001000
01000000
01001000
00000000
00001000
00000000
,
01001000
00010000
01010000
10100000
,
20020000
00000000
00000000
00000000
30030000
00000000
00000000
00000000
00000000
00000000
10000000
00000000
00000000
10000000
00000000
00000000
,
01000000
00000000
00000000
01000000
00000000
00000000
00100000
00000000
00001000
00000000
00000000
00001000
00000000
00000000
00010000
00000000
,
00000100
00000000
00000000
00001000
00000000
00000000
00000010
00000000
00000000
00000000
00000100
00000000
00000000
00000100
00000000
00000000
,
00000010
00000000
00000000
00000010
00000000
00000000
00000100
00000000
00000001
00000000
00000000
00000010
00000000
00000000
00000100
00000000
,
00001000
00000000
00000000
00000100
00000000
00000000
00010000
00000000
00010100
00000000
00010000
00000000
00000000
00010000
00000000
00000000
,
00001000
00000000
00000000
00001000
00000000
00000000
01000000
00000000
01001000
00000000
00000000
01000000
00000000
00000000
01000000
00000000
,
00100000
00000000
00000000
00100000
00000000
00000000
01000000
00000000
00010000
00000000
00100000
00000000
00000000
01000000
00000000
00000000
,
10000000
00000000
00000000
00010000
00000000
00000000
10000000
00000000
00000000
00000000
10010000
00000000
00000000
00000000
00110000
00000000
,
00000000
00101000
00000000
00011000
00010010
00000000
00000000
00000000
;

//--------------- dance-double - Pandemonium X ----------------
#NOTES:
     dance-double:
     Pandemonium X:
     Hard:
     15:
     0,0,0,0,0:
00000000
00000000
00000000
00000000
,
00000000
00000000
00000000
00000000
,
00001000
00001000
00001000
00001000
,
00001000
00000000
00000000
00000000
00001000
00000000
00000000
00000000
00001000
00000000
00000000
00000000
01000000
00001000
01000000
00010000
,
00100000
00100000
00100000
00100000
,
00100000
00000000
00000000
00000000
00100000
00000000
00000000
00000000
00100000
00000000
00000000
00000000
01000000
10000000
00010000
01000000
,
00010000
00010000
00010000
00010000
,
00010000
00000000
00000000
00000000
00010000
00000000
00000000
00000000
00010000
00000000
00000000
00000000
01000000
00010000
00100000
00001000
,
00010000
00010000
00010000
00010000
,
00011000
00011000
00011000
00011000
,
00010000
00000100
00001000
00000010
00000000
00000100
00001000
00000100
00000001
00000100
00000001
00000100
00000010
00001000
00000100
00000000
,
00000100
00010000
00001000
00100000
00000000
00010000
00100000
10000000
00100000
01000000
00100000
01000000
10000000
00100000
01000000
00000000
,
00010000
10000000
01000000
00100000
00000000
01000000
00010000
01000000
10000000
00100000
10000000
00100000
01000000
00001000
00010000
00000000
,
00001000
00010000
00000100
00001000
00000000
00000010
00000001
00000010
00001000
00000001
00001000
00000001
00000010
00000100
00001000
00000100
,
00010000
00001000
00000000
00100000
00010000
10000000
01000000
00000000
10000000
00100000
00000000
01000000
00010000
01000000
00100000
00000000
,
00001000
00010000
00000000
00000100
00001000
00000010
00000100
00000000
00000010
00001000
00000000
00000010
00001000
00000001
00001000
00000000
,
00001100
00000000
00000100
00010000
00001000
00000000
00010000
00001000
01000000
00000000
00100000
10000000
01000000
00000000
00100000
00010000
,
00001000
00000000
00000100
00000000
00000010
00000000
00000001
00000000
00000100
00001000
00010000
00100000
01000000
10000000
00010000
10000000
,
01000000
00011000
00001001
00011000
,
00011000
10010000
02200000
00000000
,
00000000
00000000
00000000
00000000
,
00000000
00000000
00000000
00000000
,
00000000
00000000
00000000
00000000
,
00000000
03300000
10010000
10000000
,
00010000
00000000
00100000
00000000
00010000
00000000
10000000
00010000
,
00000000
00010000
00001000
00000000
00000000
00000000
00010000
00000000
,
00000010
00000000
00000100
00000000
00000001
00000000
00000001
00001000
,
00000000
00001000
00010000
00000000
00000000
00000000
00001000
00000000
,
01000000
00000000
00100000
00000000
10000000
00000000
10000000
00010000
,
00000000
00010000
00001000
00000000
00001001
00000000
00000001
00001000
,
00000000
00001000
00010000
00000000
10010000
00000000
10000000
00010000
,
00000000
00010000
00011000
00000000
00011000
00000000
00010000
00000000
,
00001000
00011000
00011000
00010000
,
00001000
00011000
00011000
00010000
,
00001000
00011000
00011000
00010000
,
00001000
00000000
00011000
00000000
00011000
00000100
00010000
00011000
,
00000000
00010000
00001000
01001000
00000000
00100000
10000000
11000000
,
00000000
00000000
00000000
00100000
00000000
00000000
00001000
00000000
00000000
00010100
00000000
00000000
00000100
00000000
00000010
00000000
00000001
00000000
00000100
00000000
00001000
00000000
00010000
00000000
,
00100000
01000000
00010000
10000000
01000000
00100000
00010000
00001000
00100000
00010000
01000000
10000000
,
01000000
00000000
00000000
00000000
00001000
00000000
00000000
00000000
00200000
00000000
00000000
00000000
00000000
00000000
00000000
00000000
00000000
00000000
00000000
00000000
00000000
00000000
00000000
00000000
00301000
00000000
00000000
00010000
00000000
00000000
00001000
00000000
00000000
00010000
00000000
00000000
00001000
00000000
00000000
00010000
00000000
00000000
00001000
00000000
00000000
00010000
00000000
00000000
,
00001000
00010000
00001000
00010000
00001000
00010000
00001000
00010000
00001000
00010000
00001000
00010000
00001000
00010000
00001000
00010000
,
00001000
00010000
00001000
00010000
00001000
00100000
00010000
10000000
01000000
00000000
00110000
00000000
00100000
00000000
00101000
00000000
,
00010000
00000000
00010100
00000000
00000100
00000000
00001010
00000000
00001001
00000000
00000001
00000100
00000001
00000100
00000001
00000100
,
00000001
00000100
00000001
00000100
00000001
00000100
00000001
00000000
00002010
00000000
00000000
00000000
00003100
00000000
00010000
00000000
,
00001000
01000000
00100000
00010000
00100000
10000000
01000000
00100000
,
00010000
00001000
00000100
00000010
00001001
00000000
00000001
00000100
,
00000010
00001000
00000100
00010000
00000100
00001000
00000100
00010000
,
00001000
01000000
10000000
01000000
00010000
00000000
01010000
00000000
,
10010000
00000000
00110000
00000000
00100000
00001000
00010000
00000010
,
00001000
00000100
00000010
00000000
00000001
00000100
00001000
00010000
,
00001000
00100000
01100000
00000000
01000000
00100000
00010000
00001000
,
00000100
00000001
00000011
00001100
00001001
00000000
00001001
00000000
,
00010100
00000000
00101000
00000000
00010000
00100000
10000000
00100000
,
00010000
01000000
10000000
01000000
00010000
00000000
00110000
00000000
,
00101000
00000000
00010100
00000000
00001000
00000010
00000001
00000010
,
00000100
00000001
00001100
00000110
00001100
00000000
00000110
00000000
,
00010010
00000000
00101000
00000000
00110000
00100000
01000000
11000000
,
10000000
10100000
01100000
00000000
10010000
00000000
10000000
00010000
,
00000000
00010000
00001000
00000000
00011000
00000000
00001000
00000001
,
00000000
00000000
00000001
00000000
00001000
00000000
00000000
00000000
00011000
00000000
00002000
00000000
01003000
00000000
00100000
10000000
,
01000000
00100000
01000000
10000000
00010000
00000000
01000000
00000000
01001000
00000000
00002000
00000000
00013000
00000000
00000100
00001000
,
00000100
00000000
00000000
00000100
00000000
00000000
00000100
00000000
00000011
00000000
00000020
00000000
00000130
00000000
00000010
00000000
,
00000001
00000100
00000010
00001000
00000001
00000100
00000010
00010000
00001000
00100000
00010000
01000000
,
00000000
00000000
00000000
00000000
00011000
00000000
00000000
00000000
00010100
00000000
00000100
00001000
00000010
00000000
00000100
00000000
,
00000001
00000000
00000010
00000001
00001000
00000000
00000100
00000000
00010000
00000000
00001000
01000000
00100000
00000000
10000000
00000000
,
00010000
00000000
10000000
01000000
00000000
00100000
00010000
00000000
01000000
00000000
00010000
00100000
00001000
00000000
00010000
00000000
,
00000100
00000000
00001000
00000010
00000100
00000000
00000001
00000000
00000010
00000000
00000100
00000010
00000001
00000000
00001000
00000000
,
00000010
00000000
00010000
00001000
00000000
01000000
00100000
00000000
10100000
00000000
00100000
10000000
01000000
00000000
00100000
00000000
,
00001000
00000000
00010000
00000100
00001000
00000000
00000010
00000000
00000101
00000000
00000001
00000010
00000100
00000000
00000010
00000000
,
00000001
00000000
00000100
00000010
00000000
00000100
00000001
00001000
00000001
00000000
00000001
00000000
00001000
00000000
00001000
00000000
,
00000100
00000000
00020100
00000000
00031000
00000000
02001000
00000000
03100000
00000000
01000000
00010000
00000000
00100000
01000000
00000000
,
10000000
00000000
00100000
00001000
00000000
00010000
00000010
00000000
00011000
00000000
00000000
00000000
00000000
00000000
00000000
00000000
;
