#TITLE:THE F∀UST;
#SUBTITLE:;
#ARTIST:Masqed Pierrot;
#TITLETRANSLIT:;
#SUBTITLETRANSLIT:;
#ARTISTTRANSLIT:;
#GENRE:;
#CREDIT:;
#MUSIC:THE FAUST.ogg;
#BANNER:THE FAUST.png;
#BACKGROUND:THE FAUST-bg.png;
#CDTITLE:;
#SAMPLESTART:6.669;
#SAMPLELENGTH:22.588;
#SELECTABLE:YES;
#OFFSET:0.389;
#BPMS:0.000=170.000
,19.000=340.000
,20.000=85.000
,22.000=170.000
,26.000=85.000
,28.000=170.000
,32.000=85.000
,72.000=170.000
,100.000=680.000
,104.000=85.000
,106.000=170.000
,134.000=85.000
,135.500=340.000
,137.000=170.000
,152.000=340.000
,154.000=170.000
,166.000=42.500
,167.000=85.000
,185.000=170.000
,189.000=85.000
,191.000=170.000
,211.000=42.500
,212.000=170.000
,272.000=85.000
,272.500=340.000
;
#STOPS:19.000=0.176
,100.000=0.265
,101.000=0.265
,102.000=0.265
,103.000=0.265
,135.500=0.088
;
#DISPLAYBPM:*;
#BGCHANGES:;
#FGCHANGES:;

//--------------- dance-single - Pandemonium X ----------------
#NOTES:
     dance-single:
     Pandemonium X:
     Beginner:
     7:
     0,0,0,0,0:
0000
0000
0000
0000
,
0000
0000
0000
0000
,
0000
0000
0000
0000
,
0000
0000
0000
0000
,
0000
0000
0000
0000
,
0110
0000
0000
0000
,
0000
0000
1001
0000
,
0000
0000
0000
0000
,
0110
0000
0001
1000
,
0100
0000
1000
0000
,
0110
0000
0100
0001
,
0010
0100
0011
0001
,
1000
0010
0100
1000
,
0100
0001
1001
0000
,
0001
0000
0100
0000
0010
0000
1000
0100
,
0010
0000
0100
0000
1000
0000
0001
0010
,
0001
0000
0100
0000
0010
0000
1000
0001
,
1000
0000
0100
0000
0010
0000
0001
0100
,
0001
0000
1000
0000
,
0010
0000
1000
0000
,
0100
0100
0010
0000
,
0100
0100
1000
0000
,
1001
0001
0100
0000
,
1001
1000
0100
0000
,
1001
0001
0100
0001
,
0110
0000
0000
0000
,
0020
0000
1030
0000
,
0001
0000
0010
0000
,
0001
0000
1000
0000
,
0100
0000
0010
0010
,
0200
1300
0001
0000
,
1000
0000
0010
0000
,
1000
0000
0100
0000
,
0010
0000
0000
0000
0000
0001
0001
0000
,
0000
1000
0000
0001
,
0100
0100
0010
0000
,
0100
0001
0000
1000
,
0000
0010
0000
0100
,
0000
0000
0010
0000
,
0000
0100
0100
0000
,
0000
0010
0010
0000
,
1000
0000
1001
0001
,
0000
1000
0000
0100
,
0000
0010
0000
0001
,
0000
0100
0000
0010
,
0000
1000
0000
1001
,
0000
0001
0100
0010
,
1000
0110
0000
1000
,
0100
0010
0100
1000
,
0000
0001
0000
0100
,
0000
0010
0000
1000
,
1000
0001
0001
0100
,
0010
1000
0001
0010
,
1100
0100
1000
0010
,
0100
0001
0010
0001
,
0200
0000
0310
0010
,
0100
0001
1000
0100
,
0010
1001
0001
0100
,
0010
1001
1000
0001
,
0100
0100
0001
0001
,
2200
0000
0000
3300
,
0001
0100
0001
1000
,
0100
0010
0100
1000
,
0020
0000
0130
0010
,
2002
0000
0000
3003
,
0001
0100
1000
0100
,
0001
0010
1000
0010
,
0001
0010
0100
1000
,
0001
0110
0000
0000
0000
0000
0000
0000
;

//--------------- dance-single - Pandemonium X ----------------
#NOTES:
     dance-single:
     Pandemonium X:
     Easy:
     12:
     0,0,0,0,0:
0000
0000
0000
0000
,
0000
0000
0000
0000
,
0000
0000
0000
0000
,
0000
0000
0000
0000
,
0000
0000
0000
0000
,
2002
0000
3003
0000
,
0000
0000
0220
0000
,
0330
0000
0000
0000
,
2001
0000
3020
0230
,
0302
0000
0000
0000
0000
0000
0000
0000
0023
0000
0000
0000
0000
0000
0000
0030
,
1200
0000
0302
0203
,
2300
3020
0230
2300
,
3200
0302
0023
0230
,
2300
0000
0000
0000
3001
0100
0000
0010
2000
0000
0000
0000
0000
0000
0000
0000
,
3100
1000
0100
0000
1000
0000
0010
0100
0001
0000
0010
0000
0100
0010
0001
0000
,
0010
0001
0100
0000
0010
0000
0100
0001
1000
0000
0100
0000
0010
0100
1000
0000
,
0100
0010
0001
0000
0010
0000
0001
0100
0010
0000
0100
0000
0010
1000
0001
0000
,
0010
0100
1000
0000
0100
0000
0010
0001
0100
0000
0010
0000
0100
0010
1000
0000
,
0001
0000
0000
0000
1000
0000
0000
0000
0001
0000
0000
1000
0000
0000
0010
0000
,
1000
0000
0000
0000
0100
0000
0000
0000
0010
0000
0000
0100
0000
0000
1000
0000
,
0001
0000
0000
0000
0100
0000
0000
0000
0001
0000
0000
0010
0000
0000
0100
0000
,
0000
0000
0010
0000
0010
0000
0000
0000
0100
0000
0000
0010
0000
0000
0001
0000
,
1000
0010
0100
0000
1000
0000
0100
0000
,
0001
0010
1000
0000
0010
0000
0100
0000
,
0010
0001
0100
0010
1000
0001
0010
0100
,
1001
0000
0000
0000
,
0002
0000
0023
0000
0230
0000
2300
0000
3001
0000
0000
0001
0000
0000
0001
0000
,
1000
0000
0000
0000
1100
0000
0000
0000
1000
0000
0000
1000
0000
0000
1000
0000
,
0001
0101
0001
0100
,
0010
0000
1000
0000
0001
0010
0100
0010
,
0001
0000
0000
0000
1000
0000
1000
0000
0001
0000
0000
1000
0000
0000
0001
0000
,
0010
0000
0000
0000
1001
0000
0000
0000
1000
0000
0000
0001
0000
0000
1000
0000
,
0100
1001
0001
0010
,
0100
0000
0000
0000
0010
0000
0000
0000
0000
0001
0001
0000
1000
0000
0000
0000
,
0000
0000
0000
0000
0001
0000
0000
1000
0000
0000
0100
0000
1000
0000
0000
0000
,
2002
3003
2002
3003
0001
1000
0010
0100
,
0001
0010
0001
0000
0010
0000
0100
0000
,
0010
0001
0100
0010
,
0000
0000
0000
0000
0000
0000
0000
0000
0100
0000
0000
0010
0000
0000
1000
0000
,
0000
0001
0000
0000
0010
0000
0001
0000
0100
0000
0000
0010
0000
0000
1000
0000
,
0000
0001
0000
0000
0010
0000
0001
0000
0100
0000
0010
0000
1000
0000
0001
0000
,
0010
0000
0100
0000
1000
0001
1000
0001
1000
0000
0000
0000
0001
0000
0000
0000
,
0100
0000
0010
1000
0010
0000
1000
0000
,
0100
0000
0010
0001
0010
0000
0001
0000
,
1000
0000
0010
0100
0010
0000
0100
0000
,
0001
0000
0010
0100
0010
0000
2002
0000
,
0000
3003
0001
0100
0010
1000
0001
0010
,
0100
1000
2002
0000
0000
3003
0001
1000
,
0100
0010
0100
1000
0001
0100
0001
0000
,
1000
0010
0100
1001
,
0011
1001
1100
0101
,
1010
1100
0011
0101
,
1010
0101
0110
1001
,
0001
0000
0000
0001
0000
0000
0001
0000
1000
0000
0100
0000
0010
0000
0100
0000
,
1000
0000
0000
1000
0000
0000
1000
0000
0100
0000
1000
0000
0001
0000
0100
0000
,
0020
0000
0000
0031
0010
0100
0001
1000
,
0100
0000
0000
0100
0000
0000
0100
0000
0010
0000
0000
0000
0100
0000
0000
0000
,
1000
0010
1010
0000
0010
0000
0100
0000
,
0001
0010
0011
0000
0001
0000
1000
0000
,
0001
0000
0000
0001
0000
0000
0001
0000
1000
0000
0010
0000
0100
0000
0001
0000
,
0020
0100
0001
0130
,
1100
0100
1000
1000
0010
0100
0001
0001
,
0010
0100
0010
0010
0001
0100
0010
1000
,
0200
0000
0000
0310
0001
0001
0100
0010
,
1000
0010
0000
0100
0000
0001
0000
1000
0000
0100
0000
0010
0200
0000
0000
0000
,
1300
0100
1000
0010
0100
0001
0010
0100
,
0010
0001
0100
0010
1000
0001
0010
0100
,
1000
0100
0010
0100
1000
0001
0010
0100
,
0001
1000
0001
0000
0110
0000
0000
0000
0000
0000
0000
0000
0000
0000
0000
0000
0000
0000
0000
0000
0000
0000
0000
0000
0000
0000
0000
0000
0000
0000
0000
0000
;

//--------------- dance-single - Pandemonium X ----------------
#NOTES:
     dance-single:
     Pandemonium X:
     Medium:
     16:
     0,0,0,0,0:
0000
0000
0000
0000
,
0000
0000
0000
0000
,
0000
0000
0000
0000
,
0000
0000
0000
0000
,
0000
0000
0000
0000
,
2002
0000
0000
0000
0000
0000
0000
3003
0001
0000
0000
1000
0000
0000
0010
0000
,
0100
0010
0100
0000
1001
0000
0000
0000
0220
0000
0000
0000
0000
0000
0000
0330
,
0101
0000
0000
1010
0000
0000
0000
0000
0101
0000
0000
1010
0000
0000
0000
0000
,
2001
0000
3002
0023
,
0230
0000
0000
0000
0000
0000
0000
0000
0000
0000
0000
0000
0000
0000
0000
0000
0320
0000
0000
0000
0000
0000
0000
0000
0000
0000
0000
0000
0000
0000
0031
1000
,
0020
0000
0230
2300
,
3200
0302
0023
2030
,
3020
0230
0320
0032
,
0203
0000
0000
0000
1300
0100
0000
0100
0002
0000
0000
0000
0000
0000
0000
0000
,
1003
0100
0010
0100
1000
0001
0100
0010
0100
0001
0010
0001
0100
0010
1000
0100
,
0010
0001
0100
0010
1000
0010
0100
0010
1000
0001
0010
0100
1000
0001
0100
0010
,
1000
0001
1000
0100
0010
0001
0100
0001
0010
0100
1000
0001
0100
0010
1000
0001
,
1000
0100
0010
0001
0010
0001
1000
0001
0010
0100
1000
0001
0100
0010
1000
0001
,
0010
0000
0000
0100
1000
0000
0001
0000
0101
0000
0000
1010
0000
0000
1010
0000
,
1001
0000
0000
0001
0010
0000
0100
0000
1100
0000
0000
0011
0000
0000
0101
0000
,
1010
0000
0000
0000
1001
0000
0000
0000
1001
0000
0000
1010
0000
0000
0110
0000
,
0000
0000
1001
0000
1001
0000
0000
0000
0011
0000
0000
0110
0000
0000
1100
0000
,
0100
0010
0001
0000
0010
0000
0001
0000
0100
0000
0010
0000
1000
0000
0001
0000
,
1000
0100
0010
0000
0100
0000
1000
0000
0010
0000
0100
0000
0001
0000
0010
0000
,
0100
0010
0001
0000
0010
0000
0100
0000
1000
0100
0010
0000
0001
0000
1000
0000
,
2002
0000
0000
3003
,
0002
0000
0203
0000
0320
0000
2030
0000
3001
0000
0010
0001
0000
0001
0100
0000
,
0010
0000
0100
0000
0001
0000
1000
0000
0100
0000
0010
0100
0000
0100
1000
0000
,
0001
0000
1000
0000
0100
0000
0010
0000
0100
0000
0010
0001
0010
0000
0010
0100
,
0010
0000
0010
0001
0010
0100
0010
0001
0000
0000
1000
0000
0010
0000
0100
0000
,
0002
0000
0000
0000
0013
0000
1100
0000
1001
0000
1000
0001
0000
0010
0100
0000
,
0010
0000
0001
0000
0100
0000
0010
0000
1000
0000
0001
0010
0000
0100
1000
0000
,
0100
0000
0010
0000
0100
0000
1000
0000
0001
0000
0100
0010
1000
0000
0010
0100
,
0001
0000
0010
0100
1000
0001
1000
0001
0000
1000
0100
0000
0020
0000
0001
0000
,
0000
0000
0000
0000
0130
0000
0010
0001
0000
1000
0010
0000
0100
0000
0001
0000
,
2000
0000
0000
3100
2000
0000
0000
3100
1000
0000
0100
0000
0010
0000
0100
0000
,
1000
0001
1000
0001
0100
0000
0000
0001
0000
0000
0010
0100
0010
0000
0100
1000
,
0100
0000
1000
0010
1000
0000
0010
0100
0010
0000
0100
0001
0100
0000
0001
0000
,
2001
0000
0000
0000
0000
0000
0000
0000
3200
0000
0000
0320
0000
0000
0032
0000
,
0000
0203
0000
0000
0320
0000
2030
0000
3001
0020
0030
0010
0200
0300
0100
2000
,
3000
0100
0020
0030
0100
1000
0010
0100
0001
0100
0000
0010
1000
0001
0010
0100
,
0010
0001
1000
0010
0100
0001
1000
0001
0010
0000
0000
0000
0200
0000
0000
0000
,
2300
3020
0032
0023
,
0230
0302
2003
3200
,
0320
0032
0203
2300
,
3200
0320
2030
0002
,
0000
0000
3003
0000
1000
0010
1000
0010
0100
0001
0100
0001
0100
0010
1000
0001
,
0010
0100
1000
0001
2000
0000
0000
0000
0000
0000
0000
0000
3001
0100
0001
0100
,
0010
1000
0010
1000
0010
0100
0001
1000
0100
0010
0001
1000
0001
0000
1000
0000
,
0010
1000
0001
0010
0100
0010
0001
1000
,
0010
0000
0100
0000
0001
0000
0010
0000
0100
0000
1000
0000
0001
0100
0001
0000
,
0100
0010
0100
0000
0010
1000
0010
0000
1000
0100
1000
0000
0100
0010
0100
1000
,
0010
0100
0001
0010
0100
0010
0001
0100
0010
1000
0001
1000
0020
0000
0000
0000
,
0130
0001
0000
0010
0100
0000
0010
0001
1000
0000
0010
0000
1000
0000
0001
0000
,
0010
0100
0000
0010
0001
0000
0010
0001
1000
0000
0010
0000
0100
0000
0001
0000
,
2002
0000
0000
0000
3003
0000
1000
0010
0100
0000
1000
0000
0100
0000
0001
0000
,
1000
0010
0000
0100
0001
0000
0010
0100
0010
0000
0001
0000
1000
0000
0010
0000
,
1000
0010
0100
0001
0020
0000
0000
0000
0130
0000
0010
0000
0001
0000
0100
0000
,
0010
1000
0001
0010
0200
0000
0000
0000
0310
0000
0001
0000
1000
0000
0010
0000
,
0100
0001
0000
0001
0010
0000
0010
0100
1000
0000
0100
0000
0010
0000
0001
0000
,
2001
0000
0000
0000
3001
0100
0010
1000
0001
0100
0010
1000
0001
0100
0010
1000
,
0001
0010
0000
0100
1000
0000
0002
0000
0103
0010
1000
0000
0001
0010
0100
0000
,
0010
0001
0000
1000
0100
0000
0020
0000
0130
1000
0001
0000
0100
0001
0010
0000
,
2100
0000
0000
0000
0000
0000
3001
1000
0100
0000
0001
0000
0100
0000
1000
0000
,
0010
1000
0000
1010
0000
0101
0000
1010
0000
1100
0000
0100
0020
0000
0000
0000
,
0031
0010
0001
0000
1000
0100
1000
0000
0010
1000
0010
0000
0100
0001
0100
0000
,
0001
1000
0010
0000
0100
0001
0010
0000
0100
0010
0001
0000
0010
0100
1000
0000
,
0001
1000
0010
1000
0001
0010
0100
0010
0001
0100
0010
1000
0001
0010
0100
1000
,
0001
1000
0001
0000
0220
0000
0000
0000
0000
0000
0000
0000
0000
0000
0000
0000
0000
0000
0000
0000
0000
0000
0000
0000
0000
0000
0000
0000
0000
0000
0000
0000
,
0000
0000
0330
0000
;

//--------------- dance-single - Pandemonium X ----------------
#NOTES:
     dance-single:
     Pandemonium X:
     Hard:
     18:
     0,0,0,0,0:
0000
0000
0000
0000
,
0000
0000
0000
0000
,
0000
0000
0000
0000
,
0000
0000
0000
0000
,
0000
0000
0000
0000
,
2002
0000
0000
0000
0000
0000
3003
0000
1001
0000
0000
0101
0000
0000
0001
1000
,
0001
1000
0100
0000
0011
0000
0000
0000
2002
0000
0000
0000
0000
0000
3003
0000
,
1001
0000
0010
0100
0000
0000
0000
0000
1001
0000
0010
0100
0000
0000
0000
0000
,
2001
0000
3200
0320
,
0032
0000
0000
0000
0000
0000
0000
0000
0000
0000
0000
0000
0000
0000
0000
0000
0023
0000
0000
0000
0000
0000
0000
0000
0000
0000
0000
0000
0000
0000
0031
1000
,
2001
0000
3020
0032
,
0023
2030
3020
0230
,
0302
2003
3200
0320
,
0032
0000
0000
0000
1003
0020
0000
2030
0002
0000
0000
0000
0000
0000
0000
3000
,
0103
0001
0100
0000
0010
1000
0010
0000
1000
0100
1000
0000
0100
1000
0010
0100
0001
1000
0001
0000
1000
0100
1000
0000
0100
0010
0100
0010
0001
1000
0001
0100
,
0010
1000
0010
0000
1000
0100
1000
0000
0100
0010
0100
0000
0010
0001
0100
0001
1000
0001
1000
0000
0001
0100
0001
0000
1000
0010
1000
0100
0010
0001
1000
0001
,
0100
0001
0010
0000
0100
0010
0001
0000
0010
0001
0100
0000
0010
1000
0001
0010
0100
0010
0001
0000
0010
0100
1000
0000
0001
1000
0010
0100
0010
1000
0100
0010
,
0001
0010
0100
0000
0010
0001
1000
0000
0010
0100
0001
0000
0100
0001
0010
0100
1000
0001
0100
0000
0010
1000
0100
0000
0010
0001
0100
0000
0001
1000
0100
0010
,
0001
0000
1000
0010
0100
0000
0001
0010
0100
0000
0010
0001
0000
1000
0100
0000
,
0010
0000
0001
0000
0101
0000
0000
0000
0100
0000
0010
0100
0000
0001
0100
0001
,
1000
0000
0100
0000
0110
0000
0000
0000
1001
0000
1000
0010
0000
0100
0001
0000
,
0010
0000
0011
0000
1100
0000
0000
0000
1001
0000
0001
0100
0000
0010
1000
0100
,
0010
0001
0100
0000
1000
0000
0100
0000
0001
0000
1000
0000
0100
0000
0010
0000
,
0001
0010
1000
0000
0010
0000
0100
0000
0010
0000
0001
0000
0100
0000
1000
0000
,
0100
0010
0100
0010
1000
0001
1000
0001
0100
0010
1000
0100
0010
0001
1000
0001
,
1002
1000
1000
1000
,
2003
0000
0100
0000
0010
0000
0001
0000
3100
0010
0001
0100
0000
0010
0100
0001
,
1000
0100
1000
0100
1000
0100
0010
0001
0010
0100
1000
0010
0000
0100
0010
1000
,
0001
0010
0001
0010
0001
0010
0100
1000
0001
0000
1000
0010
1000
0010
1000
0010
,
1000
0010
1000
0010
1000
0100
1000
0001
1000
0000
0100
0000
0001
0000
0100
0000
,
0020
0000
0000
0030
0011
0000
0011
0000
0001
0100
0010
0100
0000
0010
1000
0001
,
0010
0100
0010
0100
0010
0001
0100
0010
1000
0010
0100
0010
0000
0100
0001
1000
,
0100
0010
0100
0010
0100
1000
0010
0100
0001
0000
1000
0001
1000
0001
1000
0001
,
0000
0100
0010
1000
0001
0010
0100
0000
0000
0011
1100
0000
1020
0000
0130
0000
,
0000
0000
0000
0000
0010
1000
0001
0010
0000
0100
0010
0001
0100
0001
0100
0001
,
0100
0020
0000
1030
0200
0000
0000
0310
0001
0100
0001
0010
0001
1000
0100
1000
,
0000
0001
1000
0001
0100
0000
0010
1000
0100
0000
0010
0001
1000
0000
0100
0010
,
0001
0000
0010
0001
0100
0000
0010
1000
0001
1000
0100
0010
0001
0010
0100
0000
,
1001
0000
0000
0000
0000
0000
0000
0000
0101
0000
0000
1010
0000
0000
1100
0000
,
0000
0110
0000
0000
0011
0000
0110
0000
1000
0100
0000
0100
0010
0000
0010
0001
,
0000
0001
0100
0000
0100
1000
0100
0001
1000
0100
0001
0100
1000
0010
0100
0001
,
0010
0100
1000
0001
0100
1000
0100
0001
1000
0000
0000
0000
1001
0000
0001
0000
,
0100
0000
1001
1000
0100
0000
1001
1000
,
0010
0000
1001
0001
0010
0000
0011
0010
,
0100
0000
1100
0100
0010
0000
0101
0100
,
0010
0000
1010
0010
0100
0000
1002
0000
,
0000
0000
0000
0000
0013
0001
0010
1000
0010
0001
1000
0001
0100
1000
0100
0001
,
1000
0000
0100
0000
0010
0000
0001
0000
2000
0000
0000
0000
0000
0000
0000
0000
0000
0000
0000
0000
3010
0100
0001
1000
0100
0000
0001
0000
0100
0000
1000
0000
,
0001
0100
0001
1000
0100
0001
0100
1000
0010
0100
0001
0010
0100
1000
0100
1000
,
0001
0010
0001
0010
0001
0100
0001
0100
0010
1000
0010
1000
0001
0100
0001
1000
,
0100
1000
0001
0010
0001
1000
0010
1000
0001
0010
0100
1000
0001
0100
1000
0100
,
0010
0001
0010
1000
0010
0001
1000
0010
1000
0010
0100
0001
0010
0100
1000
0100
,
0010
0000
0000
0000
0100
0000
0000
0000
0010
0000
0000
0000
0001
0000
0000
0000
0010
0000
0000
0000
0100
0000
0000
0000
1000
0000
0000
0000
0100
0000
0000
0000
1000
0000
0000
0000
0010
0000
0000
0000
0100
0000
0000
0000
0001
0000
0000
0000
2000
0000
0000
0000
0000
0000
0000
0000
0000
0000
0000
0000
0000
3100
0010
0001
,
1000
0010
0000
0100
0001
0000
0010
0001
0100
0001
1000
0100
0010
0100
1000
0001
,
0100
0001
0000
0010
0100
0000
0010
0001
0100
0001
1000
0010
0100
0001
0010
0100
,
0020
0000
0000
0000
0000
0000
0031
0010
0100
0010
0001
1000
0010
0100
0001
0000
,
1000
0100
0000
0010
0001
0000
0010
0001
1000
0010
1000
0001
0010
0100
1000
0001
,
0100
1000
0100
0001
2000
0000
0000
0000
3001
0010
0100
0010
0001
1000
0010
1000
,
0100
0001
0100
1000
0002
0000
0000
0000
1003
0010
0100
0001
0010
0100
0010
0001
,
1000
0010
0000
0100
0001
0000
0010
0001
1000
0100
0010
0001
0100
0010
1000
0001
,
0020
0000
0000
0000
0031
0100
1000
0100
0001
0010
1000
0010
0001
0100
1000
0100
,
0001
0100
0000
0010
1000
0000
1100
0000
0100
0010
0100
1000
0001
0100
0010
1000
,
0001
0010
0000
0100
0010
0000
0011
0000
0001
0100
0001
1000
0100
0010
0100
1000
,
0020
0000
0000
0000
0000
0000
0130
1000
0100
0000
0001
0000
1000
0000
0100
0000
,
0010
0001
0000
0110
0000
1001
0000
0101
0000
0001
0100
0010
2002
0000
0000
3003
,
0001
0100
1000
0100
0001
1000
0010
1000
0001
0010
0100
1000
0001
1000
0010
1000
,
0001
0010
1000
0010
0001
0100
0010
1000
0100
0001
0100
1000
0010
0001
0010
0100
,
0010
0100
0010
0100
0001
1000
0100
0010
0001
0010
0100
1000
0100
0010
0001
1000
,
0001
1000
0010
0000
2002
0000
0000
0000
0000
0000
0000
0000
0000
0000
0000
0000
0000
0000
0000
0000
0000
0000
0000
0000
0000
0000
0000
0000
0000
0000
0000
0000
,
3003
0000
0000
0000
;

//--------------- dance-single - G∀ME OVER ----------------
#NOTES:
     dance-single:
     G∀ME OVER:
     Challenge:
     19:
     0.914621,1.776261,0.445041,0.788582,1.608395,820,763,57,101,0,0,0.914621,1.776261,0.445041,0.788582,1.608395,820,763,57,101,0,0:
0000
0000
0000
0000
,
0000
0000
0000
0000
,
0000
0000
0000
0000
,
0000
0000
0000
0000
,
0000
0000
0000
0000
,
2020
0000
0000
0000
0000
0000
0000
0000
0000
0000
0000
0000
0000
0000
0000
0000
0000
0000
0000
0000
0000
0000
0000
0000
0000
0000
0000
0000
0000
0000
0000
0000
0000
0000
0000
0000
0000
0000
0000
0000
0000
0000
0000
0000
0000
0000
0000
0000
0000
0000
0000
0000
0000
0000
0000
0000
0000
0000
0000
0000
0000
0000
0000
0000
0000
0000
0000
0000
0000
0000
0000
0000
0000
0000
0000
0000
0000
0000
0000
0000
0000
0000
0000
0000
0000
0000
3030
0000
0000
0000
0000
0000
0000
0000
0000
0000
0101
0000
0000
0000
0000
0000
0000
0000
0000
0000
0000
0000
0000
0000
0000
0000
0000
0000
0000
0000
0000
0000
0000
0000
0000
0000
0000
0000
0000
0100
0000
0000
0000
0000
0000
0000
0000
0000
0000
0000
0000
0000
0000
0000
0000
0000
0000
0000
0001
0000
0000
0000
0000
0000
0000
0000
0000
0000
0000
0000
0000
0000
0000
0000
0010
0000
0000
0000
0000
0000
0000
0000
0000
0000
0000
0000
0000
0000
0000
0000
0100
0000
0000
0000
0000
0000
0000
0000
0000
0000
0000
0000
0000
0000
0000
0000
,
0010
0000
0000
0000
0000
0000
0000
0000
0001
0000
0000
0000
0000
0000
0000
0000
1000
0000
0000
0000
0000
0000
0000
0000
0001
0000
0000
0000
0000
0000
0000
0000
1000
0000
0000
0000
0000
0000
0000
0000
0001
0000
0000
0000
0000
0000
0000
0000
0202
0000
0000
0000
0000
0000
0000
0000
0000
0000
0000
0000
0000
0000
0000
0000
0000
0000
0000
0000
0000
0000
0000
0000
0000
0000
0000
0000
0000
0000
0000
0000
0000
0000
0000
0000
0000
0000
0000
0000
0000
0000
0000
0303
0000
0000
0000
0000
,
1010
0000
0000
0000
0000
0000
0000
0000
0000
0000
0000
0000
0000
0000
0000
0000
0000
0000
0000
0000
0000
0000
0000
0000
0000
0000
0000
0000
0000
0000
0000
0000
0000
0000
0000
0000
2000
0000
0000
0000
0000
0000
0000
0000
0000
0000
0000
0000
0000
0000
0000
0000
0000
0000
0000
0000
0000
0000
0002
0000
3000
0000
0000
0000
0000
0000
0000
0000
0000
0000
0000
0000
0000
0000
0000
0000
0000
0203
0000
0000
0000
0000
0000
0000
0000
0000
0000
0000
0000
0000
0000
0000
0000
0000
0000
0000
0020
0000
0000
0000
0000
0000
0000
0000
0000
0000
0300
0000
0000
0000
0000
0000
0000
0000
0000
0000
0000
0000
0000
0000
0030
0000
0000
0000
0000
0000
0000
0000
0000
0000
0000
0000
0020
0000
0000
0000
0000
0000
0000
0000
0000
0000
0000
0000
0000
0000
0000
0000
0000
0000
0000
0000
0000
0000
0000
0000
0000
0000
0000
0000
0000
0000
0000
0000
0000
0000
0000
0000
0030
0000
0000
0000
0000
0000
0000
0000
0000
0000
0000
0000
0000
0000
0000
0000
0000
0000
0000
0000
0000
0000
0000
0000
,
2001
0000
3002
0203
,
2300
0000
0000
0000
0000
0000
0000
0000
0000
0000
0000
0000
0000
0000
0000
0000
3200
0000
0000
0000
0000
0000
0000
0000
0000
0000
0000
0000
0000
0000
0310
1000
,
1002
0000
0000
0000
0020
0003
2000
0030
,
0020
3000
0200
0030
0020
0300
0002
0030
,
2000
0003
0200
3000
2000
0300
0020
3000
,
0002
0000
0030
0000
0023
2000
0030
3002
2000
0000
0000
0000
0000
0000
0000
0003
,
3100
0010
0100
1000
0100
0010
0001
0100
0010
1000
0001
1000
0010
1000
0001
1000
0100
0010
0001
1000
0010
1000
0001
0010
0001
0010
0001
0100
0001
0010
0001
1000
,
0100
0010
0001
1000
0001
0100
0001
1000
0100
1000
0010
0100
0001
0010
0001
1000
0100
0010
0001
1000
0001
1000
0010
1000
0001
0010
0001
1000
0001
0010
0100
1000
,
0100
0010
0100
1000
0100
0010
0001
0100
0010
1000
0001
1000
0010
1000
0001
1000
0100
0010
0001
1000
0010
1000
0001
0010
0001
0010
0001
0100
0001
0010
0001
1000
,
0001
0010
0100
1000
0001
0100
0001
1000
0100
1000
0010
0100
0001
0010
0001
1000
0001
0010
0100
1000
0001
1000
0010
1000
0001
0010
0001
1000
0001
0010
0100
1000
,
0001
0000
0000
0000
1000
0000
0010
0000
0100
0000
0000
0000
0100
0000
0010
0000
1000
0000
0000
0000
1000
0000
0020
0030
0000
0000
0020
0030
0001
0000
0000
0000
,
1001
0000
0000
0000
0100
0000
0001
0000
0010
0000
0000
0000
0010
0000
0001
0000
0100
0000
0000
0000
0001
0000
0200
0300
0000
0000
0200
0300
1000
0000
0000
0000
,
1001
0000
1000
0010
0100
0000
0100
0001
0010
0000
0001
0010
0000
0100
1000
0000
,
1001
0000
0110
0000
1001
0000
0000
0000
0011
0000
0010
0100
0000
0100
1000
0000
,
0021
0000
0001
0000
0130
0000
0010
0001
0100
0010
1000
0100
0010
0001
0010
0000
,
2100
0000
0100
0000
3001
0000
1000
0010
0100
0010
1000
0100
0010
0100
1000
0000
,
0001
0100
0001
0010
0001
1000
0010
0100
0010
1000
0001
0010
0100
1000
0001
1000
,
1001
0000
0000
0000
0220
0000
0000
0330
2002
0000
0000
3003
0220
0000
0000
0330
,
1002
0000
0023
0030
2001
0000
3020
0030
1001
0001
0010
0001
0000
0010
0100
0010
,
0001
0100
0001
0100
0010
0100
0010
0100
0010
1000
0100
0010
0000
0100
1000
0001
,
1000
0010
1000
0010
0100
0010
0100
0010
1000
0000
0010
0100
0010
0100
0001
0010
,
0100
0010
0100
1000
0100
1000
0001
1000
0001
0000
0100
0000
1000
0000
0100
0000
,
0202
0000
0303
0000
0011
0000
1100
0000
1001
1000
0100
0010
0000
0001
1000
0010
,
1000
0001
0010
0001
1000
0010
0100
0001
1000
0010
0100
0001
0000
0001
0100
0010
,
1000
0001
0010
0001
1000
0100
1000
0001
0200
0000
0310
1000
0001
0010
0100
0010
,
0001
0000
0000
0000
0000
0000
0000
0000
0000
0000
0000
0000
1000
0000
0000
0000
0000
0000
0000
0000
0000
0000
0000
0000
0001
0000
0000
0000
0000
0000
0000
0000
0000
0000
0000
0000
1000
0000
0000
0000
0000
0000
0000
0000
0000
0000
0000
0000
0001
0000
0000
0000
0000
0000
0000
0000
0000
0000
0000
0000
0010
0000
0000
0000
0000
0000
0000
0000
0000
0000
0000
0000
0100
0000
0000
0000
0000
0000
0000
0000
0000
0000
0000
0000
0010
0000
0000
0000
0000
0000
0000
0000
0000
0000
0000
0000
0000
0000
0000
0000
0000
0000
0000
0000
0000
0000
0000
0000
0011
0000
0000
0000
0000
0000
0000
0000
0000
0000
0000
0000
1010
0000
0000
0000
0000
0000
0000
0000
0000
0000
0000
0000
0000
0000
0000
0000
0000
0000
0000
0000
0000
0000
0000
0000
2002
0000
0000
0000
0000
0000
0000
0000
0000
0000
0000
0000
0000
0000
0000
0000
0000
0000
0000
0000
0000
0000
0000
3003
1001
0000
0000
0000
0000
0000
0000
0000
0000
0000
0000
0000
0000
0000
0000
0000
0000
0000
0000
0000
0000
0000
0000
0000
,
0000
0000
0000
0000
1000
0100
0010
0100
0000
0010
0100
0010
0001
1000
0010
1000
,
0200
0000
0000
0000
0000
0000
0000
0000
0000
0010
0300
0000
0200
0000
0000
0000
0000
0000
0000
0000
0000
0000
0000
0000
0310
0000
0000
0001
0000
0000
0010
0000
0000
0001
0000
0000
1000
0000
0000
0010
0000
0000
0100
0000
0000
0010
0000
0000
,
1000
0100
0010
0001
1000
0010
0001
0010
0100
0001
1000
0100
0001
0100
0010
0001
,
1000
0010
0001
0010
0100
0010
1000
0001
0010
0100
0010
0001
1000
0010
0100
0001
,
2001
0000
0000
0000
0000
0000
0000
0000
3100
0000
0000
1001
0000
0000
1010
0000
,
0000
0101
0000
0000
1001
0000
1010
0000
0001
0101
0000
1000
1010
0000
0001
0101
,
0000
0000
0000
1000
0000
0000
1010
0000
0000
0000
0000
0000
1000
0000
0001
0000
1000
0000
0001
0000
0000
1000
0000
0000
0001
0000
0000
0010
0000
0000
0001
0000
0000
0100
0000
0000
0010
0000
0000
1000
0000
0000
0001
0000
0000
0010
0000
0000
,
0100
1000
0100
1000
0100
1000
0100
0010
0001
1000
0100
0010
0000
0000
0000
0000
0000
0000
1001
0000
0000
0000
0000
0000
,
2000
0000
0000
3000
0000
0000
2000
0000
0000
3000
0000
0000
0000
0000
0000
0000
0000
0000
2000
0000
0000
0000
0000
0000
3000
0000
0000
0000
0000
0000
0000
0000
0000
0000
0000
0000
0000
0000
0000
0000
0000
0000
0000
0000
0000
0200
0000
0000
0300
0000
0000
0000
0000
0000
0000
0000
0000
0000
0000
0000
0000
0000
0000
0020
0000
0000
0030
0000
0020
0000
0030
0000
0000
0000
0002
0000
0000
0000
0003
0000
0002
0000
0003
0000
0000
0000
0000
0002
0000
0000
0003
0000
0000
0002
0000
0000
,
0003
0000
0000
0000
0000
0000
0000
0000
0000
0000
0000
0000
0002
0000
0000
0000
0000
0000
0000
0000
0000
0000
0000
0000
0000
0000
0000
0000
0000
0000
0003
0000
0000
0000
0000
0000
0200
0000
0000
0300
0000
0000
0000
0000
0000
0000
0000
0000
0220
0000
0000
0000
0000
0000
0000
0000
0000
0000
0000
0000
0000
0000
0000
0000
0000
0000
0000
0000
0000
0000
0000
0000
0000
0000
0000
0000
0000
0000
0330
0000
0000
0000
0000
0000
0000
0000
0000
0000
0220
0000
0000
0000
0000
0000
0000
0000
0000
0000
0000
0000
0000
0000
0000
0000
0000
0000
0000
0000
0330
0000
0000
0000
0000
0000
0000
0000
0000
0000
0000
0000
0000
0000
0000
0000
0000
0000
0220
0000
0000
0000
0000
0000
0000
0000
0000
0000
0000
0000
0000
0000
0000
0000
0000
0000
0330
0000
0000
0000
0000
0000
0000
0000
0000
0000
0000
0000
0000
0000
0000
0000
0000
0000
0000
0000
0220
0000
0000
0000
0000
0000
0000
0000
0000
0000
0000
0000
0000
0000
0000
0000
0000
0000
0000
0000
0000
0000
0000
0000
0000
0000
0000
0000
,
0000
0000
0000
0000
0000
0000
0000
0000
0000
0000
0000
0000
0000
0000
0000
0000
0330
0000
0000
0000
0000
0000
0000
0000
0000
0000
0000
0000
0000
0000
0000
0000
0000
0000
0000
0000
0202
0000
0000
0000
0000
0000
0000
0000
0303
0000
0000
0000
2020
0000
0000
0000
0000
0000
0000
0000
3030
0000
0000
0000
0000
0000
0000
2200
0000
0000
0000
0000
0000
0000
0000
0000
0000
0000
0000
0000
0000
0000
3300
0000
0000
0220
0000
0000
0000
0000
0000
0000
0000
0000
0000
0000
0000
0000
0000
0000
0330
0000
0000
0000
0000
0000
0022
0000
0000
0000
0000
0000
0000
0000
0000
0000
0000
0000
0000
0000
0000
0000
0000
0000
0033
0000
0000
2002
0000
0000
0000
0000
0000
0000
0000
0000
0000
0000
0000
0000
0000
0000
0000
0000
0000
0000
0000
0000
3003
0000
0000
2020
0000
0000
0000
0000
0000
0000
0000
0000
0000
0000
0000
3030
0000
0000
0000
0000
0000
0000
0000
0000
0000
0000
0000
0202
0000
0000
0000
0000
0000
0000
0000
0000
0000
0000
0000
0000
0000
0000
0000
0000
0000
0000
0000
0000
,
0000
0000
0000
0000
0000
0303
0000
0000
2020
0000
0000
0000
0000
0000
0000
0000
0000
0000
0000
0000
0000
0000
0000
3030
0000
0000
0000
0000
0000
0000
0000
0000
0000
0000
0000
0000
0000
0000
0000
0000
0000
0000
0000
0000
0000
0000
0000
0000
2002
0000
0000
0000
0000
0000
0000
0000
0000
0000
0000
0000
0000
0000
0000
0000
,
0000
0000
0000
0000
0000
0000
0000
0000
0000
3003
0000
0000
0001
0000
0100
0000
0010
0000
0100
0000
0000
0001
0000
0000
0010
0000
0000
0100
0000
0000
1000
0000
0000
0001
0000
0000
1000
0000
0100
0000
0010
0000
0100
0000
0000
1000
0000
0000
,
0001
0000
0000
0000
0100
0000
0000
0000
0001
0000
0000
0000
0010
0000
0000
0000
0000
0000
0100
0000
0000
0000
0000
0000
2002
0000
0000
0000
0000
0000
0000
0000
0000
0000
0000
0000
0000
0000
0000
0000
0000
0000
0000
0000
0000
0000
0000
0000
0000
0000
0000
0000
0000
0000
3003
0000
0000
0000
0000
0000
1000
0000
0000
0100
0000
0000
1000
0000
0000
0001
0000
0000
0100
0000
0000
0000
0010
0000
0000
0000
1000
0000
0000
0000
0100
0000
0000
0000
0000
0000
0010
0000
0000
0000
0000
0000
,
0001
0000
0000
0100
0000
0000
0010
0000
0000
1000
0000
0000
0100
0000
0010
0000
0100
0000
1000
0000
0000
0001
0000
0000
0100
0000
0010
0000
1000
0000
0010
0000
0000
0100
0000
0000
0001
0000
0000
1000
0000
0000
0001
0000
0000
0100
0000
0000
,
0001
1000
0100
0010
0100
0010
0001
1000
0100
0010
0001
1000
0010
0100
0001
0100
,
0010
1000
0100
0010
0100
1000
0001
0100
0010
1000
0010
1000
0100
0001
0100
1000
,
0001
0100
1000
0100
0001
1000
0001
0010
1000
0010
0001
1000
0001
0100
0001
1000
,
0010
0000
0000
0000
1000
0000
0000
0000
0100
0000
0000
0000
0010
0000
0000
0000
0001
0000
0000
0000
0010
0000
0000
0000
0100
0000
0000
0000
1000
0000
0000
0000
0001
0000
0000
0000
0100
0000
0000
0000
0010
0000
0000
0000
1000
0000
0000
0000
0002
0000
0000
0000
0000
0000
0000
0000
0000
0000
0000
0000
0003
1000
0100
0010
,
0001
1000
0001
0000
0100
0010
1000
0100
0010
0001
0010
0100
1000
0001
0100
0001
,
1000
0100
0000
0100
0010
0000
0010
0100
1000
0001
1000
0100
1000
0010
1000
0001
,
0020
0000
0000
0000
0000
0000
0130
1000
0010
0001
0010
0000
0010
0100
0001
1000
,
0001
0100
0000
0100
0010
0000
0010
1000
0001
0010
0100
0010
0001
1000
0010
0100
,
0001
0010
0100
1000
0020
0000
0130
0010
0100
0001
0010
0100
0010
0001
1000
0001
,
1000
0100
0010
0001
0200
0000
0301
1000
0001
0010
0001
0100
0010
1000
0001
0010
,
0100
0000
0100
0010
0000
0010
0100
0000
0100
1000
0010
0100
0010
0100
0001
1000
,
2001
0000
0000
0000
3001
0100
1000
0100
0001
0010
1000
0010
0001
0010
0100
1000
,
0001
0100
0001
0010
0100
0000
2100
0000
3001
0100
0001
1000
0100
0000
0021
0000
,
0130
1000
0010
0000
2001
0000
3002
0000
1003
0100
0010
0001
1000
0010
0100
0001
,
0020
0000
0000
0000
0000
0000
0130
1000
0001
0100
0001
0010
0100
1000
0001
0000
,
1000
1010
0000
0101
0000
0011
0000
0110
0000
1100
0000
1000
1001
0001
0100
0010
,
1000
0100
0010
0001
1000
0001
0100
0001
1000
0100
0010
0001
1000
0100
1000
0001
,
0010
0100
1000
0010
0100
0001
0010
0100
1000
0001
0100
0010
1000
0100
0010
0001
,
1000
0010
0001
0010
1000
0100
0001
0100
1000
0010
0100
0001
0010
0100
1000
0001
,
0100
0010
1000
0001
2002
0000
0000
0000
0000
0000
0000
0000
0000
0000
0000
0000
0000
0000
0000
0000
0000
0000
0000
0000
0000
0000
0000
0000
0000
0000
0000
0000
,
0000
0000
0000
0000
,
3003
0000
0000
0000
;

//--------------- dance-double - Pandemonium X ----------------
#NOTES:
     dance-double:
     Pandemonium X:
     Easy:
     11:
     0,0,0,0,0:
00000000
00000000
00000000
00000000
,
00000000
00000000
00000000
00000000
,
00000000
00000000
00000000
00000000
,
00000000
00000000
00000000
00000000
,
00000000
00000000
00000000
00000000
,
00220000
00000000
00000000
00000000
00000000
00000000
00000000
00330000
01000000
00000000
00000000
00000000
10000000
00000000
00000000
00000000
,
00100000
00000000
00000000
00000000
01000000
00000000
00000000
00000000
02002000
00000000
00000000
00000000
00000000
00000000
00000000
03003000
,
00010000
00000100
00001000
00000010
,
00002002
00000000
00000000
00003000
00000100
00000000
00000010
00000000
,
00002003
00000000
00000000
00000000
00000000
00000000
00000000
00000000
00003200
00000000
00000000
00000000
00000000
00000000
00000000
00010300
,
00022000
00000000
00000000
00000000
00000000
00003000
00000000
00000000
00032000
00000000
00000000
00000000
02003000
00000000
00000000
00000000
,
03020000
00230000
02300000
03200000
,
00320000
00032000
00023000
00030200
,
00002300
00000000
00000000
00000000
00003010
00010000
00000000
00010000
00002000
00000000
00000000
00000000
00000000
00000000
00000000
00000000
,
00103000
00010000
00100000
00000000
00010000
00000000
01000000
00100000
01000000
00000000
00100000
00000000
10000000
00000000
01000000
00100000
,
00010000
00000000
00100000
00000000
00001000
00000000
00010000
00000100
00001000
00000000
00000010
00000000
00000100
00000000
00000001
00000010
,
00000100
00000000
00000010
00000000
00000001
00000000
00000100
00000010
00001000
00000000
00000100
00000000
00010000
00000000
00001000
01000000
,
00010000
00000000
00100000
00000000
01000000
00000000
10000000
01000000
00100000
00000000
01000000
00000000
10000000
00000000
00010000
01000000
,
00001000
00000000
00000000
00000000
00010000
00000000
00000000
00000000
00001000
00000000
00000000
00010000
00000000
00000000
00000100
00000000
,
00001000
00000000
00000000
00000000
00000010
00000000
00000000
00000000
00000100
00000000
00000000
00000001
00000000
00000000
00000100
00000000
,
00000001
00000000
00000000
00000000
00000010
00000000
00000000
00000000
00000100
00000000
00000000
00001000
00000000
00000000
00000100
00000000
,
00000000
00000000
00010000
00000000
00010000
00000000
00000000
00000000
00001000
00000000
00000000
01000000
00000000
00000000
00010000
00000000
,
00110000
00100000
01000000
10000000
,
10010000
00010000
01000000
00001000
,
00011000
00010000
00000100
00001000
,
00001010
00000000
00000000
00000000
,
00000001
00000100
00000010
00001000
00000100
00000000
00010000
00000000
,
00001000
00000000
01000000
00010000
00100000
00000000
01000000
00000000
,
10000000
00000000
00010000
01000000
00001000
00000000
00010000
00000000
,
00000100
00000000
00001000
00000000
00000010
00000000
00000100
00000001
,
00000020
00000000
00000100
00000130
00000010
00000000
00000001
00000000
,
00000100
00000000
00000000
00000000
00000010
00000000
00001000
00000000
00000100
00000000
00000000
00000000
00010000
00000000
00000000
00001000
,
00000000
00000000
01000000
00010000
00100000
00000000
01000000
00000000
,
10000000
00000000
00000000
00000000
00010000
00000000
00000000
00000000
00000000
01000000
00010000
00000000
00100000
00000000
00011000
00000000
,
00000000
00000100
00010000
00000100
,
00001100
00001100
00000100
00010000
,
00001000
01000000
00010000
00100000
,
10000000
00100000
00010000
01000000
,
00011000
00000000
00000100
00001000
,
00000010
00000100
00000001
00000010
,
00000100
00001000
00000100
00010000
,
00001000
00000000
01000000
00010000
00110000
00000000
01000000
00000000
,
10000000
00000000
00100000
01000000
00100000
00000000
01000000
00000000
,
00001000
00000000
00010000
00000100
00010000
00000000
00000100
00000000
,
00001000
00000000
00000010
00000100
00000010
00000000
00000100
00000000
,
00000001
00000000
00001000
00000100
00001000
00000000
00020200
00000000
,
00000000
00030300
00000100
00010000
00001000
01000000
00010000
00100000
,
01000000
00000000
10000000
00000000
22000000
00000000
00000000
00000000
00000000
00000000
00000000
33000000
10000000
00000000
01000000
00000000
,
00100000
00010000
01000000
00001000
00010000
00000100
00001000
00000000
,
00000100
00000001
00000100
00000010
,
00000001
00000100
00001000
00010000
,
00010000
00000000
00001000
00000000
00001000
00000000
00010000
00001000
,
01000000
00010000
00100000
01000000
10000000
00010000
00200000
00000000
,
00301000
00000000
00000000
00010000
00000000
00000000
00000100
00000000
00001000
00000000
00000000
00000000
00001010
00000000
00000000
00000000
,
00000010
00000000
00000000
00000100
00000000
00000000
00000001
00000000
00000010
00000000
00000000
00000000
00000100
00000000
00000000
00000000
,
00001200
00000000
00000000
00010000
00010300
00000000
00001000
00000000
,
01000000
00000000
00000000
00010000
00000000
00000000
00100000
00000000
01000000
00000000
00000000
00000000
10000000
00000000
00000000
00000000
,
01000000
00100000
00010000
00000000
00110000
00000000
00101000
00000000
,
00010000
00000100
00001000
00000000
00001100
00000000
00001010
00000000
,
00000010
00000000
00000000
00000100
00000000
00000000
00000001
00000000
00000010
00000000
00000100
00000000
00001000
00000000
00000100
00000000
,
00020000
00001000
00001000
00031000
,
00010000
00000000
00000100
00000000
00001000
00000010
00000100
00000001
,
00000010
00000000
00000100
00000000
00001000
00000100
00010000
00001000
,
02000000
00000000
00000000
00010000
03010000
00000000
00100000
00000000
,
01000000
10000000
00000000
00100000
00000000
01000000
00000000
00010000
00000000
00100000
00000000
00001000
00020000
00000000
00000000
00000000
,
00030100
00001000
00000010
00000000
00000100
00000000
00000001
00000000
,
00000010
00000100
00001000
00000000
00000100
00000000
00010000
00000000
,
00001000
01000000
00010000
00100000
01000000
10000000
00010000
01000000
,
00002000
00103000
00000000
00000000
00000000
00000000
00000000
00000000
;

//--------------- dance-double - Pandemonium X ----------------
#NOTES:
     dance-double:
     Pandemonium X:
     Medium:
     15:
     0,0,0,0,0:
00000000
00000000
00000000
00000000
,
00000000
00000000
00000000
00000000
,
00000000
00000000
00000000
00000000
,
00000000
00000000
00000000
00000000
,
00000000
00000000
00000000
00000000
,
00022000
00000000
00000000
00000000
00000000
00000000
00000000
00033000
00001000
00000000
00000000
01000000
00000000
00000000
00100000
00000000
,
10000000
01000000
10000000
00000000
00110000
00000000
00000000
00000000
20020000
00000000
00000000
00000000
00000000
00000000
00000000
30030000
,
00010000
00000000
00000000
00110000
00000000
00000000
00000000
00000000
00010000
00000000
00000000
00110000
00000000
00000000
00000000
00000000
,
22000000
00000000
00000000
03000000
32000000
00000000
03200000
00000000
,
00320000
00000000
00000000
00000000
00000000
00000000
00000000
00000000
00000000
00000000
00000000
00000000
00000000
00000000
00000000
00000000
00032000
00000000
00000000
00000000
00000000
00000000
00000000
00000000
00000000
00000000
00000000
00000000
00000000
00000000
00003100
00000010
,
00000002
00000000
00000203
00002300
,
00023000
00230000
02300000
03020000
,
00230000
20300000
30200000
00320000
,
00032000
00000000
00000000
00000000
00013000
00000200
00000000
00001300
00000020
00000000
00000000
00000000
00000000
00000000
00000000
00000000
,
00000130
00000010
00001000
00001000
00000100
00010000
00001000
01000000
00010000
00010000
00100000
01000000
10000000
01000000
00100000
00010000
,
10000000
10000000
01000000
00100000
00010000
01000000
00001000
00001000
00010000
00000100
00001000
00000010
00000100
00000100
00000010
00001000
,
00000001
00000001
00000010
00000001
00000100
00000010
00001000
00001000
00000100
00010000
00001000
01000000
00010000
00010000
00100000
01000000
,
10000000
10000000
01000000
00100000
00010000
00010000
00100000
00001000
00010000
00010000
00000100
00001000
00000010
00000010
00000100
00000001
,
00001001
00000000
00000000
00000000
00001001
00000000
00000000
00000000
00000001
00000000
00000000
00000100
00000000
00000000
00000010
00000000
,
00001010
00000000
00000000
00000000
00001010
00000000
00000000
00000000
00001000
00000000
00000000
00000100
00000000
00000000
00010000
00000000
,
00011000
00000000
00000000
00000000
00011000
00000000
00000000
00000000
00001000
00000000
00000000
01000000
00000000
00000000
00100000
00000000
,
00000000
00000000
10010000
00000000
10010000
00000000
00000000
00000000
11000000
00000000
00000000
01100000
00000000
00000000
00110000
00000000
,
00100000
00001000
00100000
00000000
00001000
00000000
00010000
00000000
00000100
00000000
00001000
00000000
00000010
00000000
00000100
00000000
,
00000001
00001000
00000001
00000000
00000010
00000000
00000001
00000000
00000100
00000000
00000010
00000000
00001000
00000000
00000100
00000000
,
00010000
00001000
00010000
00001000
00010000
00001000
00010000
00001000
00010000
00001000
00010000
00001000
00010000
00001000
00010000
00001000
,
00010000
00000000
00000000
00000000
,
00002000
00000000
01003000
00000000
00002000
00000000
00103000
00000000
10010000
00000000
10000000
01000000
00000000
10000000
00100000
00000000
,
01000000
00000000
00010000
00000000
00100000
00000000
00001000
00000000
00010000
00000000
00000010
00000100
00000000
00000010
00001000
00000000
,
00000100
00000010
00000100
00001000
00000001
00000100
00001000
00000100
,
00000001
00000010
00000100
00000010
00000001
00000100
00001000
00010000
,
00002000
00000000
00000000
00000000
00103000
00000000
00110000
00000000
10010000
00000000
10000000
00100000
00000000
01000000
00010000
00000000
,
00100000
00000000
00001000
00000000
00010000
00000000
00000010
00000000
00000100
00000000
00000001
00000010
00000000
00000001
00000100
00000000
,
00000010
00001000
00000100
00010000
00001000
01000000
00010000
00100000
,
01000000
00000000
10000000
00000000
00010000
00000000
01000000
00000000
00000000
00010000
00100000
00000000
00001000
00000000
00021000
00000000
,
00000000
00000000
00000000
00000000
00030100
00000000
00001000
00000100
00000000
00000010
00000001
00000000
00000100
00000000
00000010
00000000
,
00001000
00000200
00000000
00000300
00001000
00000200
00000000
00000000
00010300
00000000
00001000
00000000
01000000
00000000
00010000
00000000
,
00100000
01000000
10000000
00010000
01000000
00010000
00100000
00001000
,
00010000
00000010
00000100
00000001
00000010
00000100
00001000
00000100
,
00012000
00000000
00000000
00000000
00000000
00000000
00000000
00000000
02003000
00000000
00000000
03010000
00000000
00000000
00200000
00000000
,
00000000
01300000
00000000
00000000
00100000
00000000
00001000
00000000
00010000
00000100
00000000
00001000
00000010
00000000
00000100
00000001
,
00000000
00000010
00000001
00000000
00000100
00000000
00000010
00000000
00001000
00000100
00000000
00010000
00001000
01000000
00010000
00100000
,
01000000
10000000
00000000
01000000
00100000
00010000
00001000
00010000
00000000
00000000
00000000
00000000
00000100
00000000
00001000
00000000
,
00000010
00000000
00000100
00000001
00000010
00000000
00000100
00010000
,
00001000
00000000
01000000
00010000
00100000
01000000
10000000
01000000
,
00010000
00000000
01000000
00001000
00010000
00000000
00000100
00001000
,
00000010
00000000
00000001
00000010
00001000
00000000
00022000
00000000
,
00000000
00003000
00031000
01000000
00010000
00100000
10000000
00100000
,
00001000
00010000
00020200
00000000
00000000
00030000
00001300
00000010
,
00000001
00000100
00001000
00010000
00001000
01000000
00010000
10000000
,
01000000
00100000
00010000
00100000
00001000
00010000
00000010
00000100
,
00000001
00000010
00000100
00001000
00000100
00010000
00001000
01000000
,
00010000
00000000
00100000
00000000
01000000
00000000
10000000
00000000
00010000
00000000
01000000
00000000
00001000
00010000
00001000
00000000
,
00010000
00000100
00010000
00000000
00000100
00001000
00000100
00000010
00000001
00000100
00000010
00010000
00001000
00000000
00000000
00000000
,
00010000
00000100
00000000
00010000
00001000
00000000
00010000
00000000
00000100
00000000
00010000
00000000
00001000
00000000
01000000
00000000
,
00010000
00100000
00000000
00010000
01000000
00000000
00100000
00000000
10000000
00000000
01000000
00000000
00100000
00000000
00010000
00000000
,
00022000
00000000
00000000
00000000
00033000
00000000
00010000
00000100
00010000
00000000
00000100
00000000
00001000
00000000
00000010
00000000
,
00000100
00000000
00000001
00000010
00000000
00000010
00000100
00000000
00000010
00000000
00000001
00000000
00000100
00000000
00000010
00000000
,
00010000
00000100
00010000
00000000
00002000
00000000
00000000
00000000
01003000
00001000
01000000
00000000
00100000
01000000
00100000
00000000
,
10000000
00010000
10000000
00000000
02000000
00000000
00000000
00000000
03100000
00001000
00100000
00000000
00001000
00010000
00001000
00000000
,
00010000
00000100
00000000
00001000
00000010
00000000
00000100
00000001
00000010
00000000
00000100
00000000
00001000
00000000
00000001
00000000
,
00000210
00000000
00000000
00000000
00000310
00001000
00000010
00001000
00000010
00001000
00000010
00001000
00000002
00000000
00000000
00000000
,
00000013
00000100
00000000
00000010
00000001
00000000
00000100
00000000
00000010
00000000
00001000
00000000
00000100
00000000
00010000
00000000
,
00001000
01000000
00000000
00010000
00100000
00000000
01000000
00000000
00100000
00000000
00001000
00000000
00010000
00000000
00000100
00000000
,
00002000
00000000
00000000
00000000
00000000
00000000
00003010
00000100
00000010
00000000
00000100
00000000
00000001
00000000
00001000
00000000
,
00000100
00010000
00000000
00011000
00000000
01001000
00000000
01100000
00000000
10010000
00000000
10000000
02000000
00000000
00000000
00000000
,
03100000
00010000
00100000
00000000
00010000
00000000
01000000
00000000
00100000
10000000
00100000
00000000
01000000
00010000
01000000
00000000
,
00010000
00100000
00001000
00000000
00010000
00000000
00000100
00000000
00001000
00000010
00001000
00000000
00000010
00000100
00000001
00000000
,
00000010
00000100
00001000
00000100
00010000
00001000
01000000
00010000
00100000
01000000
10000000
00100000
01000000
00001000
00010000
00000100
,
00010000
00001000
00010000
00000000
00011000
00000000
00000000
00000000
00000000
00000000
00000000
00000000
00000000
00000000
00000000
00000000
00000000
00000000
00000000
00000000
00000000
00000000
00000000
00000000
00000000
00000000
00000000
00000000
00000000
00000000
00000000
00000000
;

//--------------- dance-double - Pandemonium X ----------------
#NOTES:
     dance-double:
     Pandemonium X:
     Hard:
     18:
     0,0,0,0,0:
00000000
00000000
00000000
00000000
,
00000000
00000000
00000000
00000000
,
00000000
00000000
00000000
00000000
,
00000000
00000000
00000000
00000000
,
00000000
00000000
00000000
00000000
,
00202000
00000000
00000000
00000000
00000000
00000000
00000000
00303000
00110000
00000000
00000000
11000000
00000000
00000000
10000000
01000000
,
10000000
00100000
01000000
00000000
01001000
00000000
00000000
00000000
00022000
00000000
00000000
00000000
00000000
00000000
00000000
00033000
,
00021000
00000000
00000000
00030100
00000000
00000000
00000000
00000000
00012000
00000000
00000000
01003000
00000000
00000000
00000000
00000000
,
02200000
00000000
00000000
00000000
00000000
00000000
00000000
00300000
03200000
00000000
00000000
00000000
20300000
00000000
00000000
00000000
,
32000000
00000000
00000000
00000000
00000000
00000000
00000000
00000000
00000000
00000000
00000000
00000000
00000000
00000000
00000000
00000000
03200000
00000000
00000000
00000000
00000000
00000000
00000000
00000000
00000000
00000000
00000000
00000000
00000000
00000000
00301000
00010000
,
00002000
00000000
00023000
00030200
,
00002300
00000000
00000000
00000000
00003020
00000000
00000000
00000030
00000201
00000000
00000000
00000000
00000302
00000000
00000000
00000000
,
00000023
00000230
00002300
00003200
,
00020300
00000000
00000000
00000000
00031000
02000000
00000000
03200000
20000000
00000000
00000000
00000000
00000000
00000000
00000000
00300000
,
31000000
10000000
01000000
00000000
10000000
00100000
10000000
00000000
00100000
01000000
00100000
00000000
01000000
00010000
00100000
00001000
00010000
00001000
00010000
00000000
00000100
00001000
00000100
00000000
00001000
00000010
00001000
00000000
00000010
00000100
00000001
00000010
,
00000100
00000010
00000100
00000000
00000010
00000001
00000010
00000000
00000001
00000100
00000001
00000000
00000100
00000010
00001000
00000100
00010000
00001000
00010000
00000000
00001000
01000000
00001000
00000000
01000000
00100000
01000000
00000000
00100000
10000000
01000000
00100000
,
00010000
01000000
00100000
00000000
01000000
00010000
00100000
00000000
00010000
00100000
00001000
00000000
00010000
00000100
00001000
00000010
00000100
00000001
00000010
00000000
00000100
00001000
00000010
00000000
00000100
00000001
00000010
00000000
00000001
00000010
00000100
00001000
,
00000100
00010000
00001000
00000000
00010000
00001000
01000000
00000000
00010000
00100000
01000000
00000000
00100000
00010000
01000000
00100000
10000000
01000000
00100000
00000000
01000000
10000000
00100000
00000000
01000000
00100000
10000000
00000000
01000000
00100000
00001000
00010000
,
00001000
00000000
01000000
00010000
00100000
00000000
01000000
00000000
11000000
00000000
10000000
00100000
00000000
01000000
00010000
00000000
,
00110000
00000000
00100000
00001000
00010000
00000000
00000100
00001000
00000010
00000000
00001000
00000010
00000000
00000100
00000001
00000000
,
00001001
00000000
00000001
00000100
00000010
00000000
00001000
00000100
00000010
00000000
00000001
00000010
00000000
00000100
00001000
00000000
,
00000000
00000000
00001100
00000000
00011000
00000000
00000000
00000000
01001000
00000000
00001000
01000000
00100000
01000000
00100000
01000000
,
00010000
00100000
01000000
00000000
00100000
00000000
00001000
00000000
00010000
00000000
00000010
00000000
00000100
00000000
00001000
00000000
,
00000100
00000001
00000010
00000000
00001000
00000000
00000010
00000000
00000001
00000000
00000100
00000000
00001000
00000000
00010000
00000000
,
00001000
00010000
00001000
00010000
00001000
00010000
00001000
00010000
00001000
01000000
00100000
10000000
00010000
00100000
01000000
10000000
,
10010000
00000000
00000000
00000000
02000000
03000000
00000000
00000000
02000000
00000000
03000000
00000000
02000000
00000000
03000000
00000000
,
10020000
00000000
00230000
00000000
00302000
00000000
00023000
00000000
00030010
00000100
00000001
00000010
00000000
00000100
00000010
00000001
,
00001000
00000010
00001000
00000010
00000100
00000001
00000100
00000001
00000100
00000010
00010000
00001000
00000000
00010000
00001000
01000000
,
00010000
01000000
00010000
01000000
00100000
10000000
01000000
10000000
00010000
00000000
10000000
00100000
10000000
00100000
01000000
00010000
,
01000000
00010000
00100000
00001000
00100000
00001000
00010000
00000100
00001000
00000000
00000100
00000000
00000001
00000000
00000100
00000000
,
00002000
00000000
00000000
00000000
00003010
00000000
00001001
00000000
00000001
00001000
00000100
00000010
00000000
00000100
00000010
00000001
,
00000100
00000001
00000100
00000001
00001000
00000100
00001000
00000100
00000010
00000100
00010000
00001000
00000000
00010000
00001000
01000000
,
00010000
00100000
00010000
00100000
01000000
10000000
01000000
10000000
00100000
00000000
01000000
00010000
01000000
00010000
00100000
00010000
,
00100000
00001000
00100000
00001000
00010000
00000100
00001000
00000010
00000000
00000100
00000010
00000000
00010000
00000000
00012000
00000000
,
00000000
00000000
00000000
00000000
01003000
00100000
10000000
01000000
00000000
00100000
01000000
10000000
00010000
01000000
00010000
00100000
,
00001000
00020000
00000000
00030000
00000100
00002000
00000000
00003000
00000010
00000100
00001000
00000100
00000001
00000010
00000100
00001000
,
00000100
00010000
00001000
01000000
00020000
00000000
00130000
01000000
10000000
01000000
00100000
00001000
00010000
00000100
00001000
00000010
,
00000100
00001000
00000100
00000010
00001000
00000001
00000010
00000100
00001000
00000100
00010000
00001000
01000000
00100000
10000000
00010000
,
00100000
00000000
00000000
00000000
00000000
00000000
00000000
00000000
00011000
00000000
00000000
00010100
00000000
00000000
00001010
00000000
,
00000000
00000101
00000000
00000000
00001001
00000000
00001001
00000000
00000001
00000100
00000000
00000010
00001000
00000000
00000100
00010000
,
00000000
00001000
01000000
00000000
00100000
00010000
00100000
10000000
01000000
00100000
00000000
00010000
00100000
10000000
00100000
00010000
,
00000000
01000000
00000000
00100000
01000000
00001000
00010000
00001000
00000000
00000000
00000000
00000000
00010000
00000000
00000100
00001000
,
00000010
00000000
00000000
00000000
00000100
00000000
00000001
00000010
00000100
00000000
00000010
00000000
00000001
00000000
00001000
00000100
,
00000010
00000000
00000000
00000000
00000100
00000000
00001000
00000100
00010000
00000000
00001000
00000000
01000000
00000000
00010000
00100000
,
01000000
00000000
00000000
00000000
00100000
00000000
00010000
01000000
00100000
00000000
10000000
00000000
01000000
00000000
00100000
00001000
,
00010000
00000000
00000000
00000000
00000100
00000000
00001000
00000010
00000100
00000000
00000001
00000000
00002002
00000000
00000000
00000000
,
00000000
00000000
00000000
00003003
00000001
00000100
00000010
00001000
00000100
00010000
00001000
01000000
00010000
00100000
01000000
10000000
,
01000000
00100000
00010000
00100000
02200000
00000000
00000000
00000000
00000000
00000000
03300000
00000000
10000000
00100000
01000000
00010000
,
00100000
01000000
00100000
00001000
00010000
00000100
00001000
00000010
00000100
00000001
00000010
00000100
00001000
00000100
00001000
00000000
,
00000100
00010000
00000100
00000000
00010000
00001000
00010000
00000000
00001000
01000000
00001000
00000000
01000000
00100000
10000000
00010000
,
00100000
01000000
10000000
01000000
00100000
00001000
00010000
00000100
00001000
00000010
00000100
00000001
00000010
00000000
00000100
00000000
,
00001000
00000000
00010000
00000000
00001000
00000000
01000000
00000000
00001000
00000000
00100000
00000000
00010000
00100000
01000000
10000000
,
00100000
00000000
00000000
00000000
01000000
00000000
00000000
00000000
00001000
00000000
00000000
00000000
00010000
00000000
00000000
00000000
00000100
00000000
00000000
00000000
00010000
00000000
00000000
00000000
00001000
00000000
00000000
00000000
01000000
00000000
00000000
00000000
00010000
00000000
00000000
00000000
00100000
00000000
00000000
00000000
00001000
00000000
00000000
00000000
00010000
00000000
00000000
00000000
00000200
00000000
00000000
00000000
00000000
00000000
00000000
00000000
00000000
00000000
00000000
00000000
00000000
00000310
00000001
00000100
,
00000010
00001000
00000000
00000100
00010000
00000000
00010000
00000100
00001000
00000010
00000100
00001000
00000100
00010000
00001000
01000000
,
00010000
00100000
00000000
01000000
10000000
00000000
01000000
00010000
01000000
10000000
00100000
01000000
00010000
00100000
00001000
00010000
,
00000020
00000000
00000000
00000000
00000000
00000000
00000130
00001000
00000100
00000000
00000001
00000000
00001000
00000000
00000100
00000000
,
00000010
00000100
00000000
00000010
00000001
00000000
00000010
00000100
00001000
00000100
00010000
00001000
01000000
00010000
00100000
01000000
,
10000000
01000000
00100000
00001000
00020000
00000000
00000000
00000000
00030100
00001000
00000010
00001000
00000100
00000010
00000001
00000100
,
00000010
00001000
00000100
00000000
00020000
00000000
00000000
00000000
00031000
01000000
00010000
00100000
00010000
01000000
00001000
00010000
,
00000100
00001000
00000000
00000100
00000010
00000000
00000100
00001000
00000010
00000100
00000001
00000010
00000100
00001000
00000100
00010000
,
00002000
00000000
00000000
00000000
01003000
10000000
01000000
00010000
01000000
10000000
01000000
00010000
10000000
00000000
00000000
00000000
,
01000000
00100000
00000000
00001000
00010000
00000000
00011000
00000000
00010000
00000100
00001000
00000010
00000100
00000001
00000010
00000100
,
00001000
00000100
00000000
00010000
00001000
00000000
01000000
00000000
00010000
00100000
00010000
01000000
00001000
00010000
00000100
00001000
,
00000020
00000000
00000000
00000000
00000000
00000000
00000000
00000000
00000000
00000000
00000000
00000000
00000000
00000000
00000000
00000000
00000000
00000000
00000000
00000000
00000000
00000000
00000000
00000000
00000100
00000030
00000000
00000000
00001000
00000000
00000000
00000000
00000100
00000000
00000000
00000000
00000000
00000000
00000000
00000000
00000010
00000000
00000000
00000000
00000000
00000000
00000000
00000000
00010000
00000000
00000000
00000000
00000000
00000000
00000000
00000000
00001000
00000000
00000000
00000000
00000000
00000000
00000000
00000000
,
00010000
00001000
00000000
01001000
00000000
01100000
00000000
10010000
00000000
11000000
00000000
01000000
20020000
00000000
00000000
30030000
,
10000000
00100000
01000000
00000000
00100000
01000000
00010000
00000000
00100000
00001000
00010000
00000000
00000100
00001000
00000010
00000000
,
00000100
00000001
00000010
00000000
00000100
00010000
00001000
00000000
00010000
00000100
00001000
00000000
00000010
00000100
00000001
00000000
,
00000010
00000001
00000100
00000010
00001000
00000100
00010000
00001000
01000000
00010000
00100000
01000000
10000000
00100000
01000000
00001000
,
00010000
00001000
00010000
00000000
00022000
00000000
00000000
00000000
00000000
00000000
00000000
00000000
00000000
00000000
00000000
00000000
00000000
00000000
00000000
00000000
00000000
00000000
00000000
00000000
00000000
00000000
00000000
00000000
00000000
00000000
00000000
00000000
,
00000000
00000000
00000000
00000000
,
00000000
00033000
00000000
00000000
00000000
00000000
00000000
00000000
00000000
00000000
00000000
00000000
00000000
00000000
00000000
00000000
00000000
00000000
00000000
00000000
00000000
00000000
00000000
00000000
00000000
00000000
00000000
00000000
00000000
00000000
00000000
00000000
;

//--------------- dance-double - G∀ME OVER ----------------
#NOTES:
     dance-double:
     G∀ME OVER:
     Challenge:
     19:
     0,0,0,0,0:
00000000
00000000
00000000
00000000
,
00000000
00000000
00000000
00000000
,
00000000
00000000
00000000
00000000
,
00000000
00000000
00000000
00000000
,
00000000
00000000
00000000
00000000
,
00100010
00000000
00000000
00000000
00000000
00000000
00000000
00000000
00010000
00001000
01000000
00000000
01100000
00000000
00100000
10000000
,
00010000
00000000
00100000
00000000
01100000
00000000
00000000
00000000
00020200
00000000
00000000
00000000
00000000
00000000
00000000
00030300
,
00001100
00000000
00001000
00000010
00000000
00000000
00000000
00000000
00000101
00000000
00000010
00010000
00000000
00000000
00000000
00000000
,
00202000
00000000
00000000
00000000
00000000
00000000
00000000
00003000
00320000
00000000
00000000
00000000
02000000
00000000
00000000
00030000
,
20000000
00000000
00000000
00000000
00000000
00000000
00000000
00000000
00000000
00000000
00000000
00000000
00000000
00000000
03000000
00000000
02000000
00000000
00000000
00000000
00000000
00000000
00000000
00000000
00000000
00000000
00000000
00000000
30000000
00000000
03001000
00010000
,
00012000
00000000
00000000
00000000
00000000
00000000
00000000
00000000
00023000
00000000
00000000
00000000
00000200
00000000
00000000
00030000
,
00002000
00000000
00000000
00000300
00020000
00000000
00000000
00003000
00200000
00000000
00000000
00030000
02000000
00000000
00000000
00300000
,
20000000
00000000
00000000
03000000
02000000
00000000
00000000
30000000
00200000
00000000
00000000
03000000
00020000
00000000
00000000
00300000
,
00002000
00000000
00000000
00030000
00003200
00000020
00000300
00000032
00000200
00000000
00000000
00000000
00000000
00000000
00000000
00000303
,
00000001
00000100
00000001
00000100
00000010
00001000
00000100
00010000
00001000
00010000
00001000
00010000
00001000
01000000
00010000
00100000
01000000
10000000
01000000
00100000
00010000
01000000
00010000
00100000
00001000
00010000
00000100
00001000
00000010
00000100
00000001
00000010
,
00000100
00001000
00000100
00010000
00001000
01000000
00010000
00100000
01000000
10000000
01000000
10000000
00100000
01000000
00010000
00100000
00001000
00010000
00000100
00001000
00000010
00000100
00000001
00000010
00000100
00001000
00000100
00010000
00001000
01000000
00010000
00100000
,
01000000
10000000
00010000
01000000
00001000
00010000
00000010
00000100
00000001
00000010
00000100
00000010
00000001
00000100
00000010
00010000
00001000
01000000
00010000
00100000
00001000
00010000
00000010
00000100
00000001
00000010
00000100
00000010
00000001
00000100
00000010
00001000
,
00000100
00010000
00001000
00100000
00010000
10000000
01000000
00100000
00010000
00100000
00001000
00010000
00000010
00000100
00000010
00010000
00001000
00010000
00000100
00010000
00001000
01000000
00010000
00100000
01000000
10000000
00010000
01000000
00001000
00010000
00000100
00001000
,
00001010
00000000
00001000
00000100
00000110
00000000
00000010
00000001
00000101
00000000
00000001
00000100
00000000
00000010
00001000
00000000
,
00001100
00000000
00000100
00010000
00011000
00000000
00001000
01000000
01001000
00000000
00001000
00010000
00000000
00001000
00100000
00000000
,
00110000
00000000
00010000
00100000
01100000
00000000
01000000
10000000
11000000
00000000
00010000
00100000
00000000
00001000
00100000
00000000
,
00000000
00000000
00011000
00000000
01000100
00000000
00000000
00000000
00011000
00000000
00010000
00000100
00000000
00001000
00000010
00000000
,
00001010
00000010
00000100
00000000
00000010
00000000
00000100
00000000
00000001
00000010
00000001
00000000
00001000
00000100
00001000
00000000
,
00010100
00000100
00010000
00000000
00001000
00000000
01000000
00000000
00010000
00100000
00010000
00000000
10000000
01000000
10000000
00000000
,
11000000
01000000
00100000
00001000
00010000
00000100
00001000
00000010
00000100
00000001
00000010
00000100
00001000
00000100
00010000
00001000
,
00011000
00000000
00022000
00033000
20020000
30030000
00022000
00033000
,
00002001
00000000
00003020
00000000
00000230
00000000
00000302
00000000
00001003
00000100
00010000
00001000
00000000
00010000
00001000
01000000
,
00010000
00100000
00010000
01000000
00010000
00100000
01000000
10000000
00100000
01000000
00001000
00010000
00000000
00001000
00010000
00000100
,
00001000
00000010
00000100
00000010
00001000
00000010
00000100
00000001
00000010
00000000
00000100
00001000
00000100
00000001
00000100
00001000
,
00000010
00000100
00000001
00001000
00000100
00001000
00000100
00001000
00000010
00000000
00000100
00000000
00001000
00000000
00010000
00000000
,
00002000
00000000
00000000
00000000
01003000
00000000
00110000
00000000
11000000
01000000
00100000
00010000
00000000
00100000
00010000
01000000
,
00100000
10000000
00100000
01000000
00100000
10000000
00100000
01000000
00010000
00100000
00001000
00010000
00000000
00000100
00001000
00000010
,
00000100
00000001
00000010
00000001
00000100
00000001
00000010
00000001
00000100
00000000
00000010
00000001
00000010
00001000
00000100
00010000
,
00001000
01000000
00010000
00100000
01000000
10000000
00100000
00010000
00100000
01000000
00020000
00000000
00130000
00000000
00002100
00000000
,
00000000
00000000
00000000
00000000
00003010
00000001
00000010
00001000
00000000
00000100
00000001
00000100
00001000
00000100
00010000
00001000
,
01000000
00020000
00000000
00000000
00130000
00002000
00000000
00000000
00013000
00000100
00001000
00000010
00000001
00000010
00001000
00000100
,
00000001
00000100
00001000
00000010
00010000
00000000
00001000
01000000
00001000
01000000
00100000
01000000
00100000
10000000
00100000
10000000
,
00010000
00100000
00001000
00010000
00000010
00000100
00000001
00000010
00000100
00001000
00000100
00010000
00001000
01000000
00001000
00010000
,
00000000
00000000
00000000
00000000
00000000
00000000
00000000
00000000
00000101
00000000
00000010
00001000
00000000
00001000
00000100
00000000
,
00010000
00001000
00000000
00000000
00011000
00000000
01001000
00000000
01000000
00100000
00000000
10000000
01000000
00000000
00100000
00001000
,
00000000
00000000
00000000
00010000
00000000
00000000
00000100
00000000
00000000
00000000
00000000
00000000
00001000
00000000
00000100
00000000
00001000
00000000
00000100
00000000
00000000
00000010
00000000
00000000
00000001
00000000
00000000
00000100
00000000
00000000
00000010
00000000
00000000
00010000
00000000
00000000
00001000
00000000
00000000
01000000
00000000
00000000
00010000
00000000
00000000
00100000
00000000
00000000
,
01000000
10000000
01000000
00100000
00010000
00100000
00001000
00100000
00001000
00010000
00001000
00010000
00000000
00000000
00000000
00000000
00000000
00000000
10010000
00000000
00000000
00000000
00000000
00000000
,
20000000
00000000
00000000
30000000
00000000
00000000
20000000
00000000
00000000
30000000
00000000
00000000
00000000
00000000
00000000
00000000
00000000
00000000
00020000
00000000
00030000
00000000
00000000
00000000
00000000
00000000
00000000
00000000
00000000
00000000
00000000
00000000
00000000
00000000
00000000
00000000
00000000
00000000
00000000
00000000
00000000
00000000
00000000
00000000
00000000
02000000
00000000
00000000
03000000
00000000
00000000
00000000
00000000
00000000
00000000
00000000
00000000
00000000
00000000
00000000
00000000
00000000
00000000
00001000
00000000
00000000
00000000
00000000
00010000
00000000
00000000
00000000
00000000
00000000
00000100
00000000
00000000
00000000
00000000
00000000
00010000
00000000
00000000
00000000
00000000
00000000
00000000
00000100
00000000
00000000
00000000
00000000
00000000
00000100
00000000
00000000
,
00000000
00000000
00000000
00000000
00000000
00000000
00010000
00000000
00000000
00000000
00000000
00000000
00000000
00000000
00000000
00000000
00000000
00000000
00000100
00000000
00000000
00000000
00000000
00000000
00022000
00000000
00000000
00000000
00000000
00000000
00000000
00000000
00000000
00000000
00000000
00000000
00000000
00000000
00000000
00000000
00000000
00000000
00033000
00000000
00022000
00000000
00000000
00000000
00000000
00000000
00000000
00000000
00000000
00000000
00000000
00000000
00033000
00000000
00000000
00000000
00000000
00000000
00000000
00022000
00000000
00000000
00000000
00000000
00000000
00000000
00000000
00000000
00000000
00000000
00000000
00000000
00000000
00000000
00033000
00000000
00000000
00000000
00022000
00000000
00000000
00000000
00000000
00000000
00000000
00000000
00000000
00000000
00000000
00000000
00000000
00000000
,
00033000
00000000
00000000
00000000
00000000
00000000
00000000
00000000
00000000
00000000
00000000
00000000
00000000
00000000
00000000
00000000
00000000
00000000
00000000
00000000
00000000
00000000
00000000
00000000
00000000
00000000
00000000
00000000
00000000
00000000
00000000
00000000
00000000
00000000
00000000
00000000
02020000
00000000
00000000
00000000
00000000
00000000
00000000
00000000
03030000
00000000
00000000
00000000
20200000
00000000
00000000
00000000
00000000
00000000
00000000
00000000
30300000
00000000
00000000
00000000
00000000
00000000
00000000
22000000
00000000
00000000
00000000
00000000
00000000
00000000
00000000
00000000
00000000
00000000
00000000
00000000
00000000
00000000
33000000
00000000
00000000
02200000
00000000
00000000
00000000
00000000
00000000
00000000
00000000
00000000
00000000
00000000
00000000
00000000
00000000
00000000
03300000
00000000
00000000
00000000
00000000
00000000
00220000
00000000
00000000
00000000
00000000
00000000
00000000
00000000
00000000
00000000
00000000
00000000
00000000
00000000
00000000
00000000
00000000
00000000
00330000
00000000
00000000
20020000
00000000
00000000
00000000
00000000
00000000
00000000
00000000
00000000
00000000
00000000
00000000
00000000
00000000
00000000
00000000
00000000
00000000
00000000
00000000
00000000
30030000
00000000
00000000
20200000
00000000
00000000
00000000
00000000
00000000
00000000
00000000
00000000
00000000
00000000
00000000
30300000
00000000
00000000
00000000
00000000
00000000
00000000
00000000
00000000
00000000
00000000
00000000
02020000
00000000
00000000
00000000
00000000
00000000
00000000
00000000
00000000
00000000
00000000
00000000
00000000
00000000
00000000
00000000
00000000
00000000
00000000
00000000
00000000
,
00000000
00000000
00000000
00000000
00000000
03030000
00000000
00000000
00202000
00000000
00000000
00000000
00000000
00000000
00000000
00000000
00000000
00000000
00000000
00000000
00303000
00000000
00000000
00000000
00000000
00000000
00000000
00000000
00000000
00000000
00000000
00000000
00000000
00000000
00000000
00000000
00000000
00000000
00000000
00000000
00000000
00000000
00000000
00000000
00000000
00000000
00000000
00000000
00200020
00000000
00000000
00000000
00000000
00000000
00000000
00000000
00000000
00000000
00000000
00000000
00000000
00000000
00000000
00000000
,
00000000
00000000
00000000
00000000
00000000
00000000
00000000
00000000
00000000
00000000
00000000
00000000
00000000
00000000
00000000
00300030
00000000
00000000
00000000
00000000
00000000
00000000
00000000
00000000
00100000
00000000
00000000
00000000
00001000
00000000
00000000
00000000
00100000
00000000
00000000
00000000
00010000
00000000
00000000
00000000
00000000
00000000
01000000
00000000
00000000
00000000
00000000
00000000
00100000
00000000
00000000
00000000
00000000
00000000
10000000
00000000
00000000
00000000
00000000
00000000
00010000
00000000
00000000
00000000
00000000
00000000
00100000
00000000
00000000
00000000
00000000
00000000
00001000
00000000
00000000
00000000
00010000
00000000
00000000
00000000
00001000
00000000
00000000
00000000
00010000
00000000
00000000
00000000
00000000
00000000
00000100
00000000
00000000
00000000
00000000
00000000
,
00001000
00000000
00000000
00000000
00000100
00000000
00000000
00000000
00001000
00000000
00000000
00000000
00000100
00000000
00000000
00000000
00000000
00000000
00010000
00000000
00000000
00000000
00000000
00000000
00022000
00000000
00000000
00000000
00000000
00000000
00000000
00000000
00000000
00000000
00000000
00000000
00000000
00000000
00000000
00000000
00000000
00000000
00000000
00000000
00000000
00000000
00000000
00000000
00000000
00000000
00000000
00000000
00000000
00000000
00000000
00000000
00000000
00000000
00000000
00000000
00033000
00000000
00000000
00010000
00000000
00000000
00000100
00000000
00000000
00001000
00000000
00000000
00000010
00000000
00000000
00000000
00001000
00000000
00000000
00000000
00000010
00000000
00000000
00000000
00001000
00000000
00000000
00000000
00000000
00000000
00000001
00000000
00000000
00000000
00000000
00000000
,
00000010
00000000
00000100
00000000
00000010
00000000
00000100
00000000
00000000
00001000
00000000
00000000
00000001
00000000
00000100
00000000
00000010
00000000
00001000
00000000
00000000
00000100
00000000
00000000
00010000
00000000
00000000
00001000
00000000
00000000
01000000
00000000
00000000
00010000
00000000
00000000
00100000
00000000
00000000
10000000
00000000
00000000
00100000
00000000
00000000
00010000
00000000
00000000
,
01000000
10000000
01000000
00010000
00100000
00001000
00010000
00000100
00001000
00000010
00000001
00000010
00001000
00000001
00000010
00000100
,
00001000
00010000
00100000
01000000
10000000
01000000
00100000
00010000
00001000
00000100
00010000
00001000
01000000
00020000
00000000
00130000
,
00002000
00000000
00013000
00000020
00000000
00000130
00002000
00000000
00003100
00001000
00010000
00100000
00010000
01000000
10000000
01000000
,
00010000
00000000
00000000
00000000
00100000
00000000
00000000
00000000
10000000
00000000
00000000
00000000
00100000
00000000
00000000
00000000
00010000
00000000
00000000
00000000
00001000
00000000
00000000
00000000
00010000
00000000
00000000
00000000
00000100
00000000
00000000
00000000
00001000
00000000
00000000
00000000
00000010
00000000
00000000
00000000
00000100
00000000
00000000
00000000
00000001
00000000
00000000
00000000
00002000
00000000
00000000
00000000
00000000
00000000
00000000
00000000
00000000
00000000
00000000
00000000
00003100
00010000
00001000
00010000
,
00001000
01000000
00000000
00100000
10000000
00000000
01000000
00100000
01000000
10000000
00010000
01000000
00010000
00100000
01000000
10000000
,
00010000
00100000
00000000
00001000
00010000
00000000
00001000
00010000
00000100
00001000
00000010
00000100
00001000
00010000
00000100
00001000
,
00000002
00000000
00000000
00000000
00000000
00000000
00000013
00001000
00000010
00000000
00000001
00000000
00000100
00000000
00000010
00000000
,
00001000
00000100
00000000
00010000
00001000
00000000
00010000
00001000
01000000
00000000
00100000
00000000
10000000
00000000
01000000
00000000
,
00100000
00010000
00100000
00001000
00020000
00000000
00000000
00000000
00030100
00010000
00001000
00010000
00001000
01000000
00001000
00010000
,
00000100
00001000
00000010
00000100
00000001
00000010
00000100
00001000
00000001
00000100
00000010
00001000
00000001
00000010
00000100
00000010
,
00000001
00000100
00000000
00000010
00001000
00000000
00000100
00010000
00000000
00001000
01000000
00010000
00100000
01000000
10000000
00010000
,
00200000
00010000
00001000
00300010
,
00001001
00000001
00000000
00000100
00000010
00000000
00002000
00000000
00003100
00010000
01000000
00010000
00100000
01000000
10000000
00010000
,
00100000
00010000
00000000
01000000
00010000
00000000
00200000
00000000
00301000
00010000
00000100
00001000
00000010
00000100
00000010
00010000
,
00002000
00000000
00000000
00000000
00000000
00000000
01003000
00010000
00100000
00000000
10000000
00000000
00100000
00000000
00010000
00000000
,
01000000
01010000
00000000
00101000
00000000
00011000
00000000
00010100
00000000
00011000
00000000
02000000
00000200
00000000
00000000
03000300
,
00011000
00010000
00000100
00001000
00000010
00000100
00000001
00000010
00000100
00001000
00000100
00010000
00001000
01000000
00010000
00100000
,
01000000
10000000
00010000
01000000
00010000
00100000
01000000
10000000
00010000
01000000
00100000
10000000
00010000
00100000
00001000
00010000
,
00000100
00001000
00000010
00000100
00000001
00000010
00000100
00001000
00000100
00010000
00001000
01000000
00010000
00100000
01000000
10000000
,
01000000
00100000
00010000
00000000
00022000
00000000
00000000
00000000
00000000
00000000
00000000
00000000
00000000
00000000
00000000
00000000
00000000
00000000
00000000
00000000
00000000
00000000
00000000
00000000
00000000
00000000
00000000
00000000
00000000
00000000
00000000
00000000
,
00000000
00000000
00000000
00000000
,
00033000
00000000
00000000
00000000
;
