#TITLE:Star Gate Heaven;
#SUBTITLE:;
#ARTIST:SySF. feat. Donna Burke;
#TITLETRANSLIT:;
#SUBTITLETRANSLIT:;
#ARTISTTRANSLIT:;
#GENRE:;
#CREDIT:;
#MUSIC:Star Gate Heaven.ogg;
#BANNER:Star Gate Heaven.png;
#BACKGROUND:Star Gate Heaven-bg.png;
#CDTITLE:./CDTITLES/Dancing Stage SuperNOVA.png;
#SAMPLESTART:61.260;
#SAMPLELENGTH:15.000;
#SELECTABLE:YES;
#OFFSET:0.000;
#BPMS:0.000=145.000;
#STOPS:;
#BGCHANGES:;
#FGCHANGES:;

//--------------- dance-single - Pandemonium X ----------------
#NOTES:
     dance-single:
     Pandemonium X:
     Beginner:
     3:
     0,0,0,0,0:
0000
0000
0000
0000
,
0000
0000
0000
0000
,
0000
0000
0000
0000
,
0000
0000
0000
0000
,
0000
0000
0000
0000
,
0001
0000
0000
0000
,
1000
0000
0000
0000
,
0100
0000
0000
0000
,
0010
0000
0001
0000
,
1000
0000
0000
0000
,
0010
0000
0000
0000
,
0100
0000
0000
0000
,
0001
0000
1000
0000
,
0100
0000
0000
0000
,
0010
0000
0000
0000
,
0001
0000
0000
0000
,
1000
0000
0010
0000
,
1000
0000
0000
0000
,
0001
0000
0000
0000
,
0010
0000
0000
0000
,
0200
0000
0000
0300
,
1000
0000
1000
0000
,
0001
0001
0001
0000
,
0100
0000
0010
0000
,
1000
1000
1000
0000
,
0001
0000
0010
0000
,
0100
0100
0100
0000
,
0010
0000
0001
0000
,
1000
0000
0000
0000
,
0001
0000
1000
0000
,
0010
1000
0010
0000
,
1000
0000
0001
0000
,
0010
0001
0010
0000
,
0001
0000
1000
0000
,
0100
1000
0100
0000
,
1000
0000
0001
0000
,
0110
0000
0000
0000
,
0001
0000
0010
0000
,
0100
0000
1000
0000
,
0020
0000
0000
0030
,
0200
0000
0000
0300
,
0010
0000
0100
0000
,
0001
0000
1000
0000
,
1001
0000
0000
0000
,
0001
0000
1000
0000
,
1000
0000
0100
0000
,
0010
0000
0001
0000
,
2000
0000
0000
3000
,
0002
0000
0000
0003
,
0100
0000
0010
0000
,
1000
0000
0001
0000
,
1001
0000
0000
0000
,
0001
0000
1000
0000
,
0020
0000
0000
0000
0000
0000
0000
0030
;

//--------------- dance-single - Pandemonium X ----------------
#NOTES:
     dance-single:
     Pandemonium X:
     Easy:
     6:
     0,0,0,0,0:
0000
0000
0000
0000
,
0000
0000
0000
0000
,
0000
0000
0000
0000
,
0000
0000
0000
0000
,
0110
0000
0000
0000
,
0001
0000
1000
0000
,
0100
0000
0010
0100
,
1000
0000
0010
0000
,
0100
0000
0001
0010
,
0100
0000
0010
0001
,
1000
0000
0010
1000
,
0001
0000
0100
0001
,
0010
0000
0100
1000
,
0010
0100
0001
0010
,
0001
0100
0010
1000
,
0001
1000
0010
0100
,
0010
1000
0100
0010
,
0001
0010
1000
0010
,
0001
0100
1000
0100
,
0001
0100
0010
1000
,
2002
0000
0000
3003
,
0002
0000
2003
0000
,
3001
0100
0001
0010
,
0200
0000
0320
0000
,
0130
0000
1000
0000
0010
0000
0100
0001
,
2000
0000
3002
0000
,
0013
0100
0010
0001
,
2000
0000
3020
0000
,
0200
0000
0000
0000
0330
0000
0010
0100
,
0002
0000
2003
0000
,
3100
1000
0010
0100
,
0002
0000
0023
0000
,
0130
0000
0010
0000
0001
0000
1000
0001
,
0200
0000
0302
0000
,
0013
0001
1000
0100
,
0001
0100
1000
0010
,
0200
0000
0000
0000
0300
0000
0010
1000
,
0002
0000
2003
0000
,
3200
0000
0320
0000
,
0130
1000
0100
0000
,
0010
0001
0010
0000
,
0002
0000
0203
0000
,
0320
0000
2030
0000
,
0002
0000
0000
3003
,
0101
0000
1100
0000
,
0002
0013
0200
1300
,
0020
0130
0002
1003
,
0100
1000
0010
0000
,
0001
0010
2000
0000
,
3002
0103
0020
1030
,
0200
0310
0200
2300
,
0002
0000
0000
3003
,
1010
0000
0011
0000
,
0020
0000
0000
0000
0000
0000
0000
0130
;

//--------------- dance-single - Pandemonium X ----------------
#NOTES:
     dance-single:
     Pandemonium X:
     Medium:
     10:
     0,0,0,0,0:
0000
0000
0000
0000
,
0000
0000
0000
0000
,
0000
0000
0000
0000
,
0000
0000
0000
0000
,
0000
0000
0000
0000
,
0001
0000
0000
0001
0000
0000
0001
0000
1000
0000
0000
1000
0000
0000
1000
0000
,
0010
0000
0000
0010
0000
0000
0010
0000
0100
0000
0000
0000
0110
0000
0000
0000
,
0100
0000
0000
0100
0000
0000
0100
0000
0010
0000
0000
0010
0000
0000
0010
0000
,
1000
0000
0000
1000
0000
0000
1000
0000
0001
0000
0000
0000
1000
0000
0100
0000
,
0010
0000
0000
0010
0000
0000
0010
0000
0100
0000
0000
0000
1100
0000
0000
0000
,
1000
0000
0000
1000
0000
0000
1000
0000
0001
0000
0000
0000
0101
0000
0000
0000
,
0001
0000
0000
0001
0000
0000
0001
0000
0100
0000
0000
0100
0000
0000
0100
0000
,
0010
0000
0000
0010
0000
0000
0010
0000
1000
0000
0001
0000
0100
0000
0000
0000
,
0001
0000
0000
1000
0000
0000
0100
0000
0010
0000
0000
0001
0000
0000
0010
0000
,
0001
0000
0000
0100
0000
0000
0010
0000
1000
0000
0000
0001
0000
0000
1000
0000
,
0100
0000
0000
0010
0000
0000
0100
0000
1000
0000
0000
0010
0000
0000
0100
0000
,
0001
0000
0000
0010
0000
0000
0001
0000
1000
0000
0000
0010
0100
0000
0000
0100
,
0010
0000
0000
0010
0000
0000
0010
0000
0100
0000
0000
0000
0101
0000
0000
0000
,
0001
0000
0000
0001
0000
0000
0001
0000
1000
0000
0000
0000
1100
0000
0000
0000
,
0100
0000
0000
0100
0000
0000
0010
0000
0001
0000
0000
0001
0000
0000
0100
0000
,
0020
0000
0000
0030
,
1002
0000
1003
0010
0200
0000
0301
0010
,
0200
0000
0000
1300
0000
0000
1000
0000
0001
0000
0000
0001
0000
0000
0001
0000
,
0010
0000
0000
0000
1001
0000
0000
0000
0001
0000
0000
0010
0000
0000
0100
0000
,
1000
0000
0000
1000
0000
0000
0100
0000
0010
0000
0000
0010
0000
0000
0100
0000
,
2000
0000
3100
1000
0020
0000
0130
0001
,
1000
0000
0000
1000
0000
0000
0001
0000
0010
0000
0000
0010
0000
0000
0100
0000
,
0020
0000
0031
0100
0020
0000
0130
0001
,
0020
0000
0000
0000
0030
0200
2300
3002
,
0203
0000
0000
0000
0000
0000
0310
0000
0100
0000
0000
0100
0000
0000
0001
0000
,
1000
0000
0000
1000
0000
0000
0001
0000
0010
0000
0000
0100
0000
0000
0010
0000
,
0002
0000
0000
0000
0000
0000
0013
0000
0100
0000
0000
0100
0000
0000
0010
0000
,
0100
0000
0000
1000
0000
0000
0010
0000
0100
0000
0000
0001
0000
0000
1000
0000
,
0002
0000
0013
0100
2000
0000
3100
1000
,
0010
0000
0000
0100
0000
0000
0001
0000
0010
0000
0000
1000
0000
0000
0010
0000
,
0001
0000
0000
0100
0000
0000
1000
0000
0010
0000
0000
0001
0000
0000
1000
0000
,
0220
0000
0330
0000
,
0201
0310
2100
3010
,
0201
0310
2100
3010
,
1001
0000
0000
0001
0000
0000
0001
0000
1000
0000
0000
1000
0000
0000
1000
0000
,
0010
0000
0000
0010
0000
0000
0010
0000
0100
0000
0000
0000
0110
0000
0000
0000
,
1002
0103
2001
3100
,
0210
1300
0120
0031
,
2002
0000
0000
3003
,
0001
0000
0100
0001
0000
0000
0010
0000
0100
0000
0100
1000
0000
0000
0000
0000
,
1020
0130
0012
0103
,
1020
0130
0012
0103
,
1001
0000
0000
1000
0000
0000
0100
0000
0010
0000
0000
0010
0000
0000
0100
0000
,
1000
0000
0000
0010
0000
0000
0200
0000
0000
0000
0000
0000
0301
0000
0000
0000
,
1002
0013
2001
3010
,
0120
1030
0210
0301
,
2002
0000
0000
3003
,
1000
0000
0100
0010
0000
0000
0001
0000
0100
0000
0100
0010
0000
0000
0000
0000
,
2002
0000
0000
0000
0000
0000
0000
3003
;

//--------------- dance-single - Pandemonium X ----------------
#NOTES:
     dance-single:
     Pandemonium X:
     Hard:
     13:
     0,0,0,0,0:
0000
0000
0000
0000
,
0000
0000
0000
0000
,
0000
0000
0000
0000
,
0000
0000
0000
0000
,
0001
0100
0000
0100
0010
0000
0010
0000
1000
0010
0000
0010
0100
0000
0100
0000
,
0001
0000
0000
0001
0000
0000
0001
0000
1000
0000
0000
1000
0000
0000
1000
0000
,
0010
0000
0000
0010
0000
0000
0010
0000
0100
0000
0000
0010
0000
0000
0100
0001
,
1000
0000
0000
1000
0000
0000
1000
0000
0100
0000
0000
0100
0000
0000
0100
0000
,
0010
0000
0000
0010
0000
0000
0010
0000
0100
0000
0010
0000
0001
0100
0000
0100
,
0010
0000
0000
0010
0000
0000
1000
0000
0001
0000
0000
0010
0100
0000
0000
0100
,
1000
0000
0000
1000
0000
0000
1000
0000
0010
0000
0000
0100
0001
0000
0000
0001
,
1000
0000
0000
1000
0000
0000
1000
0000
0001
0000
0000
0001
0010
0000
0000
0100
,
0010
0000
0000
0010
0000
0000
0010
0000
0001
1000
0001
1000
0001
0000
1000
0000
,
0100
0000
0000
0000
0100
0010
0000
0001
0000
0100
0000
0010
0000
0010
0000
0100
,
0000
0001
0000
1000
0001
0010
0000
0100
0000
0010
0000
0100
0000
0010
0000
0000
,
0000
0000
0000
0000
0100
1000
0000
0100
0000
0100
0000
0010
0000
0001
0000
0100
,
0000
0100
0010
1000
0001
1000
0000
1000
0000
0100
0000
0010
0000
0010
0100
0000
,
1000
0000
0000
0000
0001
0100
0000
0001
0000
0010
0000
1000
0000
0010
0000
0100
,
0000
0010
0000
0010
0000
0100
0000
0010
0000
0001
0000
0001
0000
0001
0000
0000
,
0000
0000
0000
0000
0001
0100
0000
0001
0000
0010
0100
0000
1000
0000
0001
0000
,
1000
0000
0001
0100
0001
0000
1000
0000
0100
1000
0100
0000
1000
0001
0000
0001
,
0020
0000
0130
1000
0020
0000
0130
0010
,
2000
0000
0000
3010
0000
0000
1000
0000
0200
0000
0000
0310
0000
0000
0001
0000
,
1002
0000
0000
0000
0013
0000
0000
0000
0100
0000
0000
0010
0000
0000
0001
0000
,
0201
0000
0000
0310
0000
0000
0100
0000
1020
0000
0000
0130
0000
0000
0001
1000
,
0200
0000
0310
0001
0200
0000
1300
0100
,
0002
0000
0000
0103
0000
0000
0001
0000
2000
0000
0000
3100
0000
0000
1000
0000
,
1002
0000
1003
0100
0001
0000
0001
0100
,
2000
0000
0000
0000
0100
0000
0000
0000
3010
0000
0100
0000
0001
0100
0001
0100
,
0002
0000
0013
0001
0100
0000
1000
0100
,
0210
0000
0000
0301
0000
0000
0010
0000
0120
0000
0000
1030
0000
0000
0100
0000
,
1002
0000
0000
0000
0013
0000
0100
0000
2100
0000
0000
0010
0000
0000
3001
0000
,
0201
0000
0000
1000
0000
0000
0301
0000
0021
0000
0000
1000
0000
0000
0031
0000
,
2001
0000
3001
0100
0002
0000
0103
0010
,
2000
0000
0000
3001
0000
0000
0010
0000
0200
0000
0000
1300
0000
0000
0100
0000
,
0021
0000
0000
0130
0000
0000
1000
0000
1020
0000
0000
0100
0000
0000
1030
0000
,
2002
0000
0000
0000
0000
0000
0000
0000
3003
0000
1000
0000
0001
0010
0100
0010
,
0001
0000
0000
1000
0010
0000
0100
0000
0002
0000
0000
0013
0100
0000
1000
0000
,
0020
0000
0000
0130
1000
0000
0100
0000
0002
0000
0000
0013
0100
0000
1000
0000
,
0001
1000
0000
0001
0000
0010
0100
0000
1000
0001
0000
1000
0000
0010
0100
0000
,
0001
1000
0000
0001
0000
0010
0100
0000
1000
0001
0000
1000
0000
0100
0010
0000
,
0002
0000
0000
0013
0001
0000
0100
0000
0020
0000
0000
0130
0010
0000
1000
0000
,
0200
0000
0000
0310
0100
0000
1000
0000
0020
0000
0000
0130
1000
0000
0100
0000
,
0002
0100
0010
1003
,
1001
0000
0001
0100
0000
0010
1000
0000
1001
0000
1000
0100
0000
0010
0001
0000
,
2000
0000
0000
3100
1000
0000
0010
0000
0200
0000
0000
0301
0010
0000
0100
0000
,
0020
0000
0000
0031
1000
0000
0010
0000
0200
0000
0000
0310
1000
0000
0001
0000
,
0001
0010
0000
0100
0000
1000
0010
0000
0100
0001
0000
1000
0000
0001
0010
0000
,
0100
0010
0000
0001
0000
1000
0100
0000
1000
0010
0000
0100
0000
0010
1000
0000
,
0002
0000
0000
0013
0001
0000
1000
0000
0200
0000
0000
1300
0100
0000
0010
0000
,
0200
0000
0000
0310
0100
0000
1000
0000
0020
0000
0000
0130
0010
0000
1000
0000
,
2001
0100
0010
3001
,
1000
0000
0001
0000
0100
0000
0010
0000
1000
0001
1000
0001
1000
0001
1000
0001
,
1000
0010
0000
0100
0001
0000
0010
0000
0100
0010
0000
0001
1000
0000
0110
0000
;

//--------------- dance-single - Pandemonium X ----------------
#NOTES:
     dance-single:
     Pandemonium X:
     Challenge:
     16:
     0,0,0,0,0:
0000
0000
0000
0000
,
0000
0000
0000
0000
,
0000
0000
0000
0000
,
0000
0000
0000
0000
,
1000
0000
0020
0030
0000
0000
0020
0030
0001
0000
0000
0000
1001
0000
0000
0000
0001
0000
0200
0300
0000
0000
0200
0300
1000
0000
0000
0000
1001
0000
0000
0000
,
0001
0000
0100
0010
0000
0100
0001
0000
1000
0000
0100
0010
0000
0100
1000
0000
,
0001
0000
0100
1000
0000
0100
0001
0000
1000
0000
0001
0010
0000
1000
0010
0001
,
1000
0000
0001
1000
0000
0100
0010
0000
0001
0000
0010
0100
0000
1000
0001
0000
,
0100
0000
0010
1000
0000
1000
0001
0000
0010
0000
0100
0010
0001
0100
0001
0100
,
0010
0000
1000
0001
0000
0001
0010
0000
0100
0000
0100
0010
0001
0100
0010
1000
,
0001
0000
0001
1000
0000
1000
0010
0000
0100
0010
1000
0010
0100
0001
0010
0100
,
1000
0000
0100
0010
0000
0100
0010
0001
0100
0001
0010
0100
1000
0100
0010
0100
,
1000
0000
0001
0100
0000
0001
0010
0000
0100
0010
0100
1000
0001
0100
0001
1000
,
0010
0000
0000
0000
1000
0001
0000
0010
0000
1000
0000
0010
0001
0100
0000
1000
,
0000
0100
0000
0001
0100
0010
0000
1010
0000
1001
0000
0011
0000
1001
0000
0000
,
0000
0000
0000
0000
0001
0100
0000
0010
0000
0010
0000
0100
0000
0000
0000
0000
,
0000
0001
0100
0001
1000
0001
0010
1000
0010
0001
0010
0100
1000
0100
0010
0001
,
1000
0000
0000
0000
0010
1000
0000
0010
0000
0001
0000
0010
0000
1000
0000
0100
,
0001
0100
0000
1000
0000
0010
0000
0110
0000
0101
0000
1001
0000
1100
0000
0000
,
0000
0000
0000
0000
1000
0010
0000
1000
0000
0001
0000
0010
0100
0000
1000
0000
,
0001
0100
0001
0100
0001
0000
1001
0000
1000
0100
1000
0100
1000
0010
0100
0000
,
1002
0000
0013
0100
0020
0000
0031
0100
,
0010
0000
0100
0001
0000
0001
1000
0000
0001
0000
1000
0100
0000
0100
0010
0000
,
1200
0000
0000
1300
0000
1000
0100
0000
0120
0000
0000
0031
0000
0001
1000
0000
,
0201
0000
0000
1000
0000
0000
0301
0000
0010
0000
0100
0010
0001
1000
0010
0100
,
0010
1000
0000
0001
0000
1000
0001
0000
0010
0100
0000
1000
0000
0100
0010
0000
,
0001
0000
0100
0001
0000
0010
0100
0000
0001
0000
1000
0100
0000
0010
0100
0000
,
2100
0000
0000
3010
0100
0000
0001
0000
0201
0000
0000
0310
0100
0000
0001
0000
,
2001
0000
0000
0000
0010
0000
0000
0000
3001
0000
1001
0000
1000
0100
0010
0100
,
1000
0010
0000
0100
0000
0001
1000
0000
0100
0010
0000
0100
0000
1000
0001
0000
,
0010
0100
0000
0010
0000
0001
0100
0000
1000
0100
0000
0010
0000
1000
0001
0000
,
0010
0100
0000
0100
0000
0100
0010
0000
0100
1000
0000
1000
0000
1000
0000
1000
,
0001
0000
0001
0100
0000
0010
1000
0000
1000
0000
0001
0010
0100
1000
0100
0010
,
0100
0010
0000
0100
0000
0010
0001
0000
1000
0010
0000
0100
0000
0010
1000
0000
,
0001
0000
0010
0100
0000
0100
1000
0000
0001
0000
1000
0010
0000
0010
0100
0000
,
0101
0000
0010
1000
0000
0001
0010
0000
0110
0000
0100
1000
0000
0010
0100
0000
,
1002
0000
0000
0000
0100
0000
0000
0000
0013
0000
1001
0000
0001
0010
0100
1000
,
0001
0000
0000
0100
0001
0000
0010
0000
0200
0000
0000
0310
0100
0000
1000
0000
,
0002
0000
0000
0103
0001
0000
1000
0000
0020
0000
0000
0130
0010
0000
1000
0000
,
0001
1000
0000
0110
0000
1000
0001
0000
1000
0001
0000
0110
0000
1000
0001
0000
,
1000
0100
0000
0011
0000
0001
0100
0000
0010
1000
0000
0101
0000
0100
0010
0000
,
2000
0000
0000
3010
0100
0000
1000
0000
0200
0000
0000
1300
0100
0000
0001
0000
,
0020
0000
0000
1030
0010
0000
0001
0000
2000
0000
0000
3001
0100
0000
0010
0000
,
2001
0100
0010
3001
,
1000
0000
0000
0000
1000
0000
0020
0030
0000
0000
0020
0030
0001
0000
0000
0000
1001
0000
0000
0000
0001
0000
1000
0000
0010
0000
0100
0000
0010
0000
0100
0000
,
0002
0000
0000
0013
1000
0000
0010
0000
0200
0000
0000
0310
0001
0000
0100
0000
,
2000
0000
0000
3100
0010
0000
1000
0000
0002
0000
0000
0013
0001
0000
1000
0000
,
0010
0100
0000
0110
0000
0010
0100
0001
1000
0001
0000
0011
0000
0001
0010
0100
,
0010
0001
0000
0011
0000
1000
0010
0100
0010
0100
0000
1001
0000
1000
0001
0100
,
0020
0000
0000
1030
0100
0000
0010
0000
0200
0000
0000
0301
0100
0000
0010
0000
,
0002
0000
0000
0103
0010
0000
1000
0000
0002
0000
0000
0103
0010
0000
1000
0000
,
1002
1000
0100
0013
,
1001
0000
0000
0000
0001
0000
0200
0300
0000
0000
0200
0300
1000
0000
0000
0000
0001
0000
0100
0000
0010
0000
1000
0000
0001
0000
0100
0000
0010
0000
1000
0000
,
0001
0000
0020
0030
0000
0000
0020
0030
1000
0000
0000
0000
0001
0000
0000
0000
1000
0000
0200
0300
0000
0000
0200
0300
0001
0000
0000
0000
2002
0000
0000
0000
,
0000
0000
3003
0000
;

//--------------- dance-double - Pandemonium X ----------------
#NOTES:
     dance-double:
     Pandemonium X:
     Easy:
     5:
     0,0,0,0,0:
00000000
00000000
00000000
00000000
,
00000000
00000000
00000000
00000000
,
00000000
00000000
00000000
00000000
,
00000000
00000000
00000000
00000000
,
00000000
00000000
00000000
00000000
,
00010000
00000000
00000100
00000000
,
00001000
00000000
00000010
00000000
,
00010000
00000000
00001000
00000000
,
01000000
00000000
00010000
00100000
,
01000000
00000000
10000000
00010000
,
00100000
00000000
00010000
00100000
,
00001000
00000000
00010000
00000100
,
00001000
00000000
00000010
00000100
,
00000001
00000000
00001000
00000000
,
00000100
00000000
00010000
00000000
,
00001000
00000000
01000000
00000000
,
00010000
00000000
10000000
01000000
,
00100000
00000000
00010000
00100000
,
00001000
00000000
00010000
00000100
,
00001000
00000000
00000010
00000000
,
00022000
00000000
00000000
00033000
,
00020000
00000000
00030200
00000000
,
00001300
00000000
00000010
00000000
,
00000200
00000300
00000001
00000000
,
00000020
00000000
00000230
00000000
,
00020300
00000000
00032000
00000000
,
01003000
00000000
00100000
00000000
,
11000000
00000000
00110000
00000000
,
20020000
00000000
30030000
00000000
,
20000000
00000000
30020000
00000000
,
00130000
00001000
00010000
00000000
,
00000200
00000000
00002300
00000000
,
00003010
00000100
00000001
00001000
,
00000200
00000000
00000320
00000000
,
00000031
00000000
00001000
00000000
,
00001010
00000000
00001100
00000000
,
00022000
00000000
00033000
00000000
,
02000000
00000000
03200000
00000000
,
20300000
00000000
32000000
00000000
,
03100000
00010000
00100000
00000000
,
00001000
00010000
00001000
00000000
,
00020000
00000000
00030200
00000000
,
00002300
00000000
00003020
00000000
,
00000200
00000000
00000000
00000330
,
00001001
00000010
00001001
00000000
,
00000002
00000000
00002003
00000000
,
00003200
00000000
00020300
00000000
,
00031000
01000000
00200000
00300000
,
01000000
00010000
20000000
30000000
,
02000000
00000000
03200000
00000000
,
00302000
00000000
00023000
00000000
,
00002000
00000000
00000000
00033000
,
00010100
00000000
00001010
00000000
,
00000102
00000000
00000000
00000000
00000000
00000000
00000000
00001003
;

//--------------- dance-double - Pandemonium X ----------------
#NOTES:
     dance-double:
     Pandemonium X:
     Medium:
     11:
     0,0,0,0,0:
00000000
00000000
00000000
00000000
,
00000000
00000000
00000000
00000000
,
00000000
00000000
00000000
00000000
,
00000000
00000000
00000000
00000000
,
00000000
00000000
00000000
00000000
,
00010000
00000000
00000000
00010000
00000000
00000000
00010000
00000000
00000100
00000000
00000000
00000100
00000000
00000000
00000100
00000000
,
00001000
00000000
00000000
00001000
00000000
00000000
00001000
00000000
00000010
00000000
00000000
00000100
00000000
00000000
00000001
00000000
,
00001000
00000000
00000000
00001000
00000000
00000000
00001000
00000000
00000100
00000000
00000000
00000100
00000000
00000000
00000100
00000000
,
00010000
00000000
00000000
00010000
00000000
00000000
00010000
00000000
00001000
00000000
00000000
00001000
01000000
00000000
00000000
01000000
,
00100000
00000000
00000000
00100000
00000000
00000000
00100000
00000000
01000000
00000000
00000000
00000000
10010000
00000000
00000000
00000000
,
10000000
00000000
00000000
10000000
00000000
00000000
10000000
00000000
00010000
00000000
00000000
00000000
00101000
00000000
00000000
00000000
,
00001000
00000000
00000000
00001000
00000000
00000000
00001000
00000000
00010000
00000000
00000000
00010000
00000000
00000000
00010000
00000000
,
00000100
00000000
00000000
00000100
00000000
00000000
00000100
00000000
00001000
00000000
00000000
00000000
00000010
00000100
00000000
00000100
,
00000001
00000000
00000000
00001000
00000000
00000000
00000100
00000000
00010000
00000000
00000000
00001000
00000000
00000000
00010000
00000000
,
00001000
00000000
00000000
01000000
00000000
00000000
00010000
00000000
00100000
00000000
00000000
01000000
00000000
00000000
10000000
00000000
,
00100000
00000000
00000000
01000000
00000000
00000000
00010000
00000000
00100000
00000000
00000000
00001000
00000000
00000000
00010000
00000000
,
00000100
00000000
00000000
00001000
00000000
00000000
00000010
00000000
00000100
00000000
00000000
00000000
00000001
00001000
00000000
00001000
,
00000100
00000000
00000000
00010000
00000000
00000000
00001000
00000000
01000000
00000000
00000000
00000000
01100000
00000000
00000000
00000000
,
00010000
00000000
00000000
10000000
00000000
00000000
00010000
00000000
00100000
00000000
00000000
00000000
00101000
00000000
00000000
00000000
,
00001000
00000000
00000000
00010000
00000000
00000000
00000100
00000000
00001000
00000000
00000000
00000010
00000000
00000000
00000100
00000000
,
00002002
00000000
00000000
00003003
,
00000002
00000000
00000103
00000010
00002000
00000000
00003100
00010000
,
00002000
00000000
00000000
00103000
00000000
00000000
00010000
00000000
02000000
00000000
00000000
03010000
00000000
00000000
00100000
00000000
,
00002000
00000000
00000000
00000000
00003000
00000000
00000000
00000000
00020000
00000000
00000000
00030100
00000000
00000000
00001000
00000000
,
00001020
00000000
00000000
00000130
00000000
00000000
00000100
00000000
00000102
00000000
00000000
00000013
00000000
00000000
00000100
00000000
,
00001200
00000000
00010300
00001000
02000000
00000000
03100000
10000000
,
02000000
00000000
00000000
03100000
00000000
00000000
10000000
00000000
00020000
00000000
00000000
01030000
00000000
00000000
00010000
00000000
,
00200000
00000000
00301000
00010000
00000020
00000000
00010030
00001000
,
00200000
00000000
00000000
00000000
00300000
10010000
00010000
00100000
,
02000000
00000000
00000000
00000000
00000000
00000000
13000000
00000000
00020000
00000000
00000000
01030000
00000000
00000000
00010000
00000000
,
00200000
00000000
00000000
00301000
00000000
00000000
00010000
00000000
00000020
00000000
00000000
00000130
00000000
00000000
00000001
00000000
,
00000022
00000000
00000000
00000000
00000033
00000000
00000001
00000000
00000020
00000000
00000000
00000130
00000000
00000000
00000010
00000000
,
00000002
00000000
00000000
00001003
00000000
00000000
00000100
00000000
00020000
00000000
00000000
00031000
00000000
00000000
01000000
00000000
,
01020000
00000000
00130000
01000000
20000000
00000000
31000000
10000000
,
00200000
00000000
00000000
10300000
00000000
00000000
00100000
00000000
02000000
00000000
00000000
03010000
00000000
00000000
00100000
00000000
,
00102000
00000000
00000000
00013000
00000000
00000000
00010000
00000000
00002100
00000000
00000000
00003010
00000000
00000000
00000100
00000000
,
00002002
00000000
00000000
00000000
00003003
00001001
00000001
00000010
,
00000200
00000000
00010300
00001000
02000000
00000000
03001000
00010000
,
00000020
00000000
00010030
00001000
00200000
00000000
00310000
00000000
,
10000000
00000000
00000000
10000000
00000000
00000000
10000000
00000000
00010000
00000000
00000000
00100000
00000000
00000000
00001000
00000000
,
00010000
00000000
00000000
00010000
00000000
00000000
00010000
00000000
00000100
00000000
00000000
00001000
00000000
00000000
00000010
00000000
,
00020000
00000000
00031000
01000000
00200000
00000000
01300000
00001000
,
00020000
00000000
00030100
00001000
00000020
00000000
00000130
00000010
,
00020000
00000000
00000000
00030000
,
00001000
00000000
01000000
00001000
00000000
00000000
01000000
00000000
00100000
00000000
00010000
10000000
00000000
00000000
00000000
00000000
,
00010000
00100000
00110000
00000000
00100000
00001000
00101000
00000000
,
00010000
00000100
00010100
00000000
00001000
00000010
00001010
00000000
,
00000210
00000000
00000000
00000001
00000000
00000000
00000020
00000000
00000000
00000000
00000000
00000000
00000330
00000000
00000010
00000000
,
00000120
00000000
00000000
00001000
00000000
00000000
00000200
00000000
00000000
00000000
00000000
00000000
00000330
00000000
00000000
00000000
,
00000020
00000000
00001030
00000100
00020000
00000000
00031000
00010000
,
00000200
00000000
00010300
00001000
00020000
00000000
00030010
00000200
,
00000002
00000000
00000000
00000303
,
00000001
00000000
00000100
00000010
00000000
00000000
00000100
00000000
00000001
00000000
00001000
00000100
00000000
00000000
00000000
00000000
,
00010000
00000000
00000000
00001000
00000000
00000000
01000000
00000000
00100000
00000000
00000000
00100000
00000000
00000000
20020000
00000000
,
30030000
00000000
00000000
00000000
;

//--------------- dance-double - Pandemonium X ----------------
#NOTES:
     dance-double:
     Pandemonium X:
     Hard:
     13:
     0,0,0,0,0:
00000000
00000000
00000000
00000000
,
00000000
00000000
00000000
00000000
,
00000000
00000000
00000000
00000000
,
00000000
00000000
00000000
00000000
,
00001000
00010000
00000000
00010000
00000100
00000000
00000100
00000000
00010000
00001000
00000000
00001000
01000000
00000000
01000000
00000000
,
00100000
00000000
00000000
10000000
00000000
00000000
01000000
00000000
00100000
00000000
00000000
00100000
00001000
00000000
00010000
00000000
,
00001000
00000000
00000000
00010000
00000000
00000000
00000100
00000000
00001000
00000000
00000000
00000010
00001000
00000000
00000001
00000000
,
00001000
00000000
00000000
00000100
00000000
00000000
00000010
00000000
00000100
00000000
00000000
00000010
00000001
00000000
00001000
00000000
,
00000100
00000000
00000000
00010000
00000000
00000000
00001000
00000000
01000000
00000000
00100000
00000000
10000000
01000000
00000000
01000000
,
00100000
00000000
00000000
01000000
00000000
00000000
10000000
00000000
00010000
00000000
00100000
00010000
01000000
00000000
00010000
00000000
,
10000000
00000000
00000000
00010000
00000000
00000000
00100000
00000000
00001000
00000000
00010000
00000100
00010000
00000000
00000100
00000000
,
00001000
00000000
00000000
00000010
00000000
00000000
00000100
00000000
00000001
00000000
00000010
00000100
00001000
00000000
00000001
00000000
,
00001000
00000000
00000000
00000100
00000000
00000000
00010000
00001000
00010000
00000000
00001000
00000000
01000000
00100000
00000000
00100000
,
10000000
00000000
00000000
00000000
10000000
01000000
00000000
00100000
00000000
00010000
00000000
00100000
00000000
00001000
00000000
00010000
,
00000000
00000100
00000000
00001000
00000010
00000100
00000000
00000010
00000000
00001000
00000000
00001000
00000000
00000101
00000000
00000000
,
00000000
00000000
00000000
00000000
00000001
00000100
00000000
00000010
00000000
00000010
00000000
00000100
00000000
00000000
00000000
00000000
,
00000000
00000010
00001000
00000000
00000100
00000000
00010000
00000000
00001000
00000000
01000000
00000000
00010000
00100000
00000000
00100000
,
01000000
00000000
00000000
10000000
00000000
00000000
00100000
00000000
01000000
00000000
00000000
00010000
01000000
00000000
00000000
00010000
,
00100000
00000000
00000000
00001000
00000000
00000000
00010000
00000000
00000100
00000000
00000000
00001000
00000010
00000000
00000000
00000100
,
00000010
00000000
00000000
00000100
00000000
00000000
00000001
00000000
00000010
00000000
00000000
00000100
00001000
00000000
00000000
00000100
,
00020000
00000000
00000000
00000000
,
00032000
00000000
01003000
00100000
20000000
00000000
31000000
00100000
,
00010000
00000000
00000000
00001000
00000000
00000000
00000100
00000000
00000010
00000000
00000000
00000001
00000000
00000000
00001000
00000000
,
00000210
00000000
00000000
00000000
00000301
00000000
00000000
00000000
00001002
00000000
00000000
00000100
00000000
00000000
00001003
00000000
,
00000010
00000000
00000000
00000100
00000000
00000000
00001000
00000000
00010000
00000000
00000000
00100000
00000000
00000000
01000000
00000000
,
00020000
00000000
00130000
00001000
00020000
00000000
00030100
00001000
,
00000010
00000000
00000000
00001000
00000000
00000000
00010000
00000000
01000000
00000000
00000000
00100000
00000000
00000000
10000000
00000000
,
02000000
00000000
03100000
00010000
00002000
00000000
00003100
00000010
,
00000002
00000000
00000000
00000000
00000000
00000000
00000000
00000000
00000003
00000000
00001000
00000000
00000100
00000010
00000100
00001000
,
00000002
00000000
00000000
00000000
00000000
00000000
00000103
00000000
00000001
00000000
00000000
00000010
00000000
00000000
00000100
00000000
,
00001000
00000000
00000000
00000010
00000000
00000000
00000100
00000000
00001000
00000000
00000000
00010000
00000000
00000000
00001000
00000000
,
00200000
00000000
00000000
00000000
00310000
00000000
00100000
00000000
01000000
00000000
00000000
10000000
00000000
00000000
00100000
00000000
,
10000000
00000000
00000000
01000000
00000000
00000000
00100000
00000000
00010000
00000000
00000000
00001000
00000000
00000000
00000100
00000000
,
00002000
00000000
00003010
00000100
00000002
00000000
00000013
00000001
,
00000100
00000000
00000000
00001000
00000000
00000000
00010000
00000000
00100000
00000000
00000000
01000000
00000000
00000000
10000000
00000000
,
10010000
00000000
00000000
00010000
00000000
00000000
00100000
00000000
00101000
00000000
00000000
00001000
00000000
00000000
00010000
00000000
,
00022000
00000000
00000000
00000000
00000000
00000000
00000000
00000000
00033000
00000000
00001000
00000000
00010000
00000100
00001000
00000100
,
00020000
00000000
00030020
00000000
,
00200030
00000000
00000000
00000000
00020000
00000000
00000000
00330000
,
00010000
00100000
00000000
01000000
00000000
00000000
10000000
00000000
00100000
01000000
00000000
00010000
00000000
00000000
00100000
00000000
,
00001000
00010000
00000000
00000100
00000000
00000000
00001000
00000000
00000010
00000100
00000000
00000001
00000000
00000000
00001000
00000000
,
00000020
00000000
00020030
00000000
,
00030200
00000000
02000300
00000000
,
00002000
00000000
00000000
03003000
,
01000000
00000000
00010000
00100000
00000000
00000000
01000000
00000000
10000000
00000000
00010000
10000000
00000000
00000000
00000000
00000000
,
00210000
00000000
00300020
00000000
,
00020030
00000000
00000000
00000000
00000200
00000000
00000000
00030300
,
00000100
00001000
00000000
00000010
00000000
00000000
00000100
00000000
00000001
00000010
00000000
00000100
00000000
00000000
00001000
00000000
,
00000100
00010000
00000000
00001000
00000000
00000000
00010000
00000000
00001000
01000000
00000000
00100000
00000000
10000000
00000000
00010000
,
02000000
00000000
03000200
00000000
,
00020300
00000000
00030020
00000000
,
00200000
00000000
00000000
00300030
,
00011000
00000000
00010000
00000100
00000000
00000000
00010000
00000000
00011000
00000000
00001000
01000000
00000000
00000000
00000000
00000000
,
00100000
01000000
00000000
01000000
00010000
00000000
00100000
00000000
00101000
00000000
00000000
00011000
00000000
00000000
00001001
00000000
;

//--------------- dance-double - Pandemonium X ----------------
#NOTES:
     dance-double:
     Pandemonium X:
     Challenge:
     16:
     0,0,0,0,0:
00000000
00000000
00000000
00000000
,
00000000
00000000
00000000
00000000
,
00000000
00000000
00000000
00000000
,
00000000
00000000
00000000
00000000
,
00010000
00100000
00000000
00100000
10000000
00000000
10010000
00000000
10000000
01000000
00000000
01000000
00010000
00000000
10010000
00000000
,
00010000
00000000
00100000
00001000
00000000
00010000
00001000
00000000
00010000
00000000
00000100
00001000
00000000
00000001
00001000
00000000
,
00000010
00000000
00001000
00000100
00000000
00010000
00001000
00000000
00010000
00000000
00001000
01000000
00000000
00010000
10000000
00000000
,
01000000
00000000
00100000
00001000
00000000
00010000
00001000
00000000
00010000
00000000
00000100
00001000
00000000
00000001
00001000
00000000
,
00000001
00000000
00000010
00000001
00000000
00001000
00000001
00000000
00001000
00000000
00000010
00001000
00000100
00001000
00000100
00010000
,
00001000
00000000
00010000
00001000
00000000
00010000
00000100
00000000
00001000
00000000
00000010
00001000
00000001
00000010
00000001
00000000
,
00001000
00000000
00000100
00010000
00000000
00001000
00010000
00000000
00001000
00000000
01000000
00010000
00100000
00010000
10000000
00010000
,
01000000
00000000
00100000
10000000
00000000
00010000
00100000
00000000
01000000
00000000
00100000
00010000
01000000
00010000
10000000
00000000
,
00010000
00000000
00100000
00001000
00000000
00010000
00000100
00000000
00001000
00000010
00000100
00000001
00000010
00000100
00000000
00000000
,
00000010
00000001
00000000
00001000
00000001
00000100
00000000
00001000
00000000
00010000
00000000
00100000
10000000
01000000
00000000
00010000
,
00000000
00001000
00000000
00000010
00000001
00001000
00000000
00001001
00000000
00000110
00000000
00000101
00000000
00001010
00000000
00000000
,
00000000
00000000
00000000
00000000
00000010
00000100
00000000
00001000
00000000
00010000
00000000
00011000
00000000
00000000
00000000
00000000
,
00000000
00001000
01000000
00010000
00100000
00010000
00000000
10000000
00000000
00010000
00000000
01010000
00000000
10010000
00000000
10000000
,
01000000
00000000
00000000
00000000
10000000
00100000
00000000
10000000
00000000
01000000
00000000
00100000
00010000
00001000
00000000
00000100
,
00000000
00000010
00000000
00000001
00000100
00001000
00000000
00010000
00000000
00100000
00000000
01100000
00000000
10010000
00000000
00000000
,
00000000
00000000
00000000
00000000
10000000
01000000
00000000
00100000
00000000
00001000
00000000
00010000
00001000
00000000
00010000
00000000
,
00022000
00000000
00000000
00033000
,
00020100
00000000
00000000
00000100
00031000
00000000
00000010
00000000
00000200
00000000
00000000
00000301
00000010
00000000
00000001
00000000
,
00001000
00000000
00001000
00000100
00000000
00000100
00000010
00000000
00000001
00000000
00001000
00000010
00000000
00000010
00010000
00000000
,
00002000
00000000
00000000
00000000
00100000
00000000
00000000
00000000
00013000
00000000
00001000
01000000
00000000
01000000
00100000
00000000
,
10020000
00000000
00000000
00130000
00000000
00000000
00011000
00000000
00002001
00000000
00000000
00000010
00000000
00000000
00003002
00000023
,
00000230
00000310
00000000
00000001
00000000
00001000
00000010
00000000
00001000
00000100
00000000
00010000
00000000
00001000
01000000
00000000
,
00100000
10000000
00000000
00010000
00000000
00100000
01000000
00000000
10000000
01000000
00000000
00100000
00000000
00001000
00010000
00000000
,
00002000
00000000
00000000
00100000
00203000
00000000
00000000
00000010
,
00000020
00000000
00000000
00000000
00000000
00000000
00000000
00000000
00300030
00000000
00011000
00000000
00001000
00010000
00000100
00010000
,
00001000
00010000
00000000
00001000
00000000
01000000
00100000
00000000
10000000
00010000
00000000
00100000
00000000
01000000
00100000
00000000
,
10020000
00000000
00000000
00130000
00000000
00000000
00011000
00000000
00002001
00000000
00000000
00000100
00000000
00000000
00003001
00000000
,
00000120
00000000
00000000
00000000
00010030
00000000
00001000
00000000
00011000
00000000
00000000
10010000
00000000
00000000
10000000
00000000
,
10020000
00000000
00000000
00130000
00000000
00000000
00011000
00000000
00010200
00000000
00000000
00001000
00000000
00000000
00000310
00000000
,
00001000
00000001
00000000
00000010
00000000
00000100
00001000
00000000
00000100
00010000
00000000
00001000
00000000
01000000
00100000
00000000
,
10000000
01000000
00000000
00010000
00000000
01000000
00100000
00000000
00001000
00010000
00000000
00000100
00000000
00001000
00000010
00000000
,
00000002
00000000
00000000
00000023
00000000
00000000
00000230
00000000
00000320
00000000
00000000
00000230
00000000
00000000
00002300
00000000
,
00020000
00000000
00000000
00000000
00000000
00000000
00000000
00000000
00033000
00000000
00011000
00000000
00010000
00000100
00001000
00000100
,
00020000
00000000
00000000
00031000
01000000
00000000
00010000
00000000
00200000
00000000
00000000
01300000
10000000
00000000
00010000
00000000
,
20000000
00000000
00000000
30100000
10000000
00000000
01000000
00000000
00200000
00000000
00000000
00310000
00100000
00000000
00001000
00000000
,
00010000
00000100
00000000
00001000
00000000
00000010
00000100
00000000
00000001
00000010
00000000
00000001
00000000
00001000
00000100
00000000
,
00000010
00000100
00000000
00001000
00000000
00000100
00010000
00000000
00001000
01000000
00000000
00100000
00000000
10000000
00010000
00000000
,
00210000
00000000
00000000
00301000
00010000
00000000
00000100
00000000
00002100
00000000
00000000
00003010
00000100
00000000
00000001
00000000
,
00000021
00000000
00000000
00000130
00001000
00000000
00000010
00000000
00000210
00000000
00000000
00000310
00001000
00000000
00000001
00000000
,
00002002
00000000
00000000
00003003
,
00001001
00000000
00000010
00000100
00000000
00000000
00000110
00000000
00001001
00000000
00000100
00000010
00000000
00000000
00000000
00000000
,
00000012
00000000
00000000
00000103
00000010
00000000
00001000
00000000
00000200
00000000
00000000
00010300
00001000
00000000
01000000
00000000
,
00200000
00000000
00000000
01300000
00010000
00000000
00100000
00000000
02000000
00000000
00000000
03100000
00010000
00000000
10000000
00000000
,
00010000
01000000
00000000
00010000
00000000
00100000
00001000
00000000
00010000
00000100
00000000
00001000
00000000
00000010
00000100
00000000
,
00000001
00000010
00000000
00000100
00000000
00000010
00000001
00000000
00001000
00000100
00000000
00010000
00000000
00001000
01000000
00000000
,
01200000
00000000
00000000
01300000
00010000
00000000
00100000
00000000
21000000
00000000
00000000
30010000
10000000
00000000
00010000
00000000
,
00210000
00000000
00000000
00301000
00010000
00000000
00000100
00000000
00002100
00000000
00000000
00003010
00000100
00000000
00000001
00000000
,
00002020
00000000
00000000
00003030
,
00011000
00000000
00000100
00001000
00000000
00000000
00011000
00000000
00011000
00000000
00001000
01000000
00100000
10000000
00010000
01000000
,
00010000
00100000
00000000
00100000
10000000
00000000
00010000
00000000
10000000
01000000
00000000
01000000
00010000
00000000
10010000
00000000
;
